osu file format v14

[General]
AudioFilename: audio.mp3
AudioLeadIn: 0
PreviewTime: 14912
Countdown: 0
SampleSet: Soft
StackLeniency: 0.7
Mode: 0
LetterboxInBreaks: 0
WidescreenStoryboard: 0

[Editor]
Bookmarks: 15030
DistanceSpacing: 1.2
BeatDivisor: 4
GridSize: 4
TimelineZoom: 1

[Metadata]
Title:TIPA PRIVIDENIE (feat. Utopia Show)
TitleUnicode:ТИПА ПРИВИДЕНИЕ (feat. Utopia Show)
Artist:55x55
ArtistUnicode:55x55
Creator:M a r v o l l o
Version:NORMAL SHOW
Source:
Tags:Shmiklak russian русский marvollo m_a_r_v_o_l_l_o youtube namki armin a_r_m_i_n vanucik5656 vanucik
BeatmapID:1347435
BeatmapSetID:634648

[Difficulty]
HPDrainRate:3
CircleSize:3
OverallDifficulty:4
ApproachRate:4.5
SliderMultiplier:1.4
SliderTickRate:1

[Events]
//Background and Video events
0,0,"mY4euE7U0Y8.jpg",0,0
//Break Periods
//Storyboard Layer 0 (Background)
//Storyboard Layer 1 (Fail)
//Storyboard Layer 2 (Pass)
//Storyboard Layer 3 (Foreground)
//Storyboard Sound Samples

[TimingPoints]
30,468.75,4,2,1,50,1,0
15030,-100,4,2,1,70,0,0
37530,-100,4,2,1,70,0,1
45030,-100,4,2,1,15,0,0
46905,-100,4,2,1,5,0,0

[Colours]
Combo1 : 242,176,77
Combo2 : 217,203,38

[HitObjects]
24,44,30,6,0,P|99:41|180:36,1,140,8|8,0:3|0:0,0:0:0:0:
282,156,967,2,0,P|206:153|126:148,1,140,8|8,0:0|0:0,0:0:0:0:
32,276,1905,6,0,P|100:287|166:266,1,140,8|8,0:3|0:0,0:0:0:0:
334,266,2842,2,0,P|397:287|472:274,1,140,8|8,0:0|0:0,0:0:0:0:
412,116,3780,6,0,L|244:124,1,140,8|8,0:3|0:0,0:0:0:0:
125,40,4717,2,0,B|121:120|121:120|72:156,1,140,8|8,0:0|0:0,0:0:0:0:
9,311,5655,6,0,P|84:300|168:288,1,140,8|8,0:3|0:0,0:0:0:0:
304,224,6592,2,0,P|379:234|463:247,1,140,8|8,0:0|0:0,0:0:0:0:
508,88,7530,5,8,0:3:0:0:
508,88,7998,2,0,P|440:90|360:92,1,140,8|8,0:1|0:0,0:0:0:0:
209,149,8936,6,0,P|141:146|61:145,1,140,8|8,0:1|0:3,0:0:0:0:
16,304,9873,2,0,P|72:288|164:300,1,140,8|8,0:1|0:0,0:0:0:0:
300,376,10811,1,8,0:1:0:0:
256,192,11280,12,2,14092,0:0:0:0:
440,64,15030,6,0,L|448:164,1,70,8|0,0:3|0:0,0:0:0:0:
412,212,15498,2,0,P|343:233|270:203,1,140,8|8,0:0|0:1,0:0:0:0:
224,152,16201,1,0,0:0:0:0:
164,212,16436,2,0,P|144:264|136:296,1,70,8|0,0:0|0:0,0:0:0:0:
64,316,16905,6,0,P|54:287|37:244,1,70,8|0,0:0|0:0,0:0:0:0:
4,172,17373,2,0,P|-4:128|48:52,1,140,8|8,0:0|0:1,0:0:0:0:
132,40,18076,1,2,0:1:0:0:
180,112,18311,2,0,P|215:113|256:104,1,70,8|2,0:0|0:1,0:0:0:0:
320,60,18780,6,0,P|356:58|396:68,1,70,8|0,0:0|0:0,0:0:0:0:
448,124,19248,2,0,P|460:160|436:272,1,140,8|8,0:0|0:1,0:0:0:0:
392,324,19951,1,0,0:0:0:0:
320,276,20186,2,0,L|244:268,1,70,8|2,0:0|0:0,0:0:0:0:
200,336,20655,6,0,P|136:356|60:320,1,140,8|8,0:0|0:0,0:0:0:0:
24,260,21358,1,2,0:0:0:0:
40,176,21592,2,0,P|54:109|64:36,1,140,8|8,0:1|0:0,0:0:0:0:
164,172,22530,6,0,L|248:180,1,70,8|8,0:3|0:0,0:0:0:0:
316,164,22998,2,0,P|368:157|448:193,1,140,8|8,0:3|0:3,0:0:0:0:
484,268,23701,1,8,0:0:0:0:
444,344,23936,2,0,L|368:352,1,70,8|8,0:3|0:0,0:0:0:0:
298,312,24405,6,0,P|259:310|216:316,1,70,8|8,0:3|0:0,0:0:0:0:
156,356,24873,2,0,P|92:364|20:300,1,140,8|8,0:3|0:3,0:0:0:0:
4,244,25576,1,8,0:0:0:0:
48,172,25811,2,0,P|52:132|48:88,1,70,8|8,0:3|0:0,0:0:0:0:
256,192,26280,12,0,28155,0:0:0:0:
416,96,29561,5,8,3:0:0:0:
372,260,30030,6,0,P|324:304|240:300,1,140,8|8,0:3|0:0,0:0:0:0:
124,200,30967,2,0,P|123:162|132:120,1,70,8|2,0:0|0:1,0:0:0:0:
212,116,31436,2,0,P|213:154|204:196,1,70,8|2,0:0|0:1,0:0:0:0:
176,264,31905,6,0,P|149:310|72:356,1,140,8|8,0:0|0:0,0:0:0:0:
24,196,32842,2,0,L|32:116,1,70,8|2,0:0|0:1,0:0:0:0:
112,96,33311,2,0,L|120:176,1,70,8|2,0:0|0:1,0:0:0:0:
178,225,33780,6,0,P|240:240|316:208,1,140,8|8,3:0|0:0,0:0:0:0:
424,88,34717,2,0,L|428:160,1,70,8|2,0:0|0:1,0:0:0:0:
487,217,35186,2,0,L|483:289,1,70,8|2,0:0|0:1,0:0:0:0:
423,346,35655,6,0,L|280:344,1,140,8|8,0:0|0:0,0:0:0:0:
116,320,36592,2,0,P|100:280|96:240,1,70,8|2,0:0|0:1,0:0:0:0:
129,176,37061,2,0,L|198:168,1,70,8|2,3:0|0:1,0:0:0:0:
258,227,37530,6,0,P|324:240|396:196,1,140,8|8,0:3|0:0,0:0:0:0:
468,356,38467,1,8,0:0:0:0:
392,324,38701,1,2,0:1:0:0:
316,364,38936,1,8,0:0:0:0:
244,324,39170,1,2,0:1:0:0:
164,352,39405,6,0,P|100:360|44:304,1,140,8|8,0:0|0:0,0:0:0:0:
42,144,40342,1,8,0:0:0:0:
118,112,40576,1,2,0:1:0:0:
198,144,40811,1,8,0:0:0:0:
274,108,41045,1,2,0:1:0:0:
320,180,41280,6,0,P|289:251|240:300,1,140,8|8,3:0|0:0,0:0:0:0:
82,343,42217,1,8,0:0:0:0:
114,267,42451,1,2,0:1:0:0:
82,187,42686,1,8,0:0:0:0:
118,112,42920,1,2,0:1:0:0:
80,36,43155,5,8,0:3:0:0:
232,104,43623,5,8,0:3:0:0:
396,64,44092,5,8,0:3:0:0:
336,220,44561,5,8,0:3:0:0:
256,192,45030,12,0,46905,0:0:0:0:
