osu file format v14

[General]
AudioFilename: audio.mp3
AudioLeadIn: 0
PreviewTime: 14912
Countdown: 0
SampleSet: Soft
StackLeniency: 0.7
Mode: 0
LetterboxInBreaks: 0
WidescreenStoryboard: 0

[Editor]
Bookmarks: 15030
DistanceSpacing: 1.91
BeatDivisor: 3
GridSize: 4
TimelineZoom: 1.4

[Metadata]
Title:TIPA PRIVIDENIE (feat. Utopia Show)
TitleUnicode:ТИПА ПРИВИДЕНИЕ (feat. Utopia Show)
Artist:55x55
ArtistUnicode:55x55
Creator:M a r v o l l o
Version:HYPER VANUCIK SHOW
Source:
Tags:Shmiklak russian русский marvollo m_a_r_v_o_l_l_o youtube namki armin a_r_m_i_n vanucik5656 vanucik
BeatmapID:1349207
BeatmapSetID:634648

[Difficulty]
HPDrainRate:5.3
CircleSize:4.3
OverallDifficulty:7.3
ApproachRate:8.3
SliderMultiplier:2.2
SliderTickRate:1

[Events]
//Background and Video events
0,0,"mY4euE7U0Y8.jpg",0,0
//Break Periods
//Storyboard Layer 0 (Background)
//Storyboard Layer 1 (Fail)
//Storyboard Layer 2 (Pass)
//Storyboard Layer 3 (Foreground)
//Storyboard Sound Samples

[TimingPoints]
30,468.75,4,2,1,50,1,0
30,-200,4,2,1,50,0,0
3780,-142.857142857143,4,2,1,50,0,0
7530,-111.111111111111,4,2,1,50,0,0
11280,-90.9090909090909,4,2,1,50,0,0
14092,-200,4,2,1,50,0,0
15030,-76.9230769230769,4,2,1,70,0,0
22530,-100,4,2,1,70,0,0
29561,-50,4,2,1,70,0,0
29912,-50,4,2,1,70,0,0
30030,-76.9230769230769,4,2,1,70,0,0
37061,-50,4,2,1,70,0,0
37412,-50,4,2,1,70,0,0
37530,-76.9230769230769,4,2,1,70,0,1
43155,-58.8235294117647,4,2,1,70,0,1
43623,-71.4285714285714,4,2,1,70,0,1
44092,-90.9090909090909,4,2,1,70,0,1
44561,-125,4,2,1,70,0,1
45030,-100,4,2,1,15,0,0
46905,-100,4,2,1,5,0,0

[Colours]
Combo1 : 242,176,77
Combo2 : 217,203,38

[HitObjects]
101,325,186,6,0,L|96:274,2,36.6666666666667,0|0|8,0:0|0:0|0:0,0:0:0:0:
199,275,967,2,0,L|204:224,2,36.6666666666667,8|0|0,0:0|0:0|0:0,0:0:0:0:
194,311,1436,1,8,0:0:0:0:
116,232,1905,2,0,L|111:178,2,36.6666666666667,8|0|0,0:3|0:0|0:0,0:0:0:0:
121,268,2373,1,8,0:0:0:0:
212,206,2842,2,0,L|217:166,2,36.6666666666667,8|0|0,0:0|0:0|0:0,0:0:0:0:
208,242,3311,1,8,0:0:0:0:
50,110,3936,6,0,L|44:174,2,51.3333317667644,0|0|8,0:0|0:0|0:0,0:0:0:0:
168,208,4717,2,0,L|161:282,2,51.3333317667644,8|0|0,0:0|0:0|0:0,0:0:0:0:
175,157,5186,1,8,0:0:0:0:
291,257,5655,2,0,L|287:322,2,51.3333317667644,8|0|0,0:3|0:0|0:0,0:0:0:0:
295,205,6123,1,8,0:0:0:0:
407,309,6592,2,0,L|403:378,2,51.3333317667644,8|0|0,0:0|0:0|0:0,0:0:0:0:
411,257,7061,1,8,0:0:0:0:
191,110,7686,6,0,L|116:104,1,65.9999979858399
59,97,7998,1,8,0:1:0:0:
237,181,8467,2,0,L|305:172,2,65.9999979858399,8|0|0,0:0|0:0|0:0,0:0:0:0:
171,192,8936,1,8,0:1:0:0:
344,286,9405,2,0,L|252:272,2,65.9999979858399,8|0|0,0:3|0:0|0:0,0:0:0:0:
408,301,9873,1,8,0:1:0:0:
213,338,10342,2,0,L|131:324,2,65.9999979858399,8|0|0,0:0|0:0|0:0,0:0:0:0:
278,350,10811,1,8,0:1:0:0:
189,124,11436,6,0,P|153:111|111:104,1,80.6666691284181
30,101,11748,1,8,0:1:0:0:
256,256,12217,2,0,P|307:239|346:235,1,80.6666691284181,8|0,0:0|0:0,0:0:0:0:
414,235,12530,1,0,0:0:0:0:
344,316,12686,1,8,0:1:0:0:
240,97,13155,2,0,P|193:80|159:77,1,80.6666691284181,8|0,0:3|0:0,0:0:0:0:
181,164,13467,1,0,0:0:0:0:
320,147,13623,1,8,0:1:0:0:
264,320,14092,6,0,L|212:315,3,36.6666666666667,2|0|0|2,0:0|0:0|0:0|0:0,0:0:0:0:
264,320,15030,5,8,0:3:0:0:
229,295,15147,1,0,0:0:0:0:
218,253,15264,1,0,0:0:0:0:
230,212,15381,1,0,0:0:0:0:
262,183,15498,2,0,B|331:165|331:165|388:211,1,142.99999345398,8|0,0:0|0:0,0:0:0:0:
228,54,15967,1,8,0:1:0:0:
94,191,16201,1,0,0:0:0:0:
94,191,16319,1,0,0:0:0:0:
94,191,16436,2,0,B|88:247|88:247|114:270|114:270|109:337,1,142.99999345398,8|0,0:0|0:0,0:0:0:0:
329,336,16905,5,8,0:0:0:0:
354,301,17022,1,0,0:0:0:0:
358,258,17139,1,0,0:0:0:0:
338,219,17256,1,0,0:0:0:0:
301,197,17373,2,0,P|278:143|312:63,1,142.99999345398,8|2,0:0|0:0,0:0:0:0:
444,131,17842,2,0,L|360:136,1,71.4999967269899,8|0,0:1|0:0,0:0:0:0:
265,272,18076,2,0,L|194:266,1,71.4999967269899,2|0,0:1|0:0,0:0:0:0:
125,108,18311,1,8,0:0:0:0:
410,229,18545,1,2,0:1:0:0:
101,328,18780,5,8,0:0:0:0:
71,296,18897,1,0,0:0:0:0:
62,254,19014,1,0,0:0:0:0:
78,214,19131,1,0,0:0:0:0:
113,189,19248,2,0,B|162:181|162:181|205:196|205:196|263:190,1,142.99999345398,8|2,0:0|0:0,0:0:0:0:
364,122,19717,1,8,0:1:0:0:
214,60,19951,1,0,0:0:0:0:
214,60,20069,1,0,0:0:0:0:
214,60,20186,2,0,B|144:42|144:42|90:94,1,142.99999345398,8|2,0:0|0:0,0:0:0:0:
46,150,20537,1,0,0:0:0:0:
46,150,20655,6,0,L|52:230,2,71.4999967269899,8|0|2,0:0|0:0|0:0,0:0:0:0:
177,360,21123,2,0,P|222:306|199:218,1,142.99999345398,8|2,0:0|0:0,0:0:0:0:
179,171,21475,1,0,0:0:0:0:
179,171,21592,2,0,L|264:158,2,71.4999967269899,8|0|0,0:1|0:0|0:0,0:0:0:0:
188,95,21944,1,0,0:0:0:0:
188,95,22061,2,0,B|278:80|278:80|315:117,1,142.99999345398,8|2,0:0|0:0,0:0:0:0:
372,311,22530,6,0,L|254:300,1,110,8|8,0:3|0:0,0:0:0:0:
118,164,22998,2,0,L|236:175,1,110,8|8,0:3|0:0,0:0:0:0:
397,77,23467,2,0,P|340:47|277:46,1,110,8|8,0:3|0:0,0:0:0:0:
266,326,23936,2,0,P|320:330|371:310,1,110,8|8,0:3|0:0,0:0:0:0:
147,162,24405,5,8,0:3:0:0:
102,255,24639,1,8,0:0:0:0:
254,231,24873,1,8,0:3:0:0:
233,124,25108,1,8,0:0:0:0:
182,324,25342,1,8,0:3:0:0:
331,308,25576,1,8,0:0:0:0:
97,183,25811,1,8,0:3:0:0:
80,330,26045,1,8,0:0:0:0:
240,189,26280,5,8,0:0:0:0:
254,159,26397,1,2,0:0:0:0:
259,126,26514,1,8,0:0:0:0:
251,93,26631,1,2,0:0:0:0:
230,66,26748,1,8,0:0:0:0:
260,78,26865,1,2,0:0:0:0:
292,86,26983,1,8,0:0:0:0:
324,82,27100,1,2,0:0:0:0:
353,66,27217,2,0,L|425:58,3,55,8|2|8|2,0:0|0:0|0:0|0:0,0:0:0:0:
386,171,27686,2,0,L|463:171,3,55,8|2|8|2,0:0|0:0|0:0|0:0,0:0:0:0:
353,179,29561,6,0,B|297:197|262:169|262:169|226:189|226:189|195:163|195:163|146:183|108:153|108:153|76:166|33:154,1,330,8|0,3:0|0:0,0:0:0:0:
35,151,30030,6,0,P|27:231|79:283,1,142.99999345398,8|0,0:3|0:0,0:0:0:0:
141,295,30381,2,0,L|213:285,1,71.4999967269899,2|8,0:1|0:0,0:0:0:0:
248,178,30615,1,0,0:0:0:0:
241,170,30733,2,0,L|169:180,1,71.4999967269899,2|0,0:0|0:0,0:0:0:0:
328,227,30967,2,0,P|342:153|305:97,1,142.99999345398,8|2,0:0|0:1,0:0:0:0:
96,130,31436,2,0,P|81:203|118:259,1,142.99999345398,8|2,0:0|0:1,0:0:0:0:
311,348,31905,6,0,B|375:313|375:313|448:343,1,142.99999345398,8|2,0:0|0:1,0:0:0:0:
448,254,32256,2,0,L|367:222,1,71.4999967269899,0|8,0:0|0:0,0:0:0:0:
294,178,32490,1,2,0:1:0:0:
287,165,32608,2,0,P|278:129|280:91,1,71.4999967269899,2|0,0:0|0:0,0:0:0:0:
264,275,32842,1,8,0:0:0:0:
89,204,33076,1,2,0:1:0:0:
188,350,33311,1,8,0:0:0:0:
181,151,33545,1,2,0:1:0:0:
378,266,33780,6,0,P|444:279|513:236,1,142.99999345398,8|0,3:0|0:0,0:0:0:0:
512,160,34131,2,0,P|470:150|434:156,1,71.4999967269899,2|8,0:1|0:0,0:0:0:0:
347,175,34365,1,0,0:0:0:0:
338,187,34483,2,0,P|296:197|260:191,1,71.4999967269899,2|0,0:0|0:0,0:0:0:0:
190,141,34717,2,0,B|166:208|166:208|201:270,1,142.99999345398,8|2,0:0|0:1,0:0:0:0:
410,248,35186,2,0,B|434:181|434:181|398:118,1,142.99999345398,8|2,0:0|0:1,0:0:0:0:
208,223,35655,6,0,P|272:258|344:236,1,142.99999345398,8|2,0:0|0:1,0:0:0:0:
280,163,36006,2,0,P|247:147|203:147,1,71.4999967269899,0|8,0:0|0:0,0:0:0:0:
129,190,36240,1,2,0:1:0:0:
129,190,36358,2,0,L|110:285,1,71.4999967269899,2|0,0:0|0:0,0:0:0:0:
36,91,36592,2,0,B|98:53|98:53|167:82,1,142.99999345398,8|2,0:0|0:1,0:0:0:0:
316,354,37061,6,0,B|296:315|296:315|308:291|311:266|311:266|283:235|299:189|299:189|279:160|279:160|296:134|293:102|293:102|270:74|284:27,1,330,8|0,3:0|0:0,0:0:0:0:
281,39,37530,6,0,P|333:52|415:13,1,142.99999345398,8|0,0:3|0:0,0:0:0:0:
427,105,37881,2,0,P|420:144|395:182,1,71.4999967269899,2|8,0:1|0:0,0:0:0:0:
298,192,38115,1,0,0:0:0:0:
298,192,38233,2,0,P|273:166|258:134,1,71.4999967269899,2|0,0:0|0:0,0:0:0:0:
174,273,38467,2,0,P|228:277|289:344,1,142.99999345398,8|2,0:0|0:1,0:0:0:0:
80,242,38936,2,0,P|124:187|193:176,1,142.99999345398,8|2,0:0|0:1,0:0:0:0:
382,75,39405,6,0,B|320:41|320:41|233:58,1,142.99999345398,8|0,0:0|0:0,0:0:0:0:
173,75,39756,2,0,P|163:34|168:1,1,71.4999967269899,2|8,0:1|0:0,0:0:0:0:
252,136,39990,1,2,0:1:0:0:
252,136,40108,2,0,P|262:177|257:210,1,71.4999967269899,2|0,0:0|0:0,0:0:0:0:
186,260,40342,1,8,0:0:0:0:
344,236,40576,1,2,0:1:0:0:
151,175,40811,1,8,0:0:0:0:
360,145,41045,1,2,0:1:0:0:
279,358,41280,6,0,P|231:378|136:342,1,142.99999345398,8|0,3:0|0:0,0:0:0:0:
102,280,41631,2,0,L|185:271,1,71.4999967269899,2|8,0:1|0:0,0:0:0:0:
262,197,41865,1,0,0:0:0:0:
262,197,41983,2,0,L|179:188,1,71.4999967269899,2|0,0:0|0:0,0:0:0:0:
96,118,42217,2,0,B|159:85|159:85|232:111,1,142.99999345398,8|2,0:0|0:1,0:0:0:0:
205,278,42686,2,0,B|133:280|133:280|79:224,1,142.99999345398,8|2,0:0|0:1,0:0:0:0:
327,43,43155,6,0,L|313:326,1,280.500005350113,8|0,0:3|0:0,0:0:0:0:
215,355,43623,6,0,L|204:123,1,230.99999295044,8|0,0:3|0:0,0:0:0:0:
124,94,44092,6,0,L|106:279,1,181.500005538941,8|0,0:3|0:0,0:0:0:0:
39,317,44561,6,0,L|24:176,1,132,8|0,0:3|0:0,0:0:0:0:
256,192,45030,12,0,46905,0:0:0:0:
