osu file format v14

[General]
AudioFilename: audio.mp3
AudioLeadIn: 0
PreviewTime: 0
Countdown: 1
SampleSet: Normal
StackLeniency: 0.7
Mode: 0
LetterboxInBreaks: 0
WidescreenStoryboard: 1

[Editor]
DistanceSpacing: 1.3
BeatDivisor: 4
GridSize: 4
TimelineZoom: 1

[Metadata]
Title:Silnoe zayavlenie
TitleUnicode:СИЛЬНОЕ ЗАЯВЛЕНИЕ
Artist:55x55
ArtistUnicode:55x55
Creator:KnucklesYT6
Version:Normal
Source:
Tags:
BeatmapID:1308007
BeatmapSetID:620541

[Difficulty]
HPDrainRate:4
CircleSize:4
OverallDifficulty:3
ApproachRate:4
SliderMultiplier:1.4
SliderTickRate:1

[Events]
//Background and Video events
0,0,"e.jpg",0,0
//Break Periods
2,12795,19352
2,101588,102387
//Storyboard Layer 0 (Background)
//Storyboard Layer 1 (Fail)
//Storyboard Layer 2 (Pass)
//Storyboard Layer 3 (Foreground)
//Storyboard Sound Samples

[TimingPoints]
249,461.537695852537,4,1,0,100,1,0
85171,230.769230769231,4,1,0,100,1,0
87017,461.538461538462,4,1,0,100,1,0
88988,400,4,1,0,100,1,0
103707,461.538461538462,4,1,0,100,1,0
111067,-50,4,1,0,100,0,0

[HitObjects]
48,77,249,5,0,0:0:0:0:
137,72,1056,1,0,0:0:0:0:
243,70,1518,1,0,0:0:0:0:
347,81,2210,1,0,0:0:0:0:
381,139,2672,1,0,0:0:0:0:
383,197,3018,1,0,0:0:0:0:
352,223,3364,1,0,0:0:0:0:
80,125,3941,5,0,0:0:0:0:
173,116,4518,1,0,0:0:0:0:
241,115,5095,1,0,0:0:0:0:
267,114,5441,1,0,0:0:0:0:
356,129,5787,1,0,0:0:0:0:
349,188,6248,1,0,0:0:0:0:
307,222,6710,1,0,0:0:0:0:
71,121,7633,1,0,0:0:0:0:
142,108,8095,1,0,0:0:0:0:
195,105,8672,1,0,0:0:0:0:
236,102,8902,1,0,0:0:0:0:
244,183,9479,1,0,0:0:0:0:
231,225,9941,1,0,0:0:0:0:
172,236,10287,1,0,0:0:0:0:
60,103,10633,6,0,L|181:244,1,186.666666666667
225,220,11672,1,0,0:0:0:0:
279,200,12133,1,0,0:0:0:0:
360,145,12595,1,0,0:0:0:0:
265,174,20672,5,0,0:0:0:0:
168,169,21133,1,0,0:0:0:0:
101,120,21595,1,0,0:0:0:0:
148,60,22056,1,0,0:0:0:0:
190,37,22518,1,0,0:0:0:0:
230,37,22864,1,0,0:0:0:0:
256,192,23210,12,0,26095,0:0:0:0:
255,194,27479,5,0,0:0:0:0:
158,175,27941,2,0,L|45:53,1,140
61,50,29787,6,0,P|302:35|301:34,1,723.333333333333
326,39,32556,1,0,0:0:0:0:
396,43,32902,1,0,0:0:0:0:
454,83,33479,1,0,0:0:0:0:
456,156,33825,2,0,P|208:194|170:201,1,280
195,137,35325,1,0,0:0:0:0:
106,130,35787,1,0,0:0:0:0:
102,220,36133,1,0,0:0:0:0:
73,124,37172,5,0,0:0:0:0:
186,110,37633,1,0,0:0:0:0:
312,77,38441,1,0,0:0:0:0:
217,148,38787,2,0,L|412:228,1,210
404,222,39825,1,0,0:0:0:0:
318,247,40402,1,0,0:0:0:0:
233,262,40748,2,0,L|106:153,1,163.333333333333
94,115,41556,1,0,0:0:0:0:
129,83,41902,1,0,0:0:0:0:
182,57,42364,1,0,0:0:0:0:
251,64,42710,1,0,0:0:0:0:
313,111,43056,2,0,P|443:107|443:108,1,186.666666666667
483,88,44095,1,0,0:0:0:0:
137,99,45248,5,0,0:0:0:0:
228,78,45710,1,0,0:0:0:0:
286,69,46287,1,0,0:0:0:0:
412,74,46979,5,0,0:0:0:0:
413,193,47441,1,0,0:0:0:0:
388,230,47902,1,0,0:0:0:0:
311,261,48364,2,0,P|74:191|74:190,1,326.666666666667
82,134,49633,2,0,L|336:202,1,256.666666666667
372,189,50787,1,0,0:0:0:0:
416,142,51364,1,0,0:0:0:0:
405,96,52056,1,0,0:0:0:0:
341,78,52402,1,0,0:0:0:0:
269,70,52864,1,0,0:0:0:0:
188,61,53325,1,0,0:0:0:0:
90,69,53902,1,0,0:0:0:0:
80,200,54595,1,0,0:0:0:0:
118,228,55633,1,0,0:0:0:0:
120,155,56210,5,2,0:0:0:0:
214,138,56671,1,0,0:0:0:0:
315,119,57018,2,0,L|328:261,1,140
328,243,57825,1,2,0:0:0:0:
284,214,58402,1,2,0:0:0:0:
234,185,58748,1,2,0:0:0:0:
54,116,59671,5,0,0:0:0:0:
188,95,60248,1,0,0:0:0:0:
262,89,60825,1,0,0:0:0:0:
329,86,61748,1,0,0:0:0:0:
383,124,62210,1,0,0:0:0:0:
394,159,62671,1,0,0:0:0:0:
402,218,63364,1,0,0:0:0:0:
313,224,64056,1,0,0:0:0:0:
268,211,64518,1,0,0:0:0:0:
234,186,64979,1,0,0:0:0:0:
195,163,65441,1,0,0:0:0:0:
157,143,65902,1,0,0:0:0:0:
57,145,66364,6,0,P|144:35|181:86,1,256.666666666667
243,86,67633,1,0,0:0:0:0:
311,72,68210,1,0,0:0:0:0:
400,92,68556,1,0,0:0:0:0:
405,146,69364,1,0,0:0:0:0:
406,191,69825,1,0,0:0:0:0:
402,252,70287,1,0,0:0:0:0:
349,272,70864,1,0,0:0:0:0:
270,236,71441,1,0,0:0:0:0:
186,176,71902,1,0,0:0:0:0:
135,142,72364,1,0,0:0:0:0:
102,92,72941,1,0,0:0:0:0:
141,56,73402,1,0,0:0:0:0:
71,97,74095,5,0,0:0:0:0:
135,84,74671,1,0,0:0:0:0:
232,101,75595,1,0,0:0:0:0:
292,84,75941,1,0,0:0:0:0:
317,82,76748,1,0,0:0:0:0:
370,93,77787,1,0,0:0:0:0:
383,106,78825,1,0,0:0:0:0:
464,87,79171,1,0,0:0:0:0:
400,163,79748,1,0,0:0:0:0:
327,168,80095,1,0,0:0:0:0:
239,168,80556,1,0,0:0:0:0:
176,189,80902,1,0,0:0:0:0:
62,191,81364,5,0,0:0:0:0:
96,189,81825,1,0,0:0:0:0:
156,183,82287,1,0,0:0:0:0:
202,188,82633,1,0,0:0:0:0:
264,175,82979,1,0,0:0:0:0:
355,163,83441,1,0,0:0:0:0:
403,166,83902,1,0,0:0:0:0:
432,204,84364,1,0,0:0:0:0:
399,253,84941,1,0,0:0:0:0:
328,256,85325,1,0,0:0:0:0:
256,192,85690,12,0,87478,0:0:0:0:
88,61,88978,5,0,0:0:0:0:
146,62,89688,1,0,0:0:0:0:
182,58,90188,1,0,0:0:0:0:
270,58,90588,1,0,0:0:0:0:
343,73,90988,1,0,0:0:0:0:
361,114,91388,1,0,0:0:0:0:
330,177,91988,1,0,0:0:0:0:
115,145,92588,5,0,0:0:0:0:
167,137,93188,1,0,0:0:0:0:
219,78,93588,1,0,0:0:0:0:
260,53,94188,1,0,0:0:0:0:
315,84,94588,1,0,0:0:0:0:
330,133,94988,1,0,0:0:0:0:
337,190,95388,1,0,0:0:0:0:
71,275,96188,5,0,0:0:0:0:
78,189,96988,1,0,0:0:0:0:
96,115,97488,1,0,0:0:0:0:
131,59,98188,1,0,0:0:0:0:
195,48,98588,1,0,0:0:0:0:
249,60,98988,1,0,0:0:0:0:
230,121,99788,6,0,L|96:164,1,140
96,163,100588,2,0,P|192:272|204:276,1,140
227,268,101388,1,0,0:0:0:0:
24,72,103707,6,0,L|304:80,1,280
104,42,105437,5,0,0:0:0:0:
152,38,105899,1,0,0:0:0:0:
210,40,106360,1,0,0:0:0:0:
269,64,106822,1,0,0:0:0:0:
351,109,107399,1,0,0:0:0:0:
370,204,108322,1,0,0:0:0:0:
345,251,108783,1,0,0:0:0:0:
238,258,109245,1,0,0:0:0:0:
155,234,109707,1,0,0:0:0:0:
85,188,110168,1,0,0:0:0:0:
39,48,110976,6,0,B|261:192|260:192,1,256.666666666667
370,111,112476,1,0,0:0:0:0:
391,168,112937,1,0,0:0:0:0:
332,204,113630,1,0,0:0:0:0:
259,195,114091,1,0,0:0:0:0:
150,152,114899,5,0,0:0:0:0:
224,94,115245,1,0,0:0:0:0:
301,111,115707,1,0,0:0:0:0:
322,153,116630,1,0,0:0:0:0:
301,220,117091,1,0,0:0:0:0:
251,195,118014,5,0,0:0:0:0:
