osu file format v14

[General]
AudioFilename: audio.mp3
AudioLeadIn: 0
PreviewTime: 118517
Countdown: 1
SampleSet: Normal
StackLeniency: 0.7
Mode: 0
LetterboxInBreaks: 0
WidescreenStoryboard: 1

[Editor]
DistanceSpacing: 1.3
BeatDivisor: 4
GridSize: 4
TimelineZoom: 1

[Metadata]
Title:Silnoe zayavlenie
TitleUnicode:СИЛЬНОЕ ЗАЯВЛЕНИЕ
Artist:55x55
ArtistUnicode:55x55
Creator:KnucklesYT6
Version:Easy
Source:
Tags:
BeatmapID:1311032
BeatmapSetID:620541

[Difficulty]
HPDrainRate:1
CircleSize:2.9
OverallDifficulty:1
ApproachRate:2.1
SliderMultiplier:0.9
SliderTickRate:1

[Events]
//Background and Video events
0,0,"e.jpg",0,0
//Break Periods
2,14525,18085
2,73717,78200
//Storyboard Layer 0 (Background)
//Storyboard Layer 1 (Fail)
//Storyboard Layer 2 (Pass)
//Storyboard Layer 3 (Foreground)
//Storyboard Sound Samples

[TimingPoints]
249,461.537695852537,4,1,0,100,1,0
85171,230.769230769231,4,1,0,100,1,0
117074,461.538461538462,4,1,0,100,1,0

[HitObjects]
69,82,479,5,0,0:0:0:0:
133,70,1172,1,0,0:0:0:0:
175,56,1518,1,0,0:0:0:0:
227,55,2095,1,0,0:0:0:0:
295,56,2556,1,0,0:0:0:0:
365,70,3018,1,0,0:0:0:0:
292,156,3941,1,0,0:0:0:0:
247,157,4633,1,0,0:0:0:0:
188,143,5095,1,0,0:0:0:0:
103,114,5902,1,0,0:0:0:0:
99,58,6364,1,0,0:0:0:0:
84,52,7518,6,0,L|241:39,1,157.5
342,64,9018,1,0,0:0:0:0:
382,96,9595,1,0,0:0:0:0:
400,176,10287,1,0,0:0:0:0:
350,223,10748,1,0,0:0:0:0:
245,216,11325,1,0,0:0:0:0:
111,164,12018,1,0,0:0:0:0:
103,73,12595,1,0,0:0:0:0:
175,66,12941,6,0,L|462:22,1,270
467,156,19633,5,0,0:0:0:0:
419,183,20556,1,0,0:0:0:0:
340,186,21479,1,0,0:0:0:0:
256,192,23095,12,0,26095,0:0:0:0:
143,249,27941,6,0,L|73:88,1,157.5
84,74,29902,5,0,0:0:0:0:
255,77,30710,1,0,0:0:0:0:
355,77,31287,1,0,0:0:0:0:
439,132,32210,1,0,0:0:0:0:
419,209,32672,1,0,0:0:0:0:
370,245,33479,1,0,0:0:0:0:
290,226,34056,1,0,0:0:0:0:
221,205,34633,1,0,0:0:0:0:
130,185,35095,1,0,0:0:0:0:
90,82,36018,1,0,0:0:0:0:
121,62,36364,1,0,0:0:0:0:
65,81,37633,5,0,0:0:0:0:
144,67,38095,1,0,0:0:0:0:
174,60,38556,1,0,0:0:0:0:
272,56,39595,1,0,0:0:0:0:
380,59,40287,1,0,0:0:0:0:
398,129,40864,1,0,0:0:0:0:
399,209,41441,1,0,0:0:0:0:
383,244,42018,1,0,0:0:0:0:
319,256,42479,1,0,0:0:0:0:
235,244,42941,2,0,L|81:179,1,157.5
86,65,44787,5,0,0:0:0:0:
192,58,45595,1,0,0:0:0:0:
292,72,46172,1,0,0:0:0:0:
410,84,46864,1,0,0:0:0:0:
420,171,47556,1,0,0:0:0:0:
385,261,48248,1,0,0:0:0:0:
277,264,48941,1,0,0:0:0:0:
144,296,49518,2,0,L|133:138,1,157.5
129,74,50787,1,0,0:0:0:0:
70,168,52171,5,0,0:0:0:0:
144,102,52864,1,0,0:0:0:0:
240,55,53556,1,0,0:0:0:0:
376,73,54479,1,0,0:0:0:0:
395,163,55056,1,0,0:0:0:0:
344,278,55748,5,2,0:0:0:0:
228,243,56671,1,2,0:0:0:0:
172,189,57248,1,2,0:0:0:0:
117,106,58171,1,2,0:0:0:0:
101,64,59671,6,0,L|231:36,1,112.5
243,37,60710,2,0,P|421:36|425:36,1,180
430,163,62210,1,0,0:0:0:0:
429,224,62902,1,0,0:0:0:0:
344,279,63595,1,0,0:0:0:0:
277,252,64287,1,0,0:0:0:0:
166,208,64748,1,0,0:0:0:0:
88,191,65441,1,0,0:0:0:0:
81,131,66133,1,0,0:0:0:0:
72,87,67056,5,0,0:0:0:0:
157,72,67748,1,0,0:0:0:0:
208,63,68787,1,0,0:0:0:0:
257,57,69595,1,0,0:0:0:0:
406,62,70402,1,0,0:0:0:0:
401,154,71095,1,0,0:0:0:0:
395,200,71671,1,0,0:0:0:0:
304,241,72248,1,0,0:0:0:0:
181,221,72825,2,0,L|27:225,1,135
328,115,79748,5,0,0:0:0:0:
373,108,81133,1,0,0:0:0:0:
431,132,81941,1,0,0:0:0:0:
421,216,82402,1,0,0:0:0:0:
220,252,83325,1,0,0:0:0:0:
143,220,84018,1,0,0:0:0:0:
77,112,85056,1,0,0:0:0:0:
256,192,85402,12,0,87018,0:0:0:0:
98,56,88979,5,0,0:0:0:0:
152,55,89787,1,0,0:0:0:0:
215,55,90248,1,0,0:0:0:0:
309,61,91056,1,0,0:0:0:0:
416,79,91748,1,0,0:0:0:0:
411,173,92325,2,0,L|148:226,1,247.5
64,109,94633,1,0,0:0:0:0:
112,40,95210,1,0,0:0:0:0:
37,267,95902,6,0,L|273:266,1,225
279,117,97748,1,0,0:0:0:0:
224,69,98556,1,0,0:0:0:0:
135,72,99018,1,0,0:0:0:0:
76,276,99941,5,0,0:0:0:0:
105,140,100864,1,0,0:0:0:0:
250,106,101441,2,0,L|110:297,1,225
88,262,103864,5,0,0:0:0:0:
107,171,104441,1,0,0:0:0:0:
135,92,105018,1,0,0:0:0:0:
232,63,105825,1,0,0:0:0:0:
316,67,106402,1,0,0:0:0:0:
394,120,107210,1,0,0:0:0:0:
395,178,107902,1,0,0:0:0:0:
374,287,108479,1,0,0:0:0:0:
302,279,108941,1,0,0:0:0:0:
166,198,109864,1,0,0:0:0:0:
84,137,110441,1,0,0:0:0:0:
94,51,111133,5,0,0:0:0:0:
190,36,111825,1,0,0:0:0:0:
286,37,112287,1,0,0:0:0:0:
333,37,112979,1,0,0:0:0:0:
408,57,113441,1,0,0:0:0:0:
412,114,114018,1,0,0:0:0:0:
386,209,114941,1,0,0:0:0:0:
358,279,115518,1,0,0:0:0:0:
270,283,116094,1,0,0:0:0:0:
158,229,116671,1,0,0:0:0:0:
244,185,117594,5,0,0:0:0:0:
