osu file format v14

[General]
AudioFilename: audio.mp3
AudioLeadIn: 0
PreviewTime: 29787
Countdown: 3
SampleSet: None
StackLeniency: 0.7
Mode: 0
LetterboxInBreaks: 0
WidescreenStoryboard: 1

[Editor]
DistanceSpacing: 1.3
BeatDivisor: 4
GridSize: 4
TimelineZoom: 1

[Metadata]
Title:Silnoe Zayavlenie
TitleUnicode:СИЛЬНОЕ ЗАЯВЛЕНИЕ
Artist:55x55
ArtistUnicode:55x55
Creator:KnucklesYT6
Version:Insane
Source:
Tags:
BeatmapID:1455215
BeatmapSetID:620541

[Difficulty]
HPDrainRate:8
CircleSize:5
OverallDifficulty:8
ApproachRate:8
SliderMultiplier:1.4
SliderTickRate:1

[Events]
//Background and Video events
0,0,"e.jpg",0,0
//Break Periods
2,13487,18883
2,43140,43805
2,74294,80036
2,85371,87882
//Storyboard Layer 0 (Background)
//Storyboard Layer 1 (Fail)
//Storyboard Layer 2 (Pass)
//Storyboard Layer 3 (Foreground)
//Storyboard Sound Samples

[TimingPoints]
249,461.538461538462,4,1,0,100,1,0
6479,-66.6666666666667,4,1,0,100,0,0
8684,-100,4,1,0,100,0,0
19633,-80,4,1,0,100,0,0
28633,-100,4,1,0,100,0,0
29787,461.538461538462,4,1,0,100,1,1
36248,461.538461538462,4,1,0,100,1,0
85171,230.769230769231,4,1,0,100,1,0
87017,461.538461538462,4,1,0,100,1,0
101786,-200,4,1,0,100,0,0
102709,-100,4,1,0,100,0,0

[HitObjects]
36,60,249,5,0,0:0:0:0:
168,64,710,2,0,L|424:212,1,280
368,240,1979,1,0,0:0:0:0:
240,236,2325,1,0,0:0:0:0:
76,204,2787,1,0,0:0:0:0:
80,136,3249,1,0,0:0:0:0:
172,80,3479,2,0,B|288:188|168:72|168:76,1,140
280,84,4172,5,0,0:0:0:0:
300,104,4518,1,0,0:0:0:0:
264,160,4749,1,0,0:0:0:0:
216,136,4864,2,0,B|56:144|64:144,1,140
72,144,5441,5,0,0:0:0:0:
108,80,5672,1,0,0:0:0:0:
196,116,6018,1,0,0:0:0:0:
320,136,6249,1,0,0:0:0:0:
228,72,6479,5,0,0:0:0:0:
116,128,6710,1,0,0:0:0:0:
116,80,6825,2,0,L|224:232,1,157.500006008148
312,160,7402,5,0,0:0:0:0:
388,92,7633,2,0,B|224:64|76:180|-4:224,1,420.000016021729
8,276,8672,1,0,0:0:0:0:
56,248,8787,1,0,0:0:0:0:
80,224,8902,2,0,L|12:48,1,175
16,60,9595,1,0,0:0:0:0:
80,64,9710,5,0,0:0:0:0:
136,76,9941,1,0,0:0:0:0:
212,88,10287,1,0,0:0:0:0:
148,136,10633,1,0,0:0:0:0:
40,156,11095,1,0,0:0:0:0:
40,156,11325,6,0,L|300:208,1,245
280,204,12249,1,0,0:0:0:0:
288,156,12479,1,0,0:0:0:0:
240,148,12595,2,0,L|44:144,1,175
65,144,13287,1,0,0:0:0:0:
124,132,19633,5,0,0:0:0:0:
180,136,19979,2,0,L|492:332,1,350
424,184,21249,1,0,0:0:0:0:
324,108,21595,1,0,0:0:0:0:
268,108,21710,5,0,0:0:0:0:
272,64,21825,1,0,0:0:0:0:
320,68,22287,1,0,0:0:0:0:
384,100,22402,1,0,0:0:0:0:
168,240,22749,1,0,0:0:0:0:
172,192,22864,6,0,L|320:48,1,175
348,56,23441,1,0,0:0:0:0:
360,116,23556,1,0,0:0:0:0:
312,172,23672,1,0,0:0:0:0:
256,196,23787,1,0,0:0:0:0:
240,140,23902,1,0,0:0:0:0:
236,88,24018,5,0,0:0:0:0:
184,88,24133,1,0,0:0:0:0:
140,96,24249,1,0,0:0:0:0:
156,160,24364,1,0,0:0:0:0:
232,160,24479,1,0,0:0:0:0:
292,156,24595,1,0,0:0:0:0:
288,212,24710,6,0,L|480:16,1,262.5
471,24,25633,2,0,L|252:144,1,218.75
16,52,27941,5,0,0:0:0:0:
80,56,28056,1,0,0:0:0:0:
128,64,28172,2,0,L|128:200,1,131.25
188,196,28633,2,0,L|336:184,1,140
324,132,29325,1,2,0:0:0:0:
256,136,29441,1,2,0:0:0:0:
256,80,29787,5,0,0:0:0:0:
208,76,29902,2,0,L|124:232,1,175
128,224,30594,1,0,0:0:0:0:
196,228,30710,1,0,0:0:0:0:
136,160,30825,1,0,0:0:0:0:
136,104,30940,6,0,L|16:268,1,175
36,248,31633,1,0,0:0:0:0:
96,264,31748,1,0,0:0:0:0:
164,264,31863,1,0,0:0:0:0:
168,200,31979,1,0,0:0:0:0:
168,148,32094,5,0,0:0:0:0:
240,144,32325,1,0,0:0:0:0:
240,88,32556,2,0,L|104:92,1,105
136,148,33017,1,0,0:0:0:0:
212,136,33363,5,0,0:0:0:0:
268,132,33479,2,0,L|32:188,1,210
132,88,34402,1,0,0:0:0:0:
196,64,34633,1,0,0:0:0:0:
212,56,34748,1,0,0:0:0:0:
252,40,34863,5,0,0:0:0:0:
296,84,34979,1,0,0:0:0:0:
332,112,35094,1,0,0:0:0:0:
280,156,35210,1,0,0:0:0:0:
196,152,35325,5,0,0:0:0:0:
196,152,35440,2,0,L|256:32,1,105
242,58,36248,5,0,0:0:0:0:
180,104,37171,5,0,0:0:0:0:
240,104,37286,1,0,0:0:0:0:
256,64,37517,1,0,0:0:0:0:
308,64,37863,1,0,0:0:0:0:
308,120,37978,2,0,L|72:216,1,245
68,88,38901,1,0,0:0:0:0:
148,80,39132,1,0,0:0:0:0:
172,160,39363,5,0,0:0:0:0:
224,84,39478,1,0,0:0:0:0:
224,84,39594,2,0,L|12:304,1,280
16,236,40632,1,0,0:0:0:0:
16,136,40748,5,0,0:0:0:0:
80,136,40863,1,0,0:0:0:0:
148,128,40978,1,0,0:0:0:0:
192,128,41209,2,0,B|336:128|336:128|340:200,1,210
339,193,42017,5,0,0:0:0:0:
288,136,42132,1,0,0:0:0:0:
228,132,42248,1,0,0:0:0:0:
224,212,42478,1,0,0:0:0:0:
224,288,42594,5,0,0:0:0:0:
304,288,42824,1,0,0:0:0:0:
300,224,42940,1,0,0:0:0:0:
24,48,44555,5,0,0:0:0:0:
40,140,44786,1,0,0:0:0:0:
60,216,44901,1,0,0:0:0:0:
120,264,45017,1,0,0:0:0:0:
144,184,45132,1,0,0:0:0:0:
240,188,45248,1,0,0:0:0:0:
248,112,45478,5,0,0:0:0:0:
196,104,45594,1,0,0:0:0:0:
296,116,45824,1,0,0:0:0:0:
300,120,45940,2,0,B|288:296|288:296|36:296,1,420
44,296,47440,5,0,0:0:0:0:
48,228,47555,1,0,0:0:0:0:
116,232,47786,1,0,0:0:0:0:
112,148,48017,1,0,0:0:0:0:
180,140,48248,1,0,0:0:0:0:
192,216,48363,1,0,0:0:0:0:
248,220,48478,6,0,L|416:224,1,140
387,223,49055,1,0,0:0:0:0:
384,172,49171,1,0,0:0:0:0:
328,172,49401,1,0,0:0:0:0:
316,112,49632,5,0,0:0:0:0:
316,112,49748,2,0,L|152:112,1,140
176,112,50324,2,0,L|384:232,1,210
357,216,51132,1,0,0:0:0:0:
360,100,51248,1,0,0:0:0:0:
280,88,51363,5,0,0:0:0:0:
276,168,51478,1,0,0:0:0:0:
216,144,51594,1,0,0:0:0:0:
228,72,51940,1,0,0:0:0:0:
260,192,52171,5,0,0:0:0:0:
320,144,52401,1,0,0:0:0:0:
264,112,52632,2,0,L|44:340,1,315
48,340,53786,1,0,0:0:0:0:
112,344,53901,1,0,0:0:0:0:
116,280,54132,1,0,0:0:0:0:
224,272,54363,5,0,0:0:0:0:
232,196,54594,1,0,0:0:0:0:
256,136,54824,5,2,0:0:0:0:
316,120,55055,1,2,0:0:0:0:
328,180,55171,1,2,0:0:0:0:
328,180,55286,2,2,L|16:272,1,315
36,320,56440,1,2,0:0:0:0:
100,292,56555,5,2,0:0:0:0:
108,220,56786,1,2,0:0:0:0:
196,192,56901,1,2,0:0:0:0:
256,160,57132,1,2,0:0:0:0:
256,160,57363,2,2,L|356:264,2,140
372,128,59324,5,0,0:0:0:0:
312,124,59555,1,0,0:0:0:0:
312,124,59671,2,0,B|20:324|20:324|328:112,1,700
296,124,62209,1,0,0:0:0:0:
164,124,62440,5,0,0:0:0:0:
176,208,62671,1,0,0:0:0:0:
236,212,62786,2,0,L|476:20,1,280
454,37,63824,1,0,0:0:0:0:
332,128,64055,5,0,0:0:0:0:
272,192,64401,1,0,0:0:0:0:
248,128,64748,1,0,0:0:0:0:
196,132,64863,2,0,L|96:312,1,175
112,280,65555,6,0,L|280:288,1,140
251,286,66132,6,0,L|192:132,1,140
96,128,66824,5,0,0:0:0:0:
180,200,66940,1,0,0:0:0:0:
260,132,67055,1,0,0:0:0:0:
264,196,67286,2,0,B|104:328|104:328|404:80|404:80|388:92,1,595
336,76,69478,5,0,0:0:0:0:
304,132,69594,1,0,0:0:0:0:
208,240,69709,1,0,0:0:0:0:
264,192,69824,2,0,B|76:336|76:336|188:164|188:164|308:232|308:232|208:108|204:108,1,735
209,112,72363,5,0,0:0:0:0:
284,88,72594,1,0,0:0:0:0:
256,196,72824,1,0,0:0:0:0:
120,224,73055,5,0,0:0:0:0:
200,280,73286,1,0,0:0:0:0:
308,256,73517,1,0,0:0:0:0:
260,192,74094,1,0,0:0:0:0:
36,260,80786,5,4,0:0:0:0:
100,216,80901,1,2,0:0:0:0:
160,184,81248,1,2,0:0:0:0:
244,204,81363,1,2,0:0:0:0:
296,224,81594,1,2,0:0:0:0:
328,168,81709,1,2,0:0:0:0:
232,144,81824,1,2,0:0:0:0:
160,168,81940,1,2,0:0:0:0:
112,236,82055,1,2,0:0:0:0:
116,240,82171,6,2,B|472:40|472:40|128:300|128:300|112:224|112:224,1,910
32,256,88632,5,2,0:0:0:0:
92,240,88863,1,2,0:0:0:0:
148,220,88978,2,2,B|360:216|360:216|240:288,1,350
241,286,90247,1,2,0:0:0:0:
324,296,90363,5,2,0:0:0:0:
320,232,90478,1,2,0:0:0:0:
308,160,90709,1,2,0:0:0:0:
240,160,90824,2,2,B|104:288|104:288|192:100|192:100|392:304,1,665
381,293,93247,1,2,0:0:0:0:
296,292,93363,5,2,0:0:0:0:
292,228,93593,1,2,0:0:0:0:
216,160,93824,1,2,0:0:0:0:
216,160,94055,2,2,B|192:316|192:316|52:196|56:196|228:156|228:156|232:160,1,455
226,156,95670,1,2,0:0:0:0:
48,196,95901,5,2,0:0:0:0:
112,136,96017,1,2,0:0:0:0:
196,96,96247,1,2,0:0:0:0:
260,184,96478,1,2,0:0:0:0:
256,252,96709,2,2,B|48:352|280:236,1,245
279,236,97632,1,2,0:0:0:0:
252,196,97863,5,2,0:0:0:0:
180,144,97978,1,2,0:0:0:0:
176,72,98093,1,2,0:0:0:0:
228,72,98209,2,2,B|376:88|376:88|184:236,1,385
168,172,99709,5,2,0:0:0:0:
256,160,99824,1,2,0:0:0:0:
268,248,99940,1,2,0:0:0:0:
172,276,100055,1,2,0:0:0:0:
164,168,100170,1,2,0:0:0:0:
228,80,100286,1,2,0:0:0:0:
312,136,100401,1,2,0:0:0:0:
328,204,100517,5,2,0:0:0:0:
304,296,100632,1,2,0:0:0:0:
192,292,100747,1,2,0:0:0:0:
132,280,100863,2,2,L|148:96,1,175
204,108,101555,1,2,0:0:0:0:
276,116,101670,1,2,0:0:0:0:
340,116,101786,5,2,0:0:0:0:
380,164,101901,1,2,0:0:0:0:
424,224,102132,1,2,0:0:0:0:
468,280,102247,1,2,0:0:0:0:
24,192,103632,5,0,0:0:0:0:
104,196,103863,1,0,0:0:0:0:
168,148,103978,1,0,0:0:0:0:
224,152,104093,2,0,B|280:320|280:320|384:148|384:148|388:156,1,385
387,154,105478,1,0,0:0:0:0:
404,96,105593,5,0,0:0:0:0:
296,92,105709,1,0,0:0:0:0:
240,196,105824,1,0,0:0:0:0:
280,296,106055,1,0,0:0:0:0:
292,196,106286,6,0,L|400:204,1,105
396,203,106747,1,0,0:0:0:0:
384,144,106978,1,0,0:0:0:0:
312,144,107093,1,0,0:0:0:0:
232,152,107209,1,0,0:0:0:0:
136,224,107440,5,0,0:0:0:0:
224,232,107555,1,0,0:0:0:0:
296,232,107786,1,0,0:0:0:0:
300,304,108017,1,0,0:0:0:0:
192,324,108132,1,0,0:0:0:0:
192,272,108247,6,0,L|200:128,1,140
199,132,108824,1,0,0:0:0:0:
264,136,108940,1,0,0:0:0:0:
328,144,109055,1,0,0:0:0:0:
328,208,109170,6,0,B|208:276|208:276|216:252,1,140
180,212,109747,1,0,0:0:0:0:
260,192,109863,1,0,0:0:0:0:
256,96,110093,1,0,0:0:0:0:
144,108,110209,1,0,0:0:0:0:
88,236,110440,5,0,0:0:0:0:
168,280,110555,1,0,0:0:0:0:
256,276,110670,1,0,0:0:0:0:
304,200,110786,1,0,0:0:0:0:
304,200,110901,2,0,L|64:240,1,210
84,176,111824,5,0,0:0:0:0:
164,168,112055,1,0,0:0:0:0:
248,168,112286,1,0,0:0:0:0:
248,260,112632,1,0,0:0:0:0:
120,184,112863,1,0,0:0:0:0:
176,184,113209,6,0,L|296:184,1,105
292,184,113670,1,0,0:0:0:0:
336,184,113786,2,0,L|248:304,1,140
248,296,114363,1,0,0:0:0:0:
184,260,114478,1,0,0:0:0:0:
228,196,114593,1,0,0:0:0:0:
144,168,114824,1,0,0:0:0:0:
128,272,115055,1,0,0:0:0:0:
64,216,115286,1,0,0:0:0:0:
160,176,115517,1,0,0:0:0:0:
68,136,115632,5,0,0:0:0:0:
116,136,115747,2,0,L|472:312,1,385
256,192,117132,12,0,118467,0:0:0:0:
