osu file format v14

[General]
AudioFilename: audio.mp3
AudioLeadIn: 0
PreviewTime: 73894
Countdown: 0
SampleSet: Soft
StackLeniency: 0.7
Mode: 0
LetterboxInBreaks: 0
WidescreenStoryboard: 0

[Editor]
DistanceSpacing: 0.5
BeatDivisor: 6
GridSize: 32
TimelineZoom: 1

[Metadata]
Title:Scenarist (feat. BadComedian)
TitleUnicode:Сценарист (feat. BadComedian)
Artist:55x55
ArtistUnicode:55x55
Creator:bobru77
Version:Hard
Source:
Tags:Russian 55x55
BeatmapID:1609848
BeatmapSetID:765689

[Difficulty]
HPDrainRate:7
CircleSize:4
OverallDifficulty:6
ApproachRate:8
SliderMultiplier:1.4
SliderTickRate:1

[Events]
//Background and Video events
0,0,"maxresdefault.jpg",0,0
//Break Periods
//Storyboard Layer 0 (Background)
//Storyboard Layer 1 (Fail)
//Storyboard Layer 2 (Pass)
//Storyboard Layer 3 (Foreground)
//Storyboard Sound Samples

[TimingPoints]
78.9204469023082,462.071621101271,4,2,0,100,1,0
18330,-100,4,1,0,65,0,0
29420,-100,4,3,0,70,0,0
36698,-100,4,1,0,70,0,0
40625,-100,4,3,0,50,0,0
42473,-100,4,2,0,100,0,0
44437,-100,4,2,0,100,0,1
59108,-100,4,2,0,100,0,0
60841,-100,4,1,0,100,0,0
73663,-100,4,2,0,70,0,0
88796,-100,4,2,0,100,0,1
103582,-100,4,2,0,100,0,0

[Colours]
Combo1 : 0,255,0
Combo2 : 255,128,64
Combo3 : 0,0,160
Combo4 : 255,0,0
Combo5 : 128,0,128

[HitObjects]
390,66,78,6,0,P|293:65|293:65,1,70
200,106,540,1,8,0:0:0:0:
258,222,1003,2,0,P|335:222|335:222,1,70
416,274,1465,1,8,0:0:0:0:
298,340,1927,6,0,P|202:340|202:340,1,70
118,286,2389,1,8,0:0:0:0:
128,128,2851,2,0,P|192:64|192:64,1,70
282,43,3313,1,8,0:0:0:0:
434,172,3775,6,0,P|370:236|370:236,1,70
297,274,4237,1,8,0:0:0:0:
153,280,4699,2,0,P|100:209|100:209,1,70
136,113,5161,1,8,0:0:0:0:
373,151,5623,6,0,P|469:151|469:151,1,70
450,225,6085,1,8,0:0:0:0:
448,320,6547,2,0,P|352:320|352:320,1,70
261,319,7009,1,8,0:0:0:0:
115,48,7472,54,0,L|211:48,1,70
356,44,7934,2,0,P|278:43|278:43,1,70,8|0,0:0|0:0,0:0:0:0:
109,136,8396,2,0,P|204:136|204:136,1,70
377,131,8858,2,0,P|288:131|288:131,1,70,8|0,0:0|0:0,0:0:0:0:
397,223,9320,5,0,0:0:0:0:
299,319,9551,1,0,0:0:0:0:
150,320,9782,1,8,0:0:0:0:
67,238,10013,1,0,0:0:0:0:
169,166,10244,1,0,0:0:0:0:
56,125,10475,2,0,P|81:48|88:41,1,70,0|8,0:0|0:0,0:0:0:0:
471,53,10937,6,0,P|432:113|432:113,1,70
449,256,11399,2,0,B|410:175|410:175|410:174,1,70,0|8,0:0|0:0,0:0:0:0:
288,190,11861,2,0,B|243:275|243:275|244:275,1,70
309,89,12323,2,0,P|271:8|271:8,1,70,0|8,0:0|0:0,0:0:0:0:
113,157,12785,1,0,0:0:0:0:
250,283,13016,2,0,B|314:314|380:323|437:303|465:227|451:185|425:148|377:115|332:96|291:82|291:82,1,420,0|4,0:0|0:0,0:0:0:0:
128,64,14865,5,0,0:0:0:0:
311,64,15327,1,0,0:0:0:0:
339,191,15789,1,0,0:0:0:0:
190,227,16251,1,4,0:0:0:0:
88,191,16713,6,0,B|119:125|155:96|192:96|256:121|271:171|271:171,1,210
266,244,17637,2,0,P|362:244|362:244,2,70
303,129,18561,1,0,0:0:0:0:
220,44,18792,2,0,P|118:45|118:45,1,70,0|8,0:0|0:0,0:0:0:0:
173,168,19254,1,0,0:0:0:0:
291,173,19485,2,0,P|373:173|373:173,1,70
482,221,19948,1,8,0:0:0:0:
348,244,20179,6,0,P|271:243|271:243,1,70
143,244,20641,2,0,P|235:243|235:243,1,70,0|8,0:0|0:0,0:0:0:0:
187,128,21103,2,0,P|187:42|187:42,1,70
323,60,21565,2,0,P|322:137|322:137,1,70,0|8,0:0|0:0,0:0:0:0:
256,245,22027,1,0,0:0:0:0:
170,166,22258,6,0,P|208:82|208:82,1,70
277,105,22720,2,0,P|254:171|254:171,1,70,8|0,0:0|0:0,0:0:0:0:
343,192,23182,2,0,B|372:119|372:119|372:118,1,70
451,137,23644,2,0,P|429:205|429:205,1,70,8|0,0:0|0:0,0:0:0:0:
373,293,24106,5,0,0:0:0:0:
373,293,24337,1,0,0:0:0:0:
373,293,24568,1,8,0:0:0:0:
373,293,24799,1,0,0:0:0:0:
373,293,25030,1,0,0:0:0:0:
468,130,25261,1,0,0:0:0:0:
322,143,25492,2,8,B|301:126|287:125|287:125|273:132|260:149|262:167|274:180|298:194|321:190|322:144|322:144,1,140,8|0,0:0|0:0,0:0:0:0:
107,63,26185,6,0,P|196:61|196:61,5,70,0|8|0|0|0|8,0:0|0:0|0:0|0:0|0:0|0:0,0:0:0:0:
410,67,27803,5,0,0:0:0:0:
254,194,29189,5,8,0:0:0:0:
257,73,29651,5,4,0:0:0:0:
340,149,30113,2,0,B|467:148|484:148|484:148|485:286|485:286,1,280
306,302,31499,1,4,0:0:0:0:
194,258,31961,2,0,B|21:259|21:259|22:147|22:147,1,280
62,34,33348,1,4,0:0:0:0:
261,40,33810,2,0,B|479:40|479:40|479:105|479:105|479:130,1,280
318,295,35196,1,4,0:0:0:0:
154,152,35658,2,0,B|70:153|70:153|68:248|68:248|158:247|158:247|157:249|157:249,1,245
64,64,37044,6,0,P|160:64|160:64,1,70
131,183,37506,2,0,P|35:183|35:183,1,70,8|0,0:0|0:0,0:0:0:0:
60,315,37968,2,0,P|147:315|147:315,1,70
454,314,38430,2,0,P|363:313|363:313,1,70,8|0,0:0|0:0,0:0:0:0:
358,187,38892,2,0,P|458:187|458:187,1,70
416,63,39355,2,0,P|317:63|317:63,1,70,8|0,0:0|0:0,0:0:0:0:
178,91,39817,2,0,P|176:181|176:181,1,70
289,162,40279,2,0,P|288:64|288:64,1,70,8|0,0:0|0:0,0:0:0:0:
370,199,40741,2,0,P|391:157|391:157,14,35
295,61,42589,2,0,B|213:46|163:67|163:67|91:123|106:194|106:194,1,280
215,173,43975,1,4,0:0:0:0:
416,64,44437,6,0,B|448:96|416:128|416:128,1,70
352,192,44899,1,8,0:0:0:0:
320,256,45130,1,0,0:0:0:0:
288,320,45246,1,0,0:0:0:0:
224,352,45361,1,0,0:0:0:0:
139,323,45592,6,0,B|106:289|116:238|116:238,1,70,0|8,0:0|0:0,0:0:0:0:
125,158,46055,1,0,0:0:0:0:
266,83,46286,1,0,0:0:0:0:
403,168,46517,1,0,0:0:0:0:
348,234,46748,1,8,0:0:0:0:
317,265,46979,1,0,0:0:0:0:
269,276,47095,1,0,0:0:0:0:
227,256,47210,1,0,0:0:0:0:
160,207,47441,6,0,B|148:167|165:131|165:131,1,70,0|8,0:0|0:0,0:0:0:0:
421,62,47903,6,0,B|360:57|338:84|338:84,1,70
270,158,48365,1,0,0:0:0:0:
108,69,48596,1,8,0:0:0:0:
146,251,48827,1,0,0:0:0:0:
195,281,48942,1,0,0:0:0:0:
248,295,49058,1,0,0:0:0:0:
359,300,49289,6,0,B|408:301|446:284|446:284,1,70,0|8,0:0|0:0,0:0:0:0:
403,86,49751,1,0,0:0:0:0:
138,84,49982,1,0,0:0:0:0:
206,259,50213,1,0,0:0:0:0:
246,284,50329,1,0,0:0:0:0:
301,297,50444,1,8,0:0:0:0:
401,289,50675,6,0,B|439:280|436:229|436:229,1,70
346,94,51137,2,0,P|282:60|282:60,2,70,0|8|0,0:0|0:0|0:0,0:0:0:0:
175,89,51830,5,0,0:0:0:0:
106,182,52061,1,0,0:0:0:0:
222,264,52293,1,8,0:0:0:0:
276,275,52524,1,0,0:0:0:0:
320,259,52639,1,0,0:0:0:0:
372,195,52755,2,0,B|434:117|434:117|434:116,3,70,0|0|8|0,0:0|0:0|0:0|0:0,0:0:0:0:
346,60,53679,6,0,B|303:43|252:50|252:49,1,70
138,90,54141,1,8,0:0:0:0:
115,192,54372,1,0,0:0:0:0:
172,266,54526,1,0,0:0:0:0:
219,284,54757,1,0,0:0:0:0:
291,305,54988,2,0,P|388:332|388:332,1,70,8|0,0:0|0:0,0:0:0:0:
430,166,55527,6,0,B|459:102|478:42|423:-10|286:-23|214:2|193:59|182:121|200:173|289:225|289:225|363:223|363:223|442:160,1,700
480,224,58068,2,0,B|505:263|489:317|441:348|384:361|338:359|338:358|337:358,1,210
152,331,59108,1,4,0:0:0:0:
57,160,59339,6,0,P|99:66|99:66,1,70
177,70,59801,2,0,P|148:149|148:149,1,70
258,70,60263,1,0,0:0:0:0:
409,73,60494,1,4,0:0:0:0:
423,175,61072,6,0,P|376:315|376:315,1,140
290,285,61996,2,0,P|344:146|344:146,1,140
258,149,62920,5,0,0:0:0:0:
208,269,63382,1,0,0:0:0:0:
106,241,63844,1,0,0:0:0:0:
146,112,64306,1,0,0:0:0:0:
394,71,64768,5,0,0:0:0:0:
253,69,65231,1,0,0:0:0:0:
251,190,65693,1,0,0:0:0:0:
410,189,66155,2,0,B|401:255|350:303|297:299|297:299,1,140
101,74,67079,1,8,0:0:0:0:
99,283,67541,1,0,0:0:0:0:
409,282,68003,1,8,0:0:0:0:
410,64,68465,1,0,0:0:0:0:
269,68,68927,2,8,B|193:68|154:101|135:139|110:226|110:226|104:258,1,280
187,330,70313,6,0,P|282:331|282:331,2,70
346,253,71122,2,0,P|381:140|381:140,1,105
294,109,72162,2,0,B|273:67|238:41|238:41|172:14|92:84|92:84,1,245
181,166,73894,1,4,0:0:0:0:
261,167,74125,6,8,P|298:73|298:73,1,70
376,74,74587,2,8,B|348:145|348:145|345:157,1,70
434,195,75050,2,8,P|464:101|464:101,1,70
397,260,75512,2,8,B|363:338|363:338|363:337,1,70
252,311,75974,2,8,B|292:226|292:226|292:225,1,70
190,197,76436,2,8,P|127:270|127:270,1,70
74,143,76898,2,8,P|123:61|123:61,2,70
169,32,77629,1,4,0:0:0:0:
252,37,77860,6,8,P|282:116|282:116,1,70
378,108,78323,2,8,B|334:20|333:19|333:20|333:20,1,70
452,34,78785,2,8,B|487:103|487:103|488:101,1,70
463,172,79247,2,8,P|369:173|369:173,1,70
378,256,79709,2,8,P|478:253|478:253,1,70
453,338,80171,2,8,P|369:338|369:338,1,70
57,300,80633,2,8,P|71:212|71:212,2,70
160,224,81326,1,4,0:0:0:0:
260,225,81557,6,0,B|309:149|309:149|310:150,15,70,8|8|0|0|0|8|0|0|0|8|0|0|0|8|0|0,0:0|0:0|0:0|0:0|0:0|0:0|0:0|0:0|0:0|0:0|0:0|0:0|0:0|0:0|0:0|0:0,0:0:0:0:
123,274,85177,1,0,0:0:0:0:
103,219,85331,1,0,0:0:0:0:
95,167,85485,1,0,0:0:0:0:
102,115,85639,1,0,0:0:0:0:
128,76,85793,1,0,0:0:0:0:
171,52,85947,1,0,0:0:0:0:
219,44,86101,1,0,0:0:0:0:
269,49,86255,1,0,0:0:0:0:
309,78,86409,1,0,0:0:0:0:
344,117,86563,5,0,0:0:0:0:
370,164,86717,1,0,0:0:0:0:
472,318,86948,2,2,B|423:366|356:375|284:365|214:338|162:308|142:262|123:236|129:248|129:248,1,385
64,238,88450,1,4,0:0:0:0:
96,64,88719,6,0,B|64:96|96:128|96:128,1,70
160,192,89181,1,0,0:0:0:0:
192,256,89412,1,0,0:0:0:0:
224,320,89528,1,0,0:0:0:0:
288,352,89643,1,0,0:0:0:0:
373,323,89874,6,0,B|406:289|396:238|396:238,1,70
387,158,90337,1,0,0:0:0:0:
246,83,90568,1,0,0:0:0:0:
109,168,90799,1,0,0:0:0:0:
164,234,91030,1,0,0:0:0:0:
195,265,91261,1,0,0:0:0:0:
243,276,91377,1,0,0:0:0:0:
285,256,91492,1,0,0:0:0:0:
352,207,91723,6,0,B|364:167|347:131|347:131,1,70
91,62,92185,6,0,B|152:57|174:84|174:84,1,70
242,158,92647,1,0,0:0:0:0:
404,69,92878,1,0,0:0:0:0:
366,251,93109,1,0,0:0:0:0:
317,281,93224,1,0,0:0:0:0:
264,295,93340,1,0,0:0:0:0:
153,300,93571,6,0,B|104:301|66:284|66:284,1,70
109,86,94033,1,0,0:0:0:0:
374,84,94264,1,0,0:0:0:0:
306,259,94495,1,0,0:0:0:0:
266,284,94611,1,0,0:0:0:0:
211,297,94726,1,0,0:0:0:0:
111,289,94957,6,0,B|73:280|76:229|76:229,1,70
166,94,95419,2,0,P|230:60|230:60,2,70
337,89,96112,5,0,0:0:0:0:
406,182,96343,1,0,0:0:0:0:
290,264,96575,1,0,0:0:0:0:
236,275,96806,1,0,0:0:0:0:
192,259,96921,1,0,0:0:0:0:
140,195,97037,2,0,B|78:117|78:117|78:116,3,70
166,60,97961,6,0,B|209:43|260:50|260:49,1,70
374,90,98423,1,0,0:0:0:0:
365,204,98654,1,0,0:0:0:0:
345,243,98808,1,0,0:0:0:0:
325,284,98962,1,0,0:0:0:0:
226,330,99116,2,0,P|139:349|139:349,1,70
79,298,99578,5,0,0:0:0:0:
54,166,99809,1,0,0:0:0:0:
144,41,100040,1,0,0:0:0:0:
274,41,100271,1,0,0:0:0:0:
299,79,100425,1,0,0:0:0:0:
331,113,100579,6,0,B|351:135|407:149|407:149,1,70
264,236,101041,1,0,0:0:0:0:
215,252,101195,1,0,0:0:0:0:
103,253,101657,1,0,0:0:0:0:
64,151,102119,1,0,0:0:0:0:
154,73,102581,1,0,0:0:0:0:
304,174,103043,1,0,0:0:0:0:
463,325,103467,5,4,0:0:0:0:
80,93,103698,6,0,P|168:54|168:54,1,70
200,116,104160,2,0,B|134:157|134:157|129:159,1,70
179,223,104622,2,0,P|261:166|261:166,1,70
302,172,105084,2,0,B|301:246|301:246|302:244,1,70
350,304,105546,1,0,0:0:0:0:
276,323,105777,1,0,0:0:0:0:
207,274,106008,1,0,0:0:0:0:
149,216,106239,1,0,0:0:0:0:
110,146,106470,1,0,0:0:0:0:
90,52,106701,6,0,P|163:19|163:19,1,70
193,77,107164,2,0,P|248:119|248:119,1,70
308,164,107626,2,0,B|372:207|372:207|371:206,1,70
449,216,108088,2,0,P|450:134|450:134,1,70
371,69,108550,1,0,0:0:0:0:
272,45,108781,1,0,0:0:0:0:
174,42,109012,1,0,0:0:0:0:
78,88,109243,1,0,0:0:0:0:
68,176,109474,2,0,P|65:262|65:262,4,70
64,324,110629,1,0,0:0:0:0:
148,281,110860,6,0,P|221:292|221:292,1,70
302,290,111322,2,0,P|312:211|312:211,1,70
316,135,111784,2,0,P|230:124|230:124,1,70
161,119,112246,2,0,B|141:198|141:197|142:197,1,70
131,263,112708,1,0,0:0:0:0:
131,263,112939,1,0,0:0:0:0:
131,263,113170,1,0,0:0:0:0:
131,263,113401,1,0,0:0:0:0:
207,296,113633,6,0,P|290:316|290:316,1,70
350,312,114095,2,0,P|441:312|441:312,1,70
256,192,114557,12,0,118253,0:0:0:0:
