osu file format v14

[General]
AudioFilename: audio.mp3
AudioLeadIn: 0
PreviewTime: 3638
Countdown: 0
SampleSet: Soft
StackLeniency: 0.5
Mode: 0
LetterboxInBreaks: 0
WidescreenStoryboard: 0

[Editor]
DistanceSpacing: 1.5
BeatDivisor: 4
GridSize: 4
TimelineZoom: 1.9

[Metadata]
Title:SILNOYE ZAYAVLENIE (feat. Sergey Druzhko)
TitleUnicode:СИЛЬНОЕ ЗАЯВЛЕНИЕ (feat. Сергей Дружко)
Artist:55x55
ArtistUnicode:55x55
Creator:Chalwa
Version:Insane
Source:
Tags:armin russian meme hype russia remix show русский a_r_m_i_n шоу
BeatmapID:1349621
BeatmapSetID:635999

[Difficulty]
HPDrainRate:6
CircleSize:6
OverallDifficulty:7
ApproachRate:8
SliderMultiplier:1.8
SliderTickRate:1

[Events]
//Background and Video events
Video,0,"jajebe.avi"
0,0,"ruchampsajaksra.jpg",0,0
//Break Periods
//Storyboard Layer 0 (Background)
//Storyboard Layer 1 (Fail)
//Storyboard Layer 2 (Pass)
//Storyboard Layer 3 (Foreground)
//Storyboard Sound Samples

[TimingPoints]
3869,461.538461538462,4,2,0,40,1,0
16792,-142.857142857143,4,2,0,40,0,0
16803,-142.857142857143,4,2,0,5,0,0
18638,-125,4,2,0,40,0,0
19561,-111.111111111111,4,2,0,40,0,0
20484,-100,4,2,0,40,0,0
21407,-90.9090909090909,4,2,0,40,0,0
22330,-100,4,2,0,40,0,0
30869,-100,4,2,0,5,0,0
31561,-100,4,2,0,40,0,0
33407,-83.3333333333333,4,2,0,60,0,1
46330,-100,4,2,0,60,0,0
47715,-100,4,2,0,5,0,0

[Colours]
Combo1 : 255,182,147
Combo2 : 81,81,81
Combo3 : 153,153,153
Combo4 : 202,202,202

[HitObjects]
80,312,3869,6,0,P|128:328|240:272,1,180,4|8,0:0|0:0,0:0:0:0:
336,176,4561,1,0,0:0:0:0:
344,220,4676,1,0,0:0:0:0:
352,264,4791,1,0,0:0:0:0:
214,183,5022,2,0,L|230:95,1,90,2|8,0:0|0:0,0:0:0:0:
296,0,5484,1,0,0:0:0:0:
384,136,5715,5,4,0:0:0:0:
231,95,5945,2,0,L|143:111,1,90,2|8,0:0|0:0,0:0:0:0:
24,96,6407,1,0,0:0:0:0:
53,220,6638,2,0,P|133:196|141:108,1,180,2|8,0:0|0:0,0:0:0:0:
8,80,7330,1,2,0:0:0:0:
53,220,7561,6,0,B|109:252|109:252|173:252|173:252|221:268,1,180,4|8,0:0|0:0,0:0:0:0:
360,308,8253,1,0,0:0:0:0:
330,341,8368,1,0,0:0:0:0:
300,375,8483,1,0,0:0:0:0:
221,268,8715,1,0,0:0:0:0:
300,168,8945,2,0,P|352:136|476:164,1,180,8|4,0:0|0:0,0:0:0:0:
392,256,9638,5,2,0:0:0:0:
216,196,9869,1,2,0:0:0:0:
240,328,10099,1,8,0:0:0:0:
332,220,10330,1,0,0:0:0:0:
164,304,10561,1,0,0:0:0:0:
40,216,10792,1,4,0:0:0:0:
40,208,11253,6,0,P|56:144|160:104,1,180,4|0,0:0|0:0,0:0:0:0:
280,56,11945,1,0,0:0:0:0:
237,40,12060,1,0,0:0:0:0:
195,25,12175,1,0,0:0:0:0:
288,128,12407,2,0,L|376:96,1,90,2|8,0:0|0:0,0:0:0:0:
448,8,12869,1,2,0:0:0:0:
480,128,13099,5,4,0:0:0:0:
368,32,13330,2,0,L|283:1,1,90,2|8,0:0|0:0,0:0:0:0:
184,64,13792,1,0,0:0:0:0:
88,24,14022,2,0,B|72:28|56:24|56:24|24:92|44:176,1,180,2|8,0:0|0:0,0:0:0:0:
16,288,14715,1,2,0:0:0:0:
120,224,14945,6,0,B|168:196|208:224|212:224|212:220|208:220|256:244|300:220,1,180,4|8,0:0|0:0,0:0:0:0:
422,175,15638,1,0,0:0:0:0:
427,219,15753,1,0,0:0:0:0:
432,264,15868,1,0,0:0:0:0:
340,344,16099,1,2,0:0:0:0:
280,256,16330,2,0,P|336:231|368:240,1,90,8|0,0:0|0:0,0:0:0:0:
340,344,16792,6,0,B|280:368|216:344|216:344|184:288|192:224|192:224|160:236|124:224,1,314.999990386963,4|0,0:0|0:0,0:0:0:0:
232,144,18638,6,0,L|160:140,2,48,4|0|0,0:0|0:0|0:0,0:0:0:0:
280,240,19099,2,0,L|352:244,2,48,2|0|0,0:0|0:0|0:0,0:0:0:0:
216,160,19561,6,0,L|151:192,2,53.9999983520508,4|0|0,0:0|0:0|0:0,0:0:0:0:
305,219,20022,2,0,L|369:186,2,53.9999983520508,2|0|0,0:0|0:0|0:0,0:0:0:0:
202,188,20484,6,0,L|162:249,2,60,4|0|0,0:0|0:0|0:0,0:0:0:0:
309,195,20945,2,0,L|349:134,2,60,2|0|0,0:0|0:0|0:0,0:0:0:0:
208,210,21407,6,0,L|204:282,2,66.0000020141602,4|0|0,0:0|0:0|0:0,0:0:0:0:
303,163,21868,2,0,L|307:91,2,66.0000020141602,2|0|0,0:0|0:0|0:0,0:0:0:0:
384,248,22330,5,4,0:0:0:0:
384,248,22484,2,0,L|448:244,1,60
492,176,22792,2,0,L|432:172,2,60,2|0|0,0:0|0:0|0:0,0:0:0:0:
443,244,23253,5,4,0:0:0:0:
443,244,23407,2,0,L|439:308,1,60
364,364,23715,2,0,L|424:360,2,60,2|0|0,0:0|0:0|0:0,0:0:0:0:
284,336,24176,5,4,0:0:0:0:
284,336,24330,2,0,L|220:332,1,60
176,264,24638,2,0,L|236:260,2,60,2|0|0,0:0|0:0|0:0,0:0:0:0:
72,256,25099,5,4,0:0:0:0:
72,256,25253,2,0,L|76:192,1,60
144,148,25561,2,0,L|148:208,2,60,2|0|0,0:0|0:0|0:0,0:0:0:0:
208,64,26022,6,0,L|280:64,1,60,4|0,0:0|0:0,0:0:0:0:
336,120,26330,1,0,0:0:0:0:
464,76,26484,6,0,L|392:76,1,60,4|0,0:0|0:0,0:0:0:0:
336,132,26792,1,0,0:0:0:0:
208,88,26945,6,0,L|280:88,1,60,4|0,0:0|0:0,0:0:0:0:
336,144,27253,1,0,0:0:0:0:
464,100,27407,6,0,L|392:100,1,60,4|0,0:0|0:0,0:0:0:0:
336,156,27715,1,0,0:0:0:0:
160,184,27869,6,0,L|115:184,1,45
178,256,28099,2,0,L|223:256,1,45
152,172,28330,6,0,L|107:172,1,45
170,240,28560,2,0,L|215:240,1,45
320,224,28792,5,2,0:0:0:0:
333,254,28907,1,0,0:0:0:0:
335,288,29022,1,2,0:0:0:0:
327,320,29138,1,0,0:0:0:0:
308,348,29253,5,2,0:0:0:0:
257,323,29368,1,0,0:0:0:0:
201,315,29483,1,2,0:0:0:0:
146,323,29599,1,0,0:0:0:0:
95,346,29714,5,2,0:0:0:0:
256,192,29830,12,0,30869,0:0:0:0:
388,112,31561,5,2,0:0:0:0:
396,100,32022,1,2,0:0:0:0:
404,88,32484,1,8,0:3:0:0:
412,76,32945,6,8,L|412:40,3,22.5,8|8|8|8,0:3|0:3|0:3|0:3,0:3:0:0:
420,105,33176,1,8,0:0:0:0:
428,137,33292,1,8,0:0:0:0:
436,173,33407,5,4,0:0:0:0:
484,332,33637,1,2,0:0:0:0:
252,279,33869,2,0,P|275:326|324:348,1,107.999996704102,2|0,0:0|0:0,0:0:0:0:
324,172,34330,2,0,P|296:120|236:104,1,107.999996704102,2|0,0:0|0:0,0:0:0:0:
104,148,34792,1,8,0:0:0:0:
184,264,35022,1,0,0:0:0:0:
228,111,35253,6,0,L|228:0,1,107.999996704102,2|0,0:0|0:0,0:0:0:0:
352,60,35715,2,0,L|352:171,1,107.999996704102,2|0,0:0|0:0,0:0:0:0:
292,272,36176,1,8,0:0:0:0:
192,244,36407,1,0,0:0:0:0:
280,380,36638,1,8,0:0:0:0:
424,372,36869,1,0,0:3:0:0:
424,372,36984,1,0,0:0:0:0:
428,376,37099,6,0,L|428:260,1,107.999996704102,4|0,0:0|0:0,0:0:0:0:
352,172,37484,1,2,0:0:0:0:
368,188,37561,1,2,0:0:0:0:
224,260,37792,1,0,0:0:0:0:
184,132,38022,2,8,P|240:124|304:152,1,107.999996704102,8|0,0:0|0:0,0:0:0:0:
388,208,38407,1,2,0:0:0:0:
368,188,38484,1,2,0:0:0:0:
480,100,38715,1,0,0:0:0:0:
492,228,38945,6,0,L|492:344,1,107.999996704102,8|0,0:0|0:0,0:0:0:0:
332,372,39407,1,8,0:0:0:0:
404,228,39638,1,0,0:0:0:0:
240,156,39869,5,0,0:0:0:0:
244,168,40099,1,0,0:0:0:0:
248,180,40330,2,0,L|248:360,1,161.999995056153
192,340,40792,6,0,L|192:220,1,107.999996704102,4|0,0:0|0:0,0:0:0:0:
104,104,41253,1,2,0:0:0:0:
48,220,41484,1,0,0:0:0:0:
168,160,41715,2,0,P|224:164|260:224,1,107.999996704102,2|0,0:0|0:0,0:0:0:0:
304,332,42176,1,8,0:0:0:0:
372,212,42407,1,0,0:0:0:0:
236,292,42638,6,0,L|128:292,1,107.999996704102,4|0,0:0|0:0,0:0:0:0:
8,204,43099,2,0,L|116:204,1,107.999996704102,2|0,0:0|0:0,0:0:0:0:
252,176,43561,1,8,0:0:0:0:
304,332,43792,1,0,0:0:0:0:
184,240,44022,1,8,0:0:0:0:
356,176,44253,1,0,0:3:0:0:
356,176,44369,1,0,0:0:0:0:
356,176,44484,6,0,L|356:64,1,107.999996704102,4|0,0:0|0:0,0:0:0:0:
248,0,44869,1,2,0:0:0:0:
264,20,44945,2,0,L|264:144,1,107.999996704102,10|0,0:0|0:0,0:0:0:0:
164,236,45407,1,8,0:0:0:0:
248,224,45638,1,0,0:0:0:0:
156,128,45792,1,2,0:0:0:0:
172,148,45869,2,0,P|224:120|284:132,1,107.999996704102,10|0,0:0|0:0,0:0:0:0:
392,192,46330,5,4,0:0:0:0:
256,192,46445,12,0,47715,0:0:0:0:
