osu file format v14

[General]
AudioFilename: audio.mp3
AudioLeadIn: 0
PreviewTime: 3638
Countdown: 0
SampleSet: Soft
StackLeniency: 0.7
Mode: 0
LetterboxInBreaks: 0
WidescreenStoryboard: 0

[Editor]
Bookmarks: 22330
DistanceSpacing: 0.9
BeatDivisor: 4
GridSize: 4
TimelineZoom: 1

[Metadata]
Title:SILNOYE ZAYAVLENIE (feat. Sergey Druzhko)
TitleUnicode:СИЛЬНОЕ ЗАЯВЛЕНИЕ (feat. Сергей Дружко)
Artist:55x55
ArtistUnicode:55x55
Creator:Chalwa
Version:Normal
Source:
Tags:armin russian meme hype russia remix show русский a_r_m_i_n шоу
BeatmapID:1349622
BeatmapSetID:635999

[Difficulty]
HPDrainRate:3
CircleSize:4
OverallDifficulty:4
ApproachRate:5
SliderMultiplier:1.2
SliderTickRate:1

[Events]
//Background and Video events
Video,0,"jajebe.avi"
0,0,"ruchampsajaksra.jpg",0,0
//Break Periods
//Storyboard Layer 0 (Background)
//Storyboard Layer 1 (Fail)
//Storyboard Layer 2 (Pass)
//Storyboard Layer 3 (Foreground)
//Storyboard Sound Samples

[TimingPoints]
3869,461.538461538462,4,2,0,40,1,0
16803,-100,4,2,0,5,0,0
18638,-100,4,2,0,40,0,0
33407,-100,4,2,0,60,0,1
46330,-100,4,2,0,60,0,0
47715,-100,4,2,0,5,0,0

[Colours]
Combo1 : 255,182,147
Combo2 : 81,81,81
Combo3 : 153,153,153
Combo4 : 202,202,202

[HitObjects]
140,272,3869,5,4,0:0:0:0:
236,220,4330,2,0,L|296:220,1,60,8|0,0:0|0:0,0:0:0:0:
344,248,4791,2,0,L|404:248,1,60,2|0,0:0|0:0,0:0:0:0:
456,264,5252,1,0,0:0:0:0:
508,168,5715,2,0,L|448:168,1,60,2|0,0:0|0:0,0:0:0:0:
396,148,6177,2,0,L|336:148,1,60,8|0,0:0|0:0,0:0:0:0:
288,124,6637,1,2,0:0:0:0:
196,68,7099,1,0,0:0:0:0:
128,152,7561,5,4,0:0:0:0:
104,256,8022,2,0,L|164:256,1,60,8|0,0:0|0:0,0:0:0:0:
216,236,8483,1,2,0:0:0:0:
248,192,8715,1,0,0:0:0:0:
280,152,8945,1,8,0:0:0:0:
380,112,9407,2,0,L|380:172,1,60,2|0,0:0|0:0,0:0:0:0:
412,216,9868,2,0,L|412:276,1,60
444,320,10329,1,2,0:0:0:0:
352,376,10792,1,0,0:0:0:0:
340,268,11253,5,6,0:0:0:0:
312,164,11715,2,0,L|240:164,1,60,8|0,0:0|0:0,0:0:0:0:
208,196,12176,2,0,L|136:196,1,60,2|0,0:0|0:0,0:0:0:0:
100,172,12638,1,8,0:0:0:0:
56,72,13099,2,0,L|116:72,1,60,2|0,0:0|0:0,0:0:0:0:
168,52,13561,2,0,L|228:52,1,60,8|0,0:0|0:0,0:0:0:0:
268,16,14022,1,2,0:0:0:0:
348,88,14483,1,0,0:0:0:0:
456,72,14945,5,4,0:0:0:0:
404,168,15407,2,0,L|344:168,1,60,8|0,0:0|0:0,0:0:0:0:
296,196,15869,2,0,L|236:196,1,60,2|0,0:0|0:0,0:0:0:0:
192,228,16330,2,0,L|132:228,1,60,2|0,0:0|0:0,0:0:0:0:
80,212,16792,6,0,B|24:164|32:108|32:108|88:72|152:120,1,240,4|2,0:0|0:0,0:0:0:0:
356,152,18638,6,0,P|376:204|244:260,1,240,8|2,0:0|3:0,0:0:0:0:
220,152,20022,1,2,0:0:0:0:
228,44,20484,6,0,P|119:42|115:151,1,240,8|2,0:0|3:0,0:0:0:0:
180,236,21869,1,2,0:0:0:0:
276,288,22330,6,0,P|290:230|270:175,1,120,8|2,0:0|0:3,0:0:0:0:
180,112,23253,2,0,P|159:56|174:-1,1,120,8|2,0:0|0:1,0:0:0:0:
268,52,24176,1,8,0:0:0:0:
376,52,24638,1,2,0:3:0:0:
472,0,25099,2,0,P|486:57|466:112,1,120,8|2,0:0|0:1,0:0:0:0:
388,188,26022,6,0,L|388:260,2,60,8|0|2,0:0|0:0|0:0,0:0:0:0:
292,136,26945,2,0,L|292:64,2,60,8|0|2,0:0|0:0|0:1,0:0:0:0:
216,212,27869,1,8,0:0:0:0:
172,309,28330,1,2,0:0:0:0:
252,382,28792,1,8,0:0:0:0:
345,327,29253,1,2,0:1:0:0:
323,222,29715,5,4,0:0:0:0:
323,222,31561,5,0,0:0:0:0:
423,180,32022,1,0,0:0:0:0:
382,81,32484,1,0,0:0:0:0:
282,121,32945,1,0,0:0:0:0:
240,88,33176,1,0,0:0:0:0:
196,60,33407,6,0,L|196:0,2,60,4|0|0,0:0|0:0|0:0,0:0:0:0:
120,136,34330,1,8,0:0:0:0:
140,244,34792,2,0,L|200:244,1,60,2|0,0:0|0:0,0:0:0:0:
244,212,35253,1,8,0:0:0:0:
280,108,35715,2,0,L|280:48,2,60,2|0|8,0:0|0:0|0:0,0:0:0:0:
340,200,36638,1,0,0:0:0:0:
412,120,37099,6,0,L|412:60,2,60,2|0|8,0:0|0:0|0:0,0:0:0:0:
444,164,37792,1,0,0:0:0:0:
400,196,38022,2,0,P|368:200|328:196,1,60,2|0,0:0|0:0,0:0:0:0:
288,188,38484,2,0,P|258:186|228:190,1,60,8|0,0:0|0:0,0:0:0:0:
176,204,38945,1,4,0:0:0:0:
228,296,39407,2,0,P|257:297|287:293,2,60,12|0|4,0:0|0:0|0:0,0:0:0:0:
68,140,40792,6,0,L|68:56,2,60,4|0|0,0:0|0:0|0:0,0:0:0:0:
100,244,41715,1,8,0:0:0:0:
180,172,42176,2,0,L|240:172,1,60,2|0,0:0|0:0,0:0:0:0:
292,160,42638,1,8,0:0:0:0:
372,232,43099,2,0,L|372:316,2,60,2|0|8,0:0|0:0|0:0,0:0:0:0:
452,160,44022,1,2,0:0:0:0:
372,88,44484,6,0,L|372:4,2,60,2|0|8,0:0|0:0|0:0,0:0:0:0:
344,136,45176,1,0,0:0:0:0:
296,112,45407,2,0,P|264:108|232:116,1,60,2|0,0:0|0:0,0:0:0:0:
188,140,45869,2,0,P|156:144|124:136,1,60,8|0,0:0|0:0,0:0:0:0:
80,112,46330,5,4,0:0:0:0:
256,192,46445,12,0,47715,0:0:0:0:
