osu file format v14

[General]
AudioFilename: audio.mp3
AudioLeadIn: 0
PreviewTime: 66302
Countdown: 0
SampleSet: Soft
StackLeniency: 0.7
Mode: 0
LetterboxInBreaks: 0
WidescreenStoryboard: 0

[Editor]
Bookmarks: 13337,21613,66302,79544
DistanceSpacing: 1.3
BeatDivisor: 4
GridSize: 4
TimelineZoom: 2.1

[Metadata]
Title:Odin god
TitleUnicode:Один год
Artist:55x55
ArtistUnicode:55x55
Creator:Stix
Version:Insane
Source:
Tags:
BeatmapID:1601233
BeatmapSetID:695911

[Difficulty]
HPDrainRate:5
CircleSize:3.7
OverallDifficulty:7
ApproachRate:8
SliderMultiplier:1.6
SliderTickRate:1

[Events]
//Background and Video events
0,0,"fon.jpg",0,0
//Break Periods
2,66502,78794
//Storyboard Layer 0 (Background)
//Storyboard Layer 1 (Fail)
//Storyboard Layer 2 (Pass)
//Storyboard Layer 3 (Foreground)
//Storyboard Sound Samples

[TimingPoints]
96,413.793103448276,4,2,1,50,1,0
13337,-133.333333333333,4,2,1,50,0,0
26578,-100,4,2,1,50,0,0
39820,-83.3333333333333,4,2,1,50,0,1
52233,-100,4,2,1,50,0,0
53061,-76.9230769230769,4,2,1,50,0,1
64647,-133.333333333333,4,2,1,50,0,1
66302,-100,4,2,1,50,0,0
79544,-100,4,2,1,50,0,0
85751,-66.6666666666667,4,2,1,50,0,0
85958,-100,4,2,1,50,0,0
86164,-90.9090909090909,4,2,1,50,0,0
92785,-66.6666666666667,4,2,1,50,0,0
106027,-66.6666666666667,4,2,1,50,0,1
118440,-66.6666666666667,4,2,1,50,0,0
119268,-62.5,4,2,1,50,0,1
130854,-100,4,2,1,50,0,0
132509,-133.333333333333,4,2,1,20,0,0

[Colours]
Combo1 : 255,192,0
Combo2 : 0,202,0
Combo3 : 18,124,255
Combo4 : 242,24,57
SliderTrackOverride : 218,218,218

[HitObjects]
256,192,21613,12,0,25751,0:0:0:0:
76,120,26578,6,0,B|102:120|128:124|168:112,1,80,8|2,0:0|0:0,0:0:0:0:
264,48,26992,1,8,0:0:0:0:
463,151,27406,6,0,B|436:150|411:147|371:159,1,80,8|2,0:0|0:0,0:0:0:0:
292,244,27820,1,8,0:0:0:0:
260,120,28027,1,0,0:0:0:0:
324,224,28233,2,0,P|324:248|316:308,1,80,8|2,0:0|0:0,0:0:0:0:
196,368,28647,1,8,0:0:0:0:
320,316,28854,1,2,0:0:0:0:
168,272,29061,1,8,0:0:0:0:
336,320,29268,1,2,0:0:0:0:
160,256,29475,2,0,P|146:198|154:154,1,80,8|0,0:0|0:0,0:0:0:0:
256,40,29889,6,0,B|268:72|260:120,1,80,8|2,0:0|0:0,0:0:0:0:
147,178,30303,1,8,0:0:0:0:
56,24,30716,6,0,B|55:50|52:76|64:116,1,80,8|2,0:0|0:0,0:0:0:0:
147,178,31130,1,8,0:0:0:0:
260,119,31337,1,0,0:0:0:0:
344,216,31544,2,0,P|392:208|412:192,1,60,8|2,0:0|0:0,0:0:0:0:
448,128,31802,1,2,0:0:0:0:
412,208,31958,2,0,P|400:252|420:292,1,80,8|2,0:0|0:0,0:0:0:0:
340,328,32371,2,0,L|244:308,1,80,2|0,0:0|0:0,0:0:0:0:
104,312,32785,2,0,L|204:283,1,80,8|2,0:0|0:0,0:0:0:0:
256,192,33199,12,2,38164,0:0:0:0:
254,192,38578,5,2,0:0:0:0:
161,273,38992,1,8,0:0:0:0:
275,308,39199,1,4,0:3:0:0:
132,320,39406,1,4,0:3:0:0:
296,311,39613,1,4,0:3:0:0:
387,253,39820,6,0,P|422:211|420:127,1,95.9999970703126,4|0,0:3|0:0,0:0:0:0:
240,152,40233,2,0,P|291:171|369:140,1,95.9999970703126
296,84,40647,1,8,0:0:0:0:
387,253,41061,1,4,0:3:0:0:
296,64,41475,5,2,0:0:0:0:
184,256,41682,1,2,0:0:0:0:
200,104,41889,1,4,0:3:0:0:
332,180,42096,1,0,0:0:0:0:
204,340,42302,2,0,P|116:318|104:229,1,191.999994140625,8|0,0:0|0:0,0:0:0:0:
1,129,43130,6,0,P|58:139|119:129,1,95.9999970703126,4|0,0:3|0:0,0:0:0:0:
268,58,43544,6,0,P|211:48|150:58,1,95.9999970703126,2|0,0:0|0:0,0:0:0:0:
104,228,43958,1,8,0:0:0:0:
268,58,44371,1,4,0:3:0:0:
229,236,44785,1,0,0:0:0:0:
95,135,44992,1,2,0:0:0:0:
253,78,45199,1,4,0:3:0:0:
200,238,45406,1,2,0:0:0:0:
60,112,45613,2,0,P|115:117|162:105,1,95.9999970703126,8|0,0:0|0:0,0:0:0:0:
253,78,46027,1,2,0:0:0:0:
342,105,46440,6,0,P|279:78|230:82,1,95.9999970703126,4|0,0:3|0:0,0:0:0:0:
423,172,46854,2,0,P|450:109|446:60,1,95.9999970703126,2|0,0:0|0:0,0:0:0:0:
324,208,47268,1,8,0:0:0:0:
312,220,47682,2,0,P|267:235|220:225,1,95.9999970703126,4|0,0:3|0:0,0:0:0:0:
144,168,48096,1,0,0:0:0:0:
184,372,48302,1,2,0:0:0:0:
76,332,48509,1,4,0:3:0:0:
220,225,48716,1,2,0:0:0:0:
381,203,48923,2,0,P|294:170|271:81,1,191.999994140625,8|2,0:0|0:0,0:0:0:0:
371,102,49751,6,0,P|408:91|485:124,1,95.9999970703126,4|0,0:3|0:0,0:0:0:0:
381,203,50164,2,0,P|344:214|267:181,1,95.9999970703126,2|0,0:0|0:0,0:0:0:0:
206,91,50578,1,8,0:0:0:0:
193,105,50992,2,0,P|148:122|102:112,1,95.9999970703126,4|0,0:3|0:0,0:0:0:0:
51,35,51406,1,0,0:0:0:0:
73,234,51613,1,2,0:0:0:0:
43,61,51820,1,4,0:3:0:0:
208,125,52027,1,2,0:0:0:0:
38,89,52233,1,8,0:0:0:0:
72,248,52440,5,4,0:3:0:0:
72,272,52647,1,4,0:3:0:0:
72,296,52854,1,4,0:3:0:0:
200,314,53061,6,0,P|260:328|363:263,1,155.999992858887,4|0,0:0|0:0,0:0:0:0:
352,204,53475,2,0,P|399:222|432:262,1,103.999995239258,2|0,0:0|0:0,0:0:0:0:
416,352,53889,1,8,0:0:0:0:
496,204,54302,2,0,L|492:88,1,103.999995239258,4|0,0:3|0:0,0:0:0:0:
492,100,54716,5,0,0:0:0:0:
307,95,54923,1,2,0:0:0:0:
380,8,55130,1,4,0:3:0:0:
412,196,55337,1,2,0:0:0:0:
500,80,55544,1,8,0:0:0:0:
311,152,55751,2,0,L|311:204,2,51.999997619629,2|2|2,0:0|0:0|0:0,0:0:0:0:
215,104,56164,1,0,0:0:0:0:
215,104,56371,6,0,P|263:55|330:38,1,103.999995239258,4|0,0:3|0:0,0:0:0:0:
409,196,56785,2,0,P|362:281|221:266,1,207.999990478516,2|8,0:0|0:0,0:0:0:0:
144,228,57406,1,2,0:0:0:0:
124,204,57509,1,2,0:0:0:0:
108,180,57613,2,0,P|113:106|141:77,1,103.999995239258,4|0,0:3|0:0,0:0:0:0:
131,85,58027,5,0,0:0:0:0:
312,136,58233,1,2,0:0:0:0:
116,84,58440,1,4,0:3:0:0:
365,39,58647,1,2,0:0:0:0:
124,204,58854,1,8,0:0:0:0:
245,47,59061,1,2,0:0:0:0:
245,47,59164,1,2,0:0:0:0:
245,47,59268,1,2,0:0:0:0:
320,214,59475,1,0,0:0:0:0:
320,214,59682,6,0,P|276:278|213:290,1,103.999995239258,4|0,0:3|0:0,0:0:0:0:
251,134,60096,2,0,P|346:109|422:196,1,207.999990478516,2|8,0:0|0:0,0:0:0:0:
411,282,60716,1,2,0:0:0:0:
412,297,60820,1,2,0:0:0:0:
411,312,60923,2,0,L|272:307,1,103.999995239258,4|0,0:3|0:0,0:0:0:0:
88,313,61337,6,0,L|195:281,1,103.999995239258,0|2,0:0|0:0,0:0:0:0:
316,203,61751,2,0,L|203:170,1,103.999995239258,4|2,0:3|0:0,0:0:0:0:
64,208,62164,1,8,0:0:0:0:
30,64,62371,1,2,0:0:0:0:
45,64,62475,1,2,0:0:0:0:
60,64,62578,2,0,L|192:41,1,103.999995239258,2|0,0:0|0:0,0:0:0:0:
249,116,62992,6,0,P|315:124|375:108,1,103.999995239258,4|0,0:3|0:0,0:0:0:0:
379,86,63302,1,2,0:0:0:0:
410,58,63406,2,0,L|390:282,1,207.999990478516,2|8,0:0|0:0,0:0:0:0:
386,306,63923,1,0,0:0:0:0:
367,343,64027,1,2,0:0:0:0:
282,285,64233,2,0,P|198:268|145:287,1,103.999995239258,4|0,0:3|0:0,0:0:0:0:
145,292,64544,1,0,0:0:0:0:
129,310,64647,6,0,L|120:359,3,30.0000011444092,2|0|8|0,0:0|0:0|0:0|0:0,0:0:0:0:
38,248,65061,6,0,L|-9:247,4,30.0000011444092,2|0|8|0|2,0:0|0:0|0:0|0:0|0:0,0:0:0:0:
61,244,65578,1,8,0:0:0:0:
80,230,65682,1,0,0:0:0:0:
98,210,65785,1,8,0:0:0:0:
118,183,65889,1,0,0:0:0:0:
140,155,65992,1,8,0:0:0:0:
170,130,66096,1,8,0:0:0:0:
206,116,66199,1,8,0:0:0:0:
255,131,66302,5,4,0:0:0:0:
139,290,79544,6,0,L|139:226,1,40,4|0,0:3|0:0,0:0:0:0:
178,75,79751,2,0,L|186:130,1,40,2|0,0:0|0:0,0:0:0:0:
248,191,79958,2,0,P|303:137|290:40,1,160,8|0,0:0|0:0,0:0:0:0:
423,37,80578,2,0,L|418:101,1,40,2|0,0:0|0:0,0:0:0:0:
467,170,80785,2,0,L|446:285,1,80,2|0,0:0|0:0,0:0:0:0:
384,331,81199,5,0,0:0:0:0:
315,232,81406,1,2,0:0:0:0:
227,325,81613,1,4,0:3:0:0:
151,221,81820,1,2,0:0:0:0:
61,312,82027,2,0,L|33:356,2,40,8|0|0,0:0|0:0|0:0,0:0:0:0:
29,206,82440,2,0,L|42:104,1,80,2|0,0:0|0:0,0:0:0:0:
141,55,82854,6,0,P|186:58|231:41,1,80,4|2,0:3|0:0,0:0:0:0:
391,43,83268,2,0,P|339:43|308:60,1,80,0|2,0:0|0:0,0:0:0:0:
296,86,83578,1,2,0:0:0:0:
283,119,83682,2,0,L|279:222,1,80,8|0,0:0|0:0,0:0:0:0:
200,319,84096,2,0,L|199:231,1,80,2|0,0:0|0:0,0:0:0:0:
122,70,84509,5,0,0:0:0:0:
48,158,84716,2,0,L|50:213,1,40,2|0,0:0|0:0,0:0:0:0:
103,319,84923,2,0,L|124:219,1,80,4|0,0:3|0:0,0:0:0:0:
119,240,85337,1,8,0:0:0:0:
207,99,85544,1,2,0:0:0:0:
207,99,85647,1,2,0:0:0:0:
207,99,85751,2,0,L|337:96,1,120.000004577637,2|0,0:0|0:0,0:0:0:0:
320,181,86164,6,0,P|401:152|398:51,1,176.000005371094,4|2,0:3|0:0,0:0:0:0:
410,71,86785,1,0,0:0:0:0:
481,210,86992,2,0,L|462:326,1,88.000002685547,8|2,0:0|0:0,0:0:0:0:
371,326,87406,2,0,P|330:316|246:334,1,88.000002685547,2|0,0:0|0:0,0:0:0:0:
149,336,87820,5,0,0:0:0:0:
96,150,88027,1,2,0:0:0:0:
48,237,88233,1,4,0:3:0:0:
247,182,88440,1,2,0:0:0:0:
192,23,88647,1,8,0:0:0:0:
165,108,88854,1,0,0:0:0:0:
291,65,89061,2,0,P|351:42|412:43,1,88.000002685547,2|0,0:0|0:0,0:0:0:0:
449,123,89475,5,4,0:3:0:0:
321,164,89682,1,2,0:0:0:0:
303,183,89785,1,0,0:0:0:0:
289,205,89889,2,0,P|283:259|298:295,1,88.000002685547,2|0,0:0|0:0,0:0:0:0:
305,314,90199,1,2,0:0:0:0:
209,332,90302,2,0,P|124:314|40:338,1,176.000005371094,8|2,0:0|0:0,0:0:0:0:
40,339,90923,1,0,0:0:0:0:
30,195,91130,6,0,L|40:116,1,44.0000013427735,2|0,0:0|0:0,0:0:0:0:
126,119,91337,2,0,L|139:65,1,44.0000013427735,2|0,0:0|0:0,0:0:0:0:
238,45,91544,2,0,P|291:32|416:69,1,176.000005371094,4|8,0:3|0:0,0:0:0:0:
434,316,92785,6,0,L|260:337,1,120.000004577637,8|0,0:0|0:0,0:0:0:0:
45,206,93199,2,0,L|180:222,1,120.000004577637,8|0,0:0|0:0,0:0:0:0:
428,56,93613,2,0,L|290:77,1,120.000004577637,8|0,0:0|0:0,0:0:0:0:
309,74,94027,1,8,0:0:0:0:
53,64,94440,6,0,L|30:211,1,120.000004577637,8|0,0:0|0:0,0:0:0:0:
214,338,94854,1,8,0:0:0:0:
336,166,95061,1,2,0:0:0:0:
146,192,95268,1,8,0:0:0:0:
331,313,95475,1,2,0:0:0:0:
431,70,95682,2,0,L|276:78,1,120.000004577637,8|2,0:0|0:0,0:0:0:0:
288,88,95992,1,2,0:0:0:0:
268,104,96096,6,0,L|96:117,1,120.000004577637,8|2,0:0|0:0,0:0:0:0:
148,113,96509,1,8,0:0:0:0:
101,305,96716,1,0,0:0:0:0:
33,185,96923,1,8,0:0:0:0:
266,305,97130,1,0,0:0:0:0:
303,205,97337,1,8,0:0:0:0:
393,319,97544,1,0,0:0:0:0:
191,214,97751,5,8,0:0:0:0:
417,220,97958,1,2,0:0:0:0:
426,227,98164,2,0,L|429:88,1,120.000004577637,8|2,0:0|0:0,0:0:0:0:
186,37,98578,2,0,L|173:159,1,120.000004577637,8|2,0:0|0:0,0:0:0:0:
164,260,98992,1,8,0:0:0:0:
392,335,99406,6,0,L|437:196,1,120.000004577637,8|8,0:0|0:0,0:0:0:0:
125,55,99820,2,0,L|117:192,1,120.000004577637,8|8,0:0|0:0,0:0:0:0:
428,220,100233,2,8,L|390:78,1,120.000004577637
51,130,100647,2,8,L|118:249,1,120.000004577637
195,320,101061,5,8,0:0:0:0:
270,78,101268,1,8,0:0:0:0:
321,183,101475,1,8,0:0:0:0:
110,234,101682,1,8,0:0:0:0:
146,142,101889,1,8,0:0:0:0:
298,316,102096,1,8,0:0:0:0:
386,258,102302,2,0,L|411:110,1,120.000004577637,8|0,0:0|0:0,0:0:0:0:
413,116,102613,1,2,0:0:0:0:
419,93,102716,5,8,0:0:0:0:
231,241,102923,1,2,0:0:0:0:
260,33,103130,1,8,0:0:0:0:
182,108,103337,1,2,0:0:0:0:
311,319,103544,1,8,0:0:0:0:
373,231,103751,1,2,0:0:0:0:
231,241,103958,2,0,L|111:296,1,120.000004577637,8|0,0:0|0:0,0:0:0:0:
18,335,104371,5,4,0:3:0:0:
9,346,104785,5,4,0:3:0:0:
69,147,105199,5,8,0:0:0:0:
213,341,105406,1,4,0:3:0:0:
244,242,105613,1,4,0:3:0:0:
25,225,105820,1,4,0:3:0:0:
158,108,106027,6,0,B|195:94|195:94|296:88,1,120.000004577637,4|0,0:0|0:0,0:0:0:0:
464,193,106440,2,0,B|424:195|424:195|331:172,1,120.000004577637,2|0,0:0|0:0,0:0:0:0:
182,243,106854,1,8,0:0:0:0:
412,91,107061,1,2,0:0:0:0:
382,281,107268,1,4,0:3:0:0:
211,45,107475,1,0,0:0:0:0:
39,160,107682,6,0,B|40:202|40:202|61:294,1,120.000004577637,2|0,0:0|0:0,0:0:0:0:
277,307,108096,2,0,B|293:271|293:271|309:157,1,120.000004577637,4|0,0:3|0:0,0:0:0:0:
307,166,108406,1,2,0:0:0:0:
312,142,108509,1,8,0:0:0:0:
359,50,108716,1,0,0:0:0:0:
428,261,108923,1,0,0:0:0:0:
474,175,109130,1,2,0:0:0:0:
249,132,109337,6,0,B|218:151|218:151|107:176,1,120.000004577637,4|0,0:3|0:0,0:0:0:0:
32,308,109751,2,0,B|64:328|64:328|145:346,1,120.000004577637,2|0,0:0|0:0,0:0:0:0:
276,326,110164,1,8,0:0:0:0:
59,218,110371,1,2,0:0:0:0:
177,139,110578,1,4,0:3:0:0:
145,346,110785,1,0,0:0:0:0:
45,213,110992,6,0,B|39:176|39:176|50:89,1,120.000004577637,2|0,0:0|0:0,0:0:0:0:
307,36,111406,2,0,B|307:78|307:78|283:160,1,120.000004577637,4|2,0:3|0:0,0:0:0:0:
247,305,111820,1,8,0:0:0:0:
367,347,112027,1,2,0:0:0:0:
388,309,112233,1,2,0:0:0:0:
409,272,112337,1,2,0:0:0:0:
427,234,112440,1,2,0:0:0:0:
451,85,112647,6,0,P|388:56|317:64,1,120.000004577637,4|0,0:3|0:0,0:0:0:0:
121,140,113061,2,0,P|193:167|259:162,1,120.000004577637,2|0,0:0|0:0,0:0:0:0:
331,141,113475,1,8,0:0:0:0:
169,281,113682,1,2,0:0:0:0:
239,46,113889,2,0,B|234:79|234:79|235:173,1,120.000004577637,4|0,0:3|0:0,0:0:0:0:
235,165,114302,5,2,0:0:0:0:
254,257,114509,1,2,0:0:0:0:
276,285,114613,1,2,0:0:0:0:
308,299,114716,2,0,P|373:299|440:280,1,120.000004577637,4|0,0:3|0:0,0:0:0:0:
235,165,115130,2,0,P|176:206|161:277,1,120.000004577637,8|2,0:0|0:0,0:0:0:0:
146,347,115544,1,2,0:0:0:0:
146,347,115647,1,2,0:0:0:0:
146,347,115751,1,2,0:0:0:0:
36,243,115958,6,0,B|34:207|34:207|48:110,1,120.000004577637,4|0,0:3|0:0,0:0:0:0:
259,27,116371,2,0,B|265:60|265:60|263:155,1,120.000004577637,2|0,0:0|0:0,0:0:0:0:
283,292,116785,1,8,0:0:0:0:
169,142,116992,1,2,0:0:0:0:
346,207,117199,2,0,B|382:203|382:203|473:210,1,120.000004577637,4|0,0:3|0:0,0:0:0:0:
283,292,117613,6,0,B|239:301|239:301|137:296,1,120.000004577637,2|0,0:0|0:0,0:0:0:0:
65,298,118027,1,4,0:3:0:0:
22,214,118233,1,2,0:0:0:0:
13,178,118337,1,2,0:0:0:0:
13,142,118440,1,8,0:0:0:0:
14,55,118647,1,4,0:3:0:0:
38,28,118854,1,4,0:3:0:0:
72,19,119061,1,4,0:3:0:0:
217,46,119268,6,0,B|256:43|256:43|385:70,1,128,4|0,0:0|0:0,0:0:0:0:
386,244,119682,2,0,B|351:256|351:256|242:258,1,128,2|0,0:0|0:0,0:0:0:0:
56,284,120096,1,8,0:0:0:0:
182,126,120302,1,2,0:0:0:0:
193,311,120509,1,4,0:3:0:0:
59,271,120716,1,0,0:0:0:0:
208,123,120923,6,0,L|338:118,1,128,2|0,0:0|0:0,0:0:0:0:
168,36,121337,2,0,P|119:92|133:176,1,128,4|0,0:3|0:0,0:0:0:0:
156,283,121751,1,8,0:0:0:0:
33,165,121958,1,0,0:0:0:0:
251,168,122164,1,2,0:0:0:0:
140,284,122371,1,0,0:0:0:0:
146,304,122578,6,0,L|293:334,1,128,4|0,0:3|0:0,0:0:0:0:
454,98,122992,2,0,L|295:104,1,128,2|0,0:0|0:0,0:0:0:0:
167,212,123406,1,8,0:0:0:0:
255,32,123613,1,2,0:0:0:0:
397,223,123820,2,0,B|351:219|351:219|257:184,1,128,4|0,0:3|0:0,0:0:0:0:
132,77,124233,5,2,0:0:0:0:
37,264,124440,1,2,0:0:0:0:
27,226,124544,1,2,0:0:0:0:
24,187,124647,2,0,L|15:53,1,128,4|0,0:3|0:0,0:0:0:0:
15,59,125061,1,8,0:0:0:0:
184,94,125268,1,2,0:0:0:0:
100,209,125475,1,4,0:3:0:0:
203,306,125682,1,0,0:0:0:0:
214,314,125889,6,0,P|276:291|320:228,1,128,4|0,0:0|0:0,0:0:0:0:
275,46,126302,2,0,L|271:190,1,128,2|0,0:0|0:0,0:0:0:0:
393,297,126716,1,8,0:0:0:0:
271,173,126923,1,2,0:0:0:0:
280,361,127130,1,4,0:3:0:0:
313,244,127337,1,0,0:0:0:0:
396,296,127544,6,0,B|428:254|428:254|440:176,1,128,2|0,0:0|0:0,0:0:0:0:
260,40,127958,2,0,L|263:167,1,128,4|0,0:3|0:0,0:0:0:0:
176,216,128268,1,0,0:0:0:0:
176,216,128371,2,0,P|101:235|22:211,1,128,8|0,0:0|0:0,0:0:0:0:
0,304,128785,1,2,0:0:0:0:
0,304,128889,1,2,0:0:0:0:
0,304,128992,1,2,0:0:0:0:
54,98,129199,6,0,P|59:177|49:237,1,128,4|0,0:3|0:0,0:0:0:0:
242,232,129613,2,0,P|237:153|247:93,1,128,2|0,0:0|0:0,0:0:0:0:
352,16,130027,1,8,0:0:0:0:
245,105,130233,1,2,0:0:0:0:
329,163,130440,1,4,0:3:0:0:
403,274,130647,1,0,0:0:0:0:
403,274,130854,5,2,0:0:0:0:
401,359,131268,1,2,0:0:0:0:
298,263,131682,1,2,0:0:0:0:
215,309,131889,1,2,0:0:0:0:
51,179,132509,6,0,P|72:145|76:116,1,60.0000022888184,2|0,0:0|0:0,0:0:0:0:
162,59,132923,2,0,P|172:104|197:127,1,60.0000022888184
269,136,133337,2,0,P|336:125|400:141,1,120.000004577637,2|0,0:0|0:0,0:0:0:0:
399,268,134164,5,2,0:0:0:0:
297,317,134371,1,0,0:0:0:0:
316,202,134578,1,2,0:0:0:0:
390,296,134785,1,0,0:0:0:0:
268,306,134992,1,2,0:0:0:0:
316,202,135406,1,2,0:0:0:0:
161,256,135820,6,0,P|105:255|79:248,1,60.0000022888184,2|0,0:0|0:0,0:0:0:0:
6,168,136233,2,0,P|62:169|88:176,1,60.0000022888184
161,151,136647,2,0,P|206:116|230:48,1,120.000004577637,2|0,0:0|0:0,0:0:0:0:
346,66,137475,6,0,L|347:138,3,60.0000022888184,2|0|2|0,0:0|0:0|0:0|0:0,0:0:0:0:
462,57,138302,2,0,L|461:195,1,120.000004577637,2|2,0:0|0:0,0:0:0:0:
433,310,139130,6,0,P|390:328|358:322,1,60.0000022888184,2|0,0:0|0:0,0:0:0:0:
310,258,139544,2,0,P|260:256|226:271,1,60.0000022888184
171,313,139958,2,0,P|111:296|82:236,1,120.000004577637,2|0,0:0|0:0,0:0:0:0:
83,248,140785,5,2,0:0:0:0:
37,124,140992,1,0,0:0:0:0:
82,266,141199,1,2,0:0:0:0:
158,100,141406,1,0,0:0:0:0:
80,289,141613,1,2,0:0:0:0:
80,289,142027,1,2,0:0:0:0:
256,215,142440,6,0,P|290:169|300:141,1,60.0000022888184,2|0,0:0|0:0,0:0:0:0:
353,93,142854,2,0,P|366:137|377:158,1,60.0000022888184,2|0,0:0|0:0,0:0:0:0:
431,226,143268,2,0,P|460:187|455:99,1,120.000004577637,2|0,0:0|0:0,0:0:0:0:
336,36,144096,6,0,L|263:31,3,60.0000022888184,2|0|2|0,0:0|0:0|0:0|0:0,0:0:0:0:
268,117,144923,2,0,P|222:107|187:24,1,120.000004577637,2|2,0:0|0:0,0:0:0:0:
