osu file format v14

[General]
AudioFilename: audio.mp3
AudioLeadIn: 0
PreviewTime: 66302
Countdown: 0
SampleSet: Soft
StackLeniency: 0.7
Mode: 0
LetterboxInBreaks: 0
WidescreenStoryboard: 1

[Editor]
Bookmarks: 13337,21613,66302,79544
DistanceSpacing: 0.9
BeatDivisor: 4
GridSize: 4
TimelineZoom: 2.1

[Metadata]
Title:Odin god
TitleUnicode:Один год
Artist:55x55
ArtistUnicode:55x55
Creator:Stix
Version:Easy
Source:
Tags:
BeatmapID:0
BeatmapSetID:-1

[Difficulty]
HPDrainRate:2
CircleSize:3
OverallDifficulty:2
ApproachRate:3
SliderMultiplier:0.8
SliderTickRate:1

[Events]
//Background and Video events
0,0,"fon.jpg",0,0
//Break Periods
2,66502,78104
//Storyboard Layer 0 (Background)
//Storyboard Layer 1 (Fail)
//Storyboard Layer 2 (Pass)
//Storyboard Layer 3 (Foreground)
//Storyboard Sound Samples

[TimingPoints]
96,413.793103448276,4,2,1,50,1,0
13337,-100,4,2,1,50,0,0
26578,-100,4,2,1,50,0,0
39820,-100,4,2,1,50,0,1
52233,-100,4,2,1,50,0,0
53061,-100,4,2,1,50,0,1
66302,-100,4,2,1,50,0,0
79544,-100,4,2,1,50,0,0
85751,-100,4,2,1,50,0,0
85958,-100,4,2,1,50,0,0
86164,-100,4,2,1,50,0,0
92785,-100,4,2,1,50,0,0
106027,-100,4,2,1,50,0,1
118440,-100,4,2,1,50,0,0
119268,-100,4,2,1,50,0,1
130854,-100,4,2,1,50,0,0
132509,-100,4,2,1,20,0,0

[Colours]
Combo1 : 255,192,0
Combo2 : 0,202,0
Combo3 : 18,124,255
Combo4 : 242,24,57
SliderTrackOverride : 218,218,218

[HitObjects]
256,192,21613,12,0,25751,0:0:0:0:
88,324,26578,6,0,L|84:136,1,160,8|8,0:0|0:0,0:0:0:0:
143,87,27820,1,8,0:0:0:0:
226,134,28233,2,0,P|310:134|406:106,1,160,8|8,0:0|0:0,0:0:0:0:
459,56,29475,1,8,0:0:0:0:
484,149,29889,2,0,P|480:245|448:301,1,160,8|8,0:0|0:0,0:0:0:0:
358,331,31130,1,8,0:0:0:0:
269,294,31544,6,0,L|55:299,1,160,8|8,0:0|0:0,0:0:0:0:
13,292,32785,1,8,0:0:0:0:
256,192,33199,12,8,38164,0:0:0:0:
257,191,38578,5,4,0:3:0:0:
179,247,38992,2,0,L|80:252,1,80,4|4,0:3|0:3,0:0:0:0:
43,172,39820,6,0,P|67:80|163:57,1,160,4|8,0:0|0:0,0:0:0:0:
197,110,41061,1,4,0:3:0:0:
291,91,41475,2,0,L|396:80,2,80,2|4|8,0:0|0:3|0:0,0:0:0:0:
266,183,42716,1,2,0:0:0:0:
361,170,43130,6,0,P|362:262|375:337,1,160,4|8,0:3|0:0,0:0:0:0:
466,351,44371,1,4,0:3:0:0:
373,328,44785,2,0,L|257:328,2,80,2|4|8,0:0|0:3|0:0,0:0:0:0:
446,265,46027,1,2,0:0:0:0:
387,189,46440,6,0,P|271:174|210:189,1,160,4|8,0:3|0:0,0:0:0:0:
156,244,47682,1,4,0:3:0:0:
65,211,48096,2,0,L|60:96,2,80,2|4|8,0:0|0:3|0:0,0:0:0:0:
63,307,49337,1,2,0:0:0:0:
152,341,49751,6,0,P|242:347|316:326,1,160,4|8,0:3|0:0,0:0:0:0:
387,273,50992,1,4,0:3:0:0:
448,199,51406,2,0,L|447:101,1,80,2|4,0:0|0:3,0:0:0:0:
447,22,52233,1,8,0:0:0:0:
255,39,53061,6,0,P|221:47|84:62,1,160,4|8,0:0|0:0,0:0:0:0:
8,24,54302,1,4,0:3:0:0:
8,120,54716,2,0,P|0:158|12:223,1,80,2|4,0:0|0:3,0:0:0:0:
80,256,55544,2,0,P|92:290|93:344,1,80,8|0,0:0|0:0,0:0:0:0:
190,342,56371,6,0,P|229:343|374:342,1,160,4|8,0:3|0:0,0:0:0:0:
444,324,57613,1,4,0:3:0:0:
413,233,58027,2,0,P|401:149|402:117,1,80,2|4,0:0|0:3,0:0:0:0:
339,80,58854,2,0,P|339:31|331:-12,1,80,8|2,0:0|0:0,0:0:0:0:
238,10,59682,6,0,P|203:90|129:115,1,160,4|8,0:0|0:0,0:0:0:0:
44,101,60923,1,4,0:3:0:0:
42,197,61337,2,0,L|15:286,2,80,2|4|8,0:0|0:3|0:0,0:0:0:0:
137,193,62578,1,2,0:0:0:0:
190,272,62992,6,0,P|280:280|366:256,1,160,4|8,0:3|0:0,0:0:0:0:
430,216,64233,1,4,0:3:0:0:
357,152,64647,2,0,L|362:54,1,80,2|0,0:0|0:0,0:0:0:0:
444,23,65475,2,0,L|454:117,1,80,2|0,0:0|0:0,0:0:0:0:
477,195,66302,5,4,0:0:0:0:
64,58,79544,6,0,L|57:245,1,160,4|8,0:3|0:0,0:0:0:0:
103,302,80785,1,2,0:0:0:0:
192,267,81199,2,0,P|236:252|302:264,1,80,2|4,0:0|0:3,0:0:0:0:
348,307,82027,2,0,P|387:306|425:292,1,80,8|2,0:0|0:0,0:0:0:0:
472,209,82854,5,4,0:3:0:0:
474,112,83268,1,2,0:0:0:0:
387,70,83682,1,8,0:0:0:0:
294,44,84096,1,2,0:0:0:0:
208,86,84509,2,0,L|110:87,1,80,2|4,0:0|0:3,0:0:0:0:
44,39,85337,1,8,0:0:0:0:
12,129,85751,1,2,0:0:0:0:
33,222,86164,6,0,P|49:303|118:335,1,160,4|8,0:3|0:0,0:0:0:0:
191,278,87406,2,0,P|284:254|376:267,1,160,2|4,0:0|0:3,0:0:0:0:
427,310,88647,1,8,0:0:0:0:
467,222,89061,6,0,L|462:122,1,80,2|4,0:0|0:3,0:0:0:0:
420,55,89889,2,0,P|315:32|214:55,1,160,2|2,0:0|0:0,0:0:0:0:
186,95,91130,2,0,L|78:93,1,80,2|4,0:0|0:3,0:0:0:0:
9,87,91958,1,8,0:0:0:0:
26,278,92785,6,8,P|111:333|185:327,1,160,4|8,0:0|0:0,0:0:0:0:
251,285,94027,1,8,0:0:0:0:
335,330,94440,2,0,L|438:325,1,80,8|8,0:0|0:0,0:0:0:0:
442,233,95268,2,0,L|312:187,1,80,8|8,0:0|0:0,0:0:0:0:
270,210,96096,6,0,P|311:129|423:129,1,160,8|8,0:0|0:0,0:0:0:0:
468,104,97337,1,8,0:0:0:0:
408,28,97751,2,0,L|212:39,1,160,8|8,0:0|0:0,0:0:0:0:
152,48,98992,1,8,0:0:0:0:
70,98,99406,6,0,P|56:182|65:259,1,160,4|8,0:0|0:0,0:0:0:0:
27,344,100647,1,8,0:0:0:0:
122,338,101061,2,0,L|226:337,1,80,8|8,0:0|0:0,0:0:0:0:
278,279,101889,2,0,L|400:279,1,80,8|8,0:0|0:0,0:0:0:0:
452,297,102716,6,0,P|426:209|324:189,1,160,8|8,0:0|0:0,0:0:0:0:
277,150,103958,1,8,0:0:0:0:
344,81,104371,5,4,0:3:0:0:
257,38,104785,1,4,0:3:0:0:
160,36,105199,2,0,L|56:41,1,80,8|4,0:0|0:3,0:0:0:0:
33,124,106027,6,0,P|45:224|38:303,1,160,4|8,0:0|0:0,0:0:0:0:
114,344,107268,1,4,0:3:0:0:
179,273,107682,2,0,L|187:175,1,80,2|4,0:0|0:3,0:0:0:0:
265,140,108509,2,0,L|277:253,1,80,8|2,0:0|0:0,0:0:0:0:
341,287,109337,6,0,P|406:225|429:140,1,160,4|8,0:3|0:0,0:0:0:0:
463,70,110578,1,4,0:3:0:0:
375,29,110992,2,0,L|245:33,1,80,2|4,0:0|0:3,0:0:0:0:
221,93,111820,2,0,L|66:85,1,80,8|2,0:0|0:0,0:0:0:0:
49,118,112647,6,0,P|32:260|14:310,1,160,4|8,0:3|0:0,0:0:0:0:
104,333,113889,1,4,0:3:0:0:
175,268,114302,2,0,L|268:279,1,80,2|4,0:0|0:3,0:0:0:0:
342,315,115130,2,0,L|436:293,1,80,8|2,0:0|0:0,0:0:0:0:
392,204,115958,6,0,P|283:164|260:102,1,160,4|8,0:3|0:0,0:0:0:0:
296,39,117199,1,4,0:3:0:0:
371,98,117613,2,0,L|466:61,2,80,2|4|8,0:0|0:3|0:0,0:0:0:0:
185,46,119268,6,0,P|83:84|65:159,1,160,4|8,0:0|0:0,0:0:0:0:
160,139,120509,1,4,0:3:0:0:
95,210,120923,2,0,L|90:303,1,80,2|4,0:0|0:3,0:0:0:0:
180,324,121751,2,0,L|201:218,1,80,8|2,0:0|0:0,0:0:0:0:
278,197,122578,6,0,P|382:225|460:190,1,160,4|8,0:3|0:0,0:0:0:0:
486,133,123820,1,4,0:3:0:0:
444,46,124233,1,2,0:0:0:0:
347,44,124647,1,4,0:3:0:0:
258,81,125061,2,0,L|120:75,1,80,8|2,0:0|0:0,0:0:0:0:
86,48,125889,6,0,P|99:140|188:178,1,160,4|8,0:0|0:0,0:0:0:0:
235,218,127130,1,4,0:3:0:0:
152,267,127544,2,0,L|46:266,1,80,2|4,0:0|0:3,0:0:0:0:
79,361,128371,2,0,L|192:357,1,80,8|2,0:0|0:0,0:0:0:0:
250,329,129199,6,0,L|442:322,1,160,4|8,0:3|0:0,0:0:0:0:
487,266,130440,1,4,0:3:0:0:
488,169,130854,5,2,0:0:0:0:
481,73,131268,1,2,0:0:0:0:
396,28,131682,2,0,L|261:36,1,80,2|2,0:0|0:0,0:0:0:0:
231,77,132509,6,0,L|58:76,1,160,2|2,0:0|0:0,0:0:0:0:
28,162,133751,1,2,0:0:0:0:
76,245,134164,2,0,L|278:249,1,160,2|0,0:0|0:0,0:0:0:0:
326,216,135406,1,2,0:0:0:0:
422,217,135820,6,0,P|400:280|270:290,1,160,2|2,0:0|0:0,0:0:0:0:
224,334,137061,1,2,0:0:0:0:
128,325,137475,2,0,P|49:265|49:188,1,160,2|0,0:0|0:0,0:0:0:0:
52,114,138716,1,2,0:0:0:0:
138,71,139130,6,0,L|345:55,1,160,2|2,0:0|0:0,0:0:0:0:
392,73,140371,1,2,0:0:0:0:
427,162,140785,2,0,P|388:177|273:213,1,160,2|0,0:0|0:0,0:0:0:0:
185,178,142027,1,2,0:0:0:0:
95,144,142440,6,0,P|97:224|175:273,1,160,2|2,0:0|0:0,0:0:0:0:
234,327,143682,1,2,0:0:0:0:
329,334,144096,2,0,P|407:293|436:214,1,160,2|2,0:0|0:0,0:0:0:0:
459,137,145337,1,2,0:0:0:0:
