osu file format v14

[General]
AudioFilename: audio.mp3
AudioLeadIn: 0
PreviewTime: 27697
Countdown: 0
SampleSet: Soft
StackLeniency: 0.7
Mode: 0
LetterboxInBreaks: 0
WidescreenStoryboard: 0

[Editor]
Bookmarks: 120,7505,14889,22274,27812,29659,37043,44428,48120,62889,66582,73966,81351,88735,96120,103505
DistanceSpacing: 1.4
BeatDivisor: 4
GridSize: 4
TimelineZoom: 2.1

[Metadata]
Title:NIKOLAY (feat. Nikolay Sobolev)
TitleUnicode:НИКОЛАЙ (feat. Николай Соболев)
Artist:55x55
ArtistUnicode:55x55
Creator:Imakuri
Version:M a r v o l l o's KOJIbKA INSANE
Source:
Tags:marvollo m_a_r_v_o_l_l_o shmiklak russian русский ракамакафо armin and a_r_m_i_n vanucik
BeatmapID:1377781
BeatmapSetID:650120

[Difficulty]
HPDrainRate:7
CircleSize:4
OverallDifficulty:7
ApproachRate:8
SliderMultiplier:1.6
SliderTickRate:1

[Events]
//Background and Video events
0,0,"NIKOLAYYLMAO.jpg",0,0
//Break Periods
2,44628,47370
2,63089,65832
//Storyboard Layer 0 (Background)
//Storyboard Layer 1 (Fail)
//Storyboard Layer 2 (Pass)
//Storyboard Layer 3 (Foreground)
//Storyboard Sound Samples

[TimingPoints]
120,461.538461538462,4,2,1,80,1,0
29658,-100,4,2,1,80,0,1
35196,-100,4,2,1,80,0,0
37043,-100,4,2,1,80,0,1
42581,-100,4,2,1,80,0,0
73966,-100,4,2,1,80,0,1
80427,-133.333333333333,4,2,1,80,0,0
81350,-100,4,2,1,80,0,1
86889,-100,4,2,1,80,0,0

[Colours]
Combo1 : 183,136,181
Combo2 : 224,208,158
SliderTrackOverride : 218,218,218

[HitObjects]
64,84,120,6,0,P|103:82|160:80,1,80,6|0,0:0|0:0,0:0:0:0:
194,179,582,2,0,P|154:177|98:175,1,80,8|0,0:0|0:0,0:0:0:0:
68,274,1043,2,0,P|107:272|164:270,1,80,2|0,0:0|0:0,0:0:0:0:
256,344,1505,1,8,0:0:0:0:
364,270,1735,1,8,3:0:0:0:
262,121,1966,6,0,P|261:81|266:33,1,80,2|0,0:0|0:0,0:0:0:0:
177,72,2428,2,0,P|178:112|173:160,1,80,8|0,0:0|0:0,0:0:0:0:
94,182,2889,2,0,P|93:142|98:94,1,80,2|0,0:0|0:0,0:0:0:0:
156,239,3351,1,8,0:0:0:0:
4,214,3582,1,8,3:0:0:0:
122,77,3812,6,0,P|163:75|214:88,1,80,2|0,0:0|0:0,0:0:0:0:
362,53,4274,2,0,P|321:55|270:42,1,80,8|0,0:0|0:0,0:0:0:0:
401,130,4735,2,0,P|442:128|493:141,1,80,2|0,0:0|0:0,0:0:0:0:
328,176,5197,1,8,0:0:0:0:
431,259,5428,1,8,3:0:0:0:
263,344,5659,6,0,P|220:344|173:331,1,80,2|0,0:0|0:0,0:0:0:0:
102,256,6120,2,0,P|144:256|192:243,1,80,8|0,0:0|0:0,0:0:0:0:
245,156,6582,2,0,P|202:156|155:143,1,80,2|0,0:0|0:0,0:0:0:0:
33,89,7043,1,8,0:0:0:0:
35,235,7274,1,8,3:0:0:0:
158,66,7505,6,0,P|200:65|248:79,1,80,2|0,0:0|0:0,0:0:0:0:
329,190,7966,2,0,P|286:189|239:203,1,80,10|0,0:0|0:0,0:0:0:0:
162,343,8428,1,2,0:0:0:0:
94,209,8659,2,0,P|96:184|102:138,1,40,0|2,0:0|0:0,0:0:0:0:
2,124,8889,2,0,P|4:148|10:195,1,40,10|0,0:0|0:0,0:0:0:0:
112,68,9120,2,0,P|87:70|41:76,1,40,8|0,3:0|0:0,0:0:0:0:
185,28,9351,5,2,0:0:0:0:
266,160,9582,1,2,0:0:0:0:
287,2,9812,1,10,0:0:0:0:
193,111,10043,1,2,0:0:0:0:
375,80,10274,1,10,0:0:0:0:
422,224,10505,2,0,P|426:246|425:276,1,40,0|2,0:0|0:0,0:0:0:0:
303,224,10735,2,0,P|310:202|326:177,1,40,10|0,0:0|0:0,0:0:0:0:
362,332,10966,2,0,P|340:324|315:308,1,40,8|0,3:0|0:0,0:0:0:0:
195,279,11197,6,0,P|147:273|87:281,1,80,2|0,0:0|0:0,0:0:0:0:
45,176,11659,2,0,P|93:170|153:178,1,80,10|0,0:0|0:0,0:0:0:0:
197,46,12120,1,2,0:0:0:0:
255,179,12351,2,0,P|257:204|245:236,1,40,0|2,0:0|0:0,0:0:0:0:
322,119,12582,2,0,P|347:121|379:109,1,40,10|0,0:0|0:0,0:0:0:0:
348,217,12812,2,0,P|358:239|385:261,1,40,8|0,3:0|0:0,0:0:0:0:
444,356,13043,6,0,P|379:351|304:348,1,120,4|0,3:0|0:0,0:0:0:0:
248,258,13505,6,0,P|312:253|388:250,1,120,4|0,3:0|0:0,0:0:0:0:
445,163,13966,6,0,P|380:158|305:155,1,120,4|0,3:0|0:0,0:0:0:0:
239,52,14428,6,0,P|292:80|316:152,1,120,2|0,3:2|0:0,0:0:0:0:
308,172,14889,6,0,P|306:214|312:264,1,80,2|0,0:0|0:0,0:0:0:0:
374,364,15351,1,8,0:0:0:0:
390,245,15582,1,0,0:0:0:0:
244,324,15812,2,0,P|206:329|151:320,1,80,2|0,0:0|0:0,0:0:0:0:
55,205,16274,2,0,P|90:219|145:225,1,80,8|0,0:0|0:0,0:0:0:0:
277,201,16735,5,2,0:0:0:0:
152,318,16966,1,0,0:0:0:0:
100,123,17197,2,0,P|110:66|124:38,1,80,8|0,0:0|0:0,0:0:0:0:
39,190,17659,2,0,P|47:241|23:325,1,120,2|0,0:0|0:0,0:0:0:0:
12,341,18120,2,0,P|81:326|101:326,1,80,8|0,0:0|0:0,0:0:0:0:
227,285,18582,6,0,P|296:300|316:300,1,80,2|0,0:0|0:0,0:0:0:0:
431,209,19043,2,0,P|390:215|348:216,1,80,8|0,0:0|0:0,0:0:0:0:
209,135,19505,1,2,0:0:0:0:
266,249,19735,1,0,0:0:0:0:
328,108,19966,2,0,P|332:46|332:22,1,80,8|0,0:0|0:0,0:0:0:0:
426,129,20428,6,0,P|430:191|430:215,1,80,2|0,0:0|0:0,0:0:0:0:
347,296,20889,2,0,P|351:234|351:210,1,80,8|0,0:0|0:0,0:0:0:0:
259,128,21351,2,0,P|263:190|263:214,1,80,2|0,0:0|0:0,0:0:0:0:
180,295,21812,2,0,P|184:233|184:209,1,80,8|0,0:0|0:0,0:0:0:0:
95,57,22274,6,0,P|61:52|8:61,1,80,8|0,0:1|0:1,0:0:0:0:
83,71,22735,2,0,P|49:69|-2:83,1,80,8|0,0:1|0:1,0:0:0:0:
74,87,23197,2,0,P|39:87|-10:106,1,80,8|0,0:1|0:1,0:0:0:0:
65,103,23659,2,0,P|31:107|-17:129,1,80,8|0,0:1|0:1,0:0:0:0:
184,215,24120,6,0,P|218:220|271:211,1,80,8|0,0:1|0:1,0:0:0:0:
196,201,24581,2,0,P|230:203|281:189,1,80,8|0,0:1|0:1,0:0:0:0:
205,185,25043,2,0,P|240:185|289:166,1,80,8|0,0:1|0:1,0:0:0:0:
214,169,25505,2,0,P|248:165|296:143,1,80,8|0,0:1|0:1,0:0:0:0:
402,63,25966,5,8,0:1:0:0:
365,209,26197,1,8,0:1:0:0:
319,50,26428,1,8,0:1:0:0:
465,135,26659,1,8,0:1:0:0:
289,147,26889,1,8,0:1:0:0:
438,40,27120,1,8,0:1:0:0:
351,225,27351,1,8,0:1:0:0:
250,34,27582,1,8,0:1:0:0:
256,192,27812,12,0,29197,0:0:0:0:
360,76,29659,6,0,P|358:114|356:172,1,80,2|0,0:0|0:0,0:0:0:0:
373,172,30005,1,0,0:0:0:0:
389,188,30120,2,0,P|387:226|385:284,1,80,8|0,0:0|0:0,0:0:0:0:
360,76,30582,1,2,0:0:0:0:
470,200,30812,1,0,0:0:0:0:
274,220,31043,2,0,P|224:208|192:200,1,80,8|0,0:0|0:0,0:0:0:0:
43,324,31505,6,0,P|93:330|129:318,1,80,2|0,0:0|0:0,0:0:0:0:
137,304,31851,1,0,0:0:0:0:
153,287,31966,2,0,P|194:288|248:292,1,80,8|0,0:0|0:0,0:0:0:0:
395,321,32428,1,2,0:0:0:0:
274,220,32659,1,0,0:0:0:0:
343,374,32889,1,8,0:0:0:0:
362,191,33120,1,0,0:0:0:0:
215,320,33351,6,0,P|175:317|135:316,1,80,2|0,0:0|0:0,0:0:0:0:
118,298,33697,1,0,0:0:0:0:
101,281,33812,2,0,P|103:241|104:201,1,80,8|0,0:0|0:0,0:0:0:0:
58,61,34274,1,2,0:0:0:0:
162,144,34505,1,0,0:0:0:0:
31,174,34735,2,0,P|33:129|38:88,1,80,8|0,0:0|0:0,0:0:0:0:
152,26,35197,5,2,3:0:0:0:
163,37,35659,1,2,3:0:0:0:
174,48,36120,1,2,3:0:0:0:
256,28,36351,1,2,3:0:0:0:
371,176,36697,1,2,3:0:0:0:
280,171,36928,1,2,3:0:0:0:
280,171,37043,6,0,P|233:165|179:165,1,80,2|0,0:0|0:0,0:0:0:0:
178,174,37389,1,0,0:0:0:0:
156,184,37505,2,0,P|109:190|55:190,1,80,8|0,0:0|0:0,0:0:0:0:
200,252,37966,1,2,0:0:0:0:
92,117,38197,1,0,0:0:0:0:
103,280,38428,2,0,P|101:320|95:369,1,80,8|0,0:0|0:0,0:0:0:0:
200,252,38889,6,0,P|198:212|192:163,1,80,2|0,0:0|0:0,0:0:0:0:
176,155,39235,1,0,0:0:0:0:
158,137,39351,2,0,P|160:97|166:48,1,80,8|0,0:0|0:0,0:0:0:0:
110,198,39812,1,2,0:0:0:0:
232,100,40043,1,0,0:0:0:0:
53,105,40274,1,8,0:0:0:0:
193,172,40505,1,0,0:0:0:0:
40,316,40735,6,0,P|80:314|131:312,1,80,2|0,0:0|0:0,0:0:0:0:
137,295,41082,1,0,0:0:0:0:
153,278,41197,2,0,P|193:276|244:274,1,80,8|0,0:0|0:0,0:0:0:0:
401,335,41659,1,2,0:0:0:0:
328,215,41889,1,0,0:0:0:0:
308,362,42120,2,0,P|348:360|397:357,1,80,8|0,0:0|0:0,0:0:0:0:
485,273,42582,6,0,P|496:216|464:120,1,160,2|8,0:0|0:0,0:0:0:0:
397,64,43274,1,0,0:0:0:0:
301,165,43505,2,0,B|213:197|245:133|137:165,1,160,2|8,0:0|0:0,0:0:0:0:
65,228,44197,1,0,3:0:0:0:
261,96,44428,5,6,0:0:0:0:
261,96,48120,6,0,P|256:140|257:212,1,80,2|0,0:0|0:0,0:0:0:0:
363,269,48582,2,0,P|361:229|357:189,1,80,8|0,0:0|0:0,0:0:0:0:
217,290,49043,2,0,P|173:285|116:289,1,80,2|0,0:0|0:0,0:0:0:0:
267,211,49505,1,8,0:0:0:0:
273,346,49735,1,0,0:0:0:0:
139,201,49966,6,0,P|139:158|147:110,1,80,2|0,0:0|0:0,0:0:0:0:
252,20,50428,1,8,0:0:0:0:
274,131,50659,1,0,0:0:0:0:
165,36,50889,2,0,P|201:39|256:32,1,80,2|0,0:0|0:0,0:0:0:0:
362,132,51351,2,0,P|325:128|271:136,1,80,8|0,0:0|0:0,0:0:0:0:
166,248,51812,6,0,P|168:288|173:340,1,80,2|0,0:0|0:0,0:0:0:0:
68,250,52274,2,0,P|70:209|75:158,1,80,8|0,0:0|0:0,0:0:0:0:
26,316,52735,1,2,0:0:0:0:
148,218,52966,1,0,0:0:0:0:
0,168,53197,1,8,0:0:0:0:
84,270,53428,1,0,0:0:0:0:
112,108,53659,6,0,P|105:55|97:23,1,80,2|0,0:0|0:0,0:0:0:0:
175,168,54120,1,8,0:0:0:0:
50,160,54351,1,0,0:0:0:0:
201,93,54582,2,0,P|250:89|293:95,1,80,2|0,0:0|0:0,0:0:0:0:
416,165,55043,1,8,0:0:0:0:
367,51,55274,1,0,0:0:0:0:
320,210,55505,6,0,P|322:253|324:296,1,80,2|0,0:0|0:0,0:0:0:0:
372,135,55966,1,8,0:0:0:0:
255,174,56197,1,0,0:0:0:0:
397,219,56428,1,2,0:0:0:0:
287,103,56659,1,0,0:0:0:0:
200,254,56889,2,0,P|159:261|114:258,1,80,8|0,0:0|0:0,0:0:0:0:
0,191,57351,5,2,0:0:0:0:
49,351,57582,1,0,0:0:0:0:
91,166,57812,2,0,P|86:105|82:73,1,80,8|0,0:0|0:0,0:0:0:0:
173,178,58274,2,0,P|165:245|160:312,1,120,2|0,0:0|0:0,0:0:0:0:
189,325,58735,2,0,P|232:316|280:320,1,80,8|0,0:0|0:0,0:0:0:0:
439,254,59197,6,0,P|396:245|348:249,1,80,2|0,0:0|0:0,0:0:0:0:
267,317,59659,1,8,0:0:0:0:
388,343,59889,1,0,0:0:0:0:
286,219,60120,2,0,P|288:175|292:134,1,80,2|0,0:0|0:0,0:0:0:0:
180,71,60582,2,0,P|182:114|186:156,1,80,8|0,0:0|0:0,0:0:0:0:
119,288,61043,6,0,P|72:294|23:284,1,80,2|0,0:0|0:0,0:0:0:0:
205,344,61505,2,0,P|252:350|301:340,1,80,8|0,0:0|0:0,0:0:0:0:
389,245,61966,2,0,P|383:204|380:158,1,80,2|0,0:0|0:0,0:0:0:0:
292,265,62428,2,0,P|286:305|283:352,1,80,8|0,0:0|0:0,0:0:0:0:
190,89,62889,5,6,0:0:0:0:
190,89,66582,6,0,P|243:92|308:72,1,106.666666666667,8|0,0:1|0:1,0:0:0:0:
347,131,67043,2,0,P|344:184|364:249,1,106.666666666667,8|0,0:1|0:1,0:0:0:0:
282,235,67505,2,0,P|246:195|186:163,1,106.666666666667,8|0,0:1|0:1,0:0:0:0:
126,168,67966,2,0,P|80:194|44:234,1,106.666666666667,8|0,0:1|0:1,0:0:0:0:
44,308,68428,6,0,P|99:304|159:301,1,106.666666666667,8|0,0:1|0:1,0:0:0:0:
225,301,68889,2,0,P|280:304|340:308,1,106.666666666667,8|0,0:1|0:1,0:0:0:0:
384,254,69351,2,0,P|387:198|391:139,1,106.666666666667,8|0,0:1|0:1,0:0:0:0:
344,88,69812,2,0,P|344:64|348:48,5,26.6666666666667,8|0|0|0|0|0,0:1|0:1|0:1|0:1|0:1|0:1,0:0:0:0:
356,24,70274,6,0,P|305:42|237:26,1,106.666666666667,8|0,0:1|0:1,0:0:0:0:
201,87,70735,2,0,P|219:138|203:206,1,106.666666666667,8|0,0:1|0:1,0:0:0:0:
288,184,71197,2,0,P|311:135|370:98,1,106.666666666667,8|0,0:1|0:1,0:0:0:0:
405,157,71659,2,0,P|381:205|322:242,1,106.666666666667,8|0,0:1|0:1,0:0:0:0:
287,289,72120,6,0,P|257:283|218:283,1,53.3333333333333,8|0,0:1|0:1,0:0:0:0:
142,338,72428,1,0,0:1:0:0:
142,338,72582,2,0,P|144:300|145:263,1,53.3333333333333,8|0,0:1|0:1,0:0:0:0:
69,209,72889,1,0,0:1:0:0:
69,209,73043,2,0,P|67:171|66:134,1,53.3333333333333,8|0,0:1|0:1,0:0:0:0:
142,79,73351,1,0,0:1:0:0:
142,79,73505,2,0,P|168:77|195:76,1,53.3333333333333,8|0,0:1|0:1,0:0:0:0:
270,151,73812,1,0,0:1:0:0:
270,151,73966,6,0,P|322:157|380:156,1,106.666666666667,2|0,0:0|0:0,0:0:0:0:
470,262,74428,2,0,P|417:255|360:257,1,106.666666666667,8|0,0:1|0:1,0:0:0:0:
246,319,74889,2,0,P|212:323|122:301,1,106.666666666667,2|0,0:0|0:0,0:0:0:0:
37,205,75351,2,0,P|71:209|161:187,1,106.666666666667,8|0,0:1|0:1,0:0:0:0:
253,127,75812,6,0,P|287:123|377:145,1,106.666666666667,2|0,0:0|0:0,0:0:0:0:
208,61,76274,2,0,P|174:65|84:43,1,106.666666666667,8|0,0:1|0:1,0:0:0:0:
31,151,76735,2,0,P|35:186|39:227,1,53.3333333333333,2|0,0:0|0:0,0:0:0:0:
28,338,77043,1,0,0:0:0:0:
190,247,77197,2,0,P|251:242|304:249,1,106.666666666667,8|0,0:1|0:1,0:0:0:0:
453,341,77659,6,0,P|392:336|339:343,1,106.666666666667,2|0,0:0|0:0,0:0:0:0:
245,317,78120,2,0,P|184:322|131:315,1,106.666666666667,8|0,0:1|0:1,0:0:0:0:
49,226,78582,2,0,P|51:168|52:120,1,106.666666666667,2|0,0:0|0:0,0:0:0:0:
136,210,79043,2,0,P|138:267|139:316,1,106.666666666667,8|0,0:1|0:1,0:0:0:0:
251,156,79505,6,0,P|257:96|247:27,1,106.666666666667,2|0,0:0|0:0,0:0:0:0:
355,181,79966,2,0,P|361:241|351:310,1,106.666666666667,8|0,0:1|0:1,0:0:0:0:
352,313,80428,6,0,P|398:300|453:298,2,80.0000030517579,2|0|0,0:0|0:0|0:0,0:0:0:0:
292,368,81197,1,0,0:0:0:0:
181,292,81351,6,0,P|115:278|55:290,1,106.666666666667,2|0,0:0|0:0,0:0:0:0:
0,158,81812,2,0,P|53:161|104:148,1,106.666666666667,8|0,0:1|0:1,0:0:0:0:
244,75,82274,2,0,P|297:70|349:84,1,106.666666666667,2|0,0:0|0:0,0:0:0:0:
356,257,82735,2,0,P|316:223|289:177,1,106.666666666667,8|0,0:1|0:1,0:0:0:0:
408,142,83197,6,0,P|462:146|526:126,1,106.666666666667,2|0,0:0|0:0,0:0:0:0:
460,266,83659,2,0,P|406:270|342:250,1,106.666666666667,8|0,0:1|0:1,0:0:0:0:
197,217,84120,2,0,P|163:215|123:221,1,53.3333333333333,2|0,0:0|0:0,0:0:0:0:
39,307,84428,1,0,0:0:0:0:
21,156,84582,2,0,P|24:106|32:39,1,106.666666666667,8|0,0:1|0:1,0:0:0:0:
206,110,85043,6,0,P|202:159|195:227,1,106.666666666667,2|0,0:0|0:0,0:0:0:0:
321,349,85505,2,0,P|317:298|309:231,1,106.666666666667,8|0,0:1|0:1,0:0:0:0:
362,134,85966,2,0,P|414:128|468:124,1,106.666666666667,2|0,0:0|0:0,0:0:0:0:
512,282,86428,2,0,P|459:276|405:272,1,106.666666666667,8|0,0:1|0:1,0:0:0:0:
256,192,86889,12,0,88274,0:0:0:0:
448,300,88735,6,0,P|409:302|352:304,1,80,6|0,0:0|0:0,0:0:0:0:
318,205,89197,2,0,P|358:207|414:209,1,80,8|0,0:0|0:0,0:0:0:0:
444,110,89658,2,0,P|405:112|348:114,1,80,2|0,0:0|0:0,0:0:0:0:
256,40,90120,1,8,0:0:0:0:
148,114,90350,1,8,3:0:0:0:
236,196,90581,6,0,P|237:236|232:284,1,80,2|0,0:0|0:0,0:0:0:0:
326,338,91043,2,0,P|325:298|330:250,1,80,8|0,0:0|0:0,0:0:0:0:
418,202,91504,2,0,P|419:242|414:290,1,80,2|0,0:0|0:0,0:0:0:0:
356,145,91966,1,8,0:0:0:0:
508,170,92197,1,8,3:0:0:0:
390,307,92428,6,0,P|349:309|298:296,1,80,2|0,0:0|0:0,0:0:0:0:
150,331,92889,2,0,P|191:329|242:342,1,80,8|0,0:0|0:0,0:0:0:0:
111,254,93351,2,0,P|70:256|19:243,1,80,2|0,0:0|0:0,0:0:0:0:
184,208,93812,1,8,0:0:0:0:
81,125,94043,1,8,3:0:0:0:
249,40,94274,6,0,P|292:40|339:53,1,80,2|0,0:0|0:0,0:0:0:0:
410,128,94735,2,0,P|368:128|320:141,1,80,8|0,0:0|0:0,0:0:0:0:
267,228,95197,2,0,P|310:228|357:241,1,80,2|0,0:0|0:0,0:0:0:0:
479,295,95658,1,8,0:0:0:0:
477,149,95889,1,8,3:0:0:0:
354,318,96120,6,0,P|312:319|264:305,1,80,2|0,0:0|0:0,0:0:0:0:
183,194,96581,2,0,P|226:195|273:181,1,80,10|0,0:0|0:0,0:0:0:0:
350,41,97043,1,2,0:0:0:0:
418,175,97274,2,0,P|416:200|410:246,1,40,0|2,0:0|0:0,0:0:0:0:
510,260,97504,2,0,P|508:236|502:189,1,40,10|0,0:0|0:0,0:0:0:0:
400,316,97735,2,0,P|425:314|471:308,1,40,8|0,3:0|0:0,0:0:0:0:
327,356,97966,5,2,0:0:0:0:
246,224,98197,1,2,0:0:0:0:
225,382,98427,1,10,0:0:0:0:
311,265,98658,1,2,0:0:0:0:
137,304,98889,1,10,0:0:0:0:
90,160,99120,2,0,P|86:138|87:108,1,40,0|2,0:0|0:0,0:0:0:0:
209,160,99350,2,0,P|202:182|186:207,1,40,10|0,0:0|0:0,0:0:0:0:
150,52,99581,2,0,P|172:60|197:76,1,40,8|0,3:0|0:0,0:0:0:0:
317,105,99812,6,0,P|365:111|425:103,1,80,2|0,0:0|0:0,0:0:0:0:
467,208,100274,2,0,P|419:214|359:206,1,80,10|0,0:0|0:0,0:0:0:0:
315,338,100735,1,2,0:0:0:0:
257,205,100966,2,0,P|255:180|267:148,1,40,0|2,0:0|0:0,0:0:0:0:
181,261,101197,2,0,P|156:259|124:271,1,40,10|0,0:0|0:0,0:0:0:0:
164,151,101427,2,0,P|154:129|127:107,1,40,8|0,3:0|0:0,0:0:0:0:
256,192,101659,12,4,103505,0:0:0:0:
