osu file format v14

[General]
AudioFilename: audio.mp3
AudioLeadIn: 0
PreviewTime: 27697
Countdown: 0
SampleSet: Soft
StackLeniency: 0.7
Mode: 0
LetterboxInBreaks: 0
WidescreenStoryboard: 0

[Editor]
Bookmarks: 120,7505,14889,22274,25966,27812,29659,37043,44428,48120,51812,59197,62889,66582,73966,81351,88735,96120,103505
DistanceSpacing: 1
BeatDivisor: 4
GridSize: 4
TimelineZoom: 1.5

[Metadata]
Title:NIKOLAY (feat. Nikolay Sobolev)
TitleUnicode:НИКОЛАЙ (feat. Николай Соболев)
Artist:55x55
ArtistUnicode:55x55
Creator:Imakuri
Version:KOJIbKA NORMAL
Source:
Tags:marvollo m_a_r_v_o_l_l_o shmiklak russian русский ракамакафо armin and a_r_m_i_n vanucik
BeatmapID:1377780
BeatmapSetID:650120

[Difficulty]
HPDrainRate:4
CircleSize:3.8
OverallDifficulty:4
ApproachRate:5
SliderMultiplier:1.1
SliderTickRate:1

[Events]
//Background and Video events
0,0,"NIKOLAYYLMAO.jpg",0,0
//Break Periods
2,44628,46920
2,63089,65382
//Storyboard Layer 0 (Background)
//Storyboard Layer 1 (Fail)
//Storyboard Layer 2 (Pass)
//Storyboard Layer 3 (Foreground)
//Storyboard Sound Samples

[TimingPoints]
120,461.538461538462,4,2,1,80,1,0
29658,-100,4,2,1,80,0,1
35196,-100,4,2,1,80,0,0
37043,-100,4,2,1,80,0,1
42581,-100,4,2,1,80,0,0
73966,-100,4,2,1,80,0,1
80427,-100,4,2,1,80,0,0
81350,-100,4,2,1,80,0,1
86889,-100,4,2,1,80,0,0
88735,-100,4,2,1,80,0,0

[Colours]
Combo1 : 183,136,181
Combo2 : 224,208,158
SliderTrackOverride : 218,218,218

[HitObjects]
59,73,120,6,0,P|121:58|176:77,1,110,6|8,0:0|0:0,0:0:0:0:
246,116,1043,2,0,P|302:133|355:116,1,110,2|8,0:0|0:0,0:0:0:0:
389,93,1735,1,8,3:0:0:0:
428,119,1966,2,0,L|425:232,1,110,2|8,0:0|0:0,0:0:0:0:
374,307,2889,2,0,B|320:324|320:324|256:311,1,110,2|8,0:0|0:0,0:0:0:0:
222,302,3582,1,8,3:0:0:0:
177,312,3812,6,0,B|119:323|119:323|57:309,1,110,2|8,0:0|0:0,0:0:0:0:
13,237,4735,2,0,P|4:179|19:113,1,110,2|8,0:0|0:0,0:0:0:0:
29,85,5428,1,8,3:0:0:0:
70,63,5659,2,0,L|189:60,1,110,2|8,0:0|0:0,0:0:0:0:
274,57,6582,2,0,P|316:62|384:98,1,110,2|8,0:0|0:0,0:0:0:0:
411,123,7274,1,8,3:0:0:0:
432,165,7505,6,0,L|424:280,1,110,2|10,0:0|0:0,0:0:0:0:
364,348,8428,2,0,P|308:360|252:348,1,110,2|10,0:0|0:0,0:0:0:0:
221,320,9120,1,8,3:0:0:0:
185,290,9351,2,0,P|141:278|78:290,1,110,2|10,0:0|0:0,0:0:0:0:
17,219,10274,2,0,P|30:158|19:103,1,110,10|10,0:0|0:0,0:0:0:0:
20,65,10966,1,8,3:0:0:0:
57,36,11197,6,0,L|180:44,1,110,2|10,0:0|0:0,0:0:0:0:
238,105,12120,2,0,L|351:96,1,110,2|10,0:0|0:0,0:0:0:0:
392,111,12812,1,8,3:0:0:0:
421,148,13043,2,0,P|433:181|416:270,1,110,4|4,3:0|3:0,0:0:0:0:
353,315,13966,1,4,3:0:0:0:
274,264,14428,1,2,3:2:0:0:
196,316,14889,6,0,L|76:320,1,110,2|8,0:0|0:0,0:0:0:0:
42,303,15582,1,0,0:0:0:0:
15,265,15812,2,0,P|7:208|20:142,1,110,2|8,0:0|0:0,0:0:0:0:
88,98,16735,6,0,L|211:104,1,110,2|8,0:0|0:0,0:0:0:0:
238,188,17659,2,0,L|352:183,1,110,2|8,0:0|0:0,0:0:0:0:
415,119,18582,6,0,P|405:163|427:240,1,110,2|8,0:0|0:0,0:0:0:0:
443,266,19274,1,0,0:0:0:0:
427,310,19505,2,0,L|303:315,1,110,2|8,0:0|0:0,0:0:0:0:
230,279,20428,6,0,L|115:277,2,110,2|8|2,0:0|0:0|0:0,0:0:0:0:
268,252,21582,1,0,0:0:0:0:
305,224,21812,2,0,L|361:220,1,55,8|0,0:0|0:0,0:0:0:0:
397,191,22274,6,0,P|406:156|392:74,1,110,8|8,0:1|0:1,0:0:0:0:
376,41,22966,1,0,0:1:0:0:
329,39,23197,2,0,L|271:42,1,55,8|0,0:1|0:1,0:0:0:0:
227,42,23659,1,8,0:1:0:0:
152,97,24120,6,0,P|143:137|150:207,1,110,8|8,0:1|0:1,0:0:0:0:
174,245,24812,1,0,0:1:0:0:
220,256,25043,2,0,L|278:251,1,55,8|0,0:1|0:1,0:0:0:0:
309,219,25505,2,0,L|375:223,1,55,8|0,0:1|0:1,0:0:0:0:
256,192,25966,12,0,27812,0:0:0:0:
56,53,29659,6,0,P|48:93|56:164,1,110,2|8,0:0|0:0,0:0:0:0:
77,203,30351,1,0,0:0:0:0:
58,246,30582,2,0,L|0:252,2,55,2|0|8,0:0|0:0|0:0,0:0:0:0:
152,247,31505,6,0,L|264:251,1,110,2|8,0:0|0:0,0:0:0:0:
309,255,32197,1,0,0:0:0:0:
356,255,32428,2,0,L|425:245,1,55,2|0,0:0|0:0,0:0:0:0:
447,218,32889,2,0,P|452:183|444:149,1,55,8|0,0:0|0:0,0:0:0:0:
431,120,33351,6,0,L|314:114,1,110,2|8,0:0|0:0,0:0:0:0:
275,111,34043,1,0,0:0:0:0:
228,105,34274,2,0,L|224:46,2,55,2|0|8,0:0|0:0|0:0,0:0:0:0:
157,166,35197,6,0,P|128:124|105:54,2,110,2|2|2,3:0|3:0|3:0,0:0:0:0:
189,201,36351,1,2,3:0:0:0:
225,337,37043,6,0,B|285:337|285:337|337:307,1,110,2|8,0:0|0:0,0:0:0:0:
360,278,37735,1,0,0:0:0:0:
400,303,37966,2,0,L|405:359,2,55,2|0|8,0:0|0:0|0:0,0:0:0:0:
410,210,38889,6,0,P|421:158|411:97,1,110,2|8,0:0|0:0,0:0:0:0:
391,61,39582,1,0,0:0:0:0:
346,49,39812,2,0,L|281:52,1,55,2|0,0:0|0:0,0:0:0:0:
253,79,40274,2,0,L|193:74,1,55,8|0,0:0|0:0,0:0:0:0:
155,92,40735,6,0,P|143:127|156:205,1,110,2|8,0:0|0:0,0:0:0:0:
176,239,41428,1,0,0:0:0:0:
156,282,41659,2,0,L|88:288,2,55,2|0|8,0:0|0:0|0:0,0:0:0:0:
249,279,42582,6,0,P|310:290|374:272,1,110,2|8,0:0|0:0,0:0:0:0:
398,259,43274,1,0,0:0:0:0:
431,226,43505,2,0,L|423:147,1,55,2|0,0:0|0:0,0:0:0:0:
398,133,43966,2,0,L|399:72,1,55,8|0,0:0|3:0,0:0:0:0:
403,31,44428,5,6,0:0:0:0:
55,244,48120,6,0,L|174:235,1,110,2|8,0:0|0:0,0:0:0:0:
200,266,48812,1,0,0:0:0:0:
234,298,49043,2,0,L|354:305,1,110,2|8,0:0|0:0,0:0:0:0:
432,273,49966,6,0,P|439:216|432:152,1,110,2|8,0:0|0:0,0:0:0:0:
417,120,50659,1,0,0:0:0:0:
380,92,50889,2,0,L|316:98,1,55,2|0,0:0|0:0,0:0:0:0:
282,79,51351,2,0,L|208:75,1,55,8|0,0:0|0:0,0:0:0:0:
194,110,51812,6,0,L|72:115,1,110,2|8,0:0|0:0,0:0:0:0:
44,139,52505,1,0,0:0:0:0:
14,175,52735,2,0,P|4:234|23:299,1,110,2|8,0:0|0:0,0:0:0:0:
84,346,53659,6,0,P|138:362|191:347,2,110,2|8|2,0:0|0:0|0:0,0:0:0:0:
96,301,54812,1,0,0:0:0:0:
132,271,55043,2,0,L|200:272,1,55,8|0,0:0|0:0,0:0:0:0:
234,275,55505,6,0,L|346:275,1,110,2|8,0:0|0:0,0:0:0:0:
387,257,56197,1,0,0:0:0:0:
409,216,56428,2,0,P|420:165|404:100,1,110,2|8,0:0|0:0,0:0:0:0:
349,37,57351,5,2,0:0:0:0:
302,37,57582,1,0,0:0:0:0:
255,38,57812,2,0,L|192:39,1,55,8|0,0:0|0:0,0:0:0:0:
165,70,58274,2,0,P|171:125|156:195,1,110,2|8,0:0|0:0,0:0:0:0:
102,251,59197,6,0,L|233:258,1,110,2|8,0:0|0:0,0:0:0:0:
259,260,59889,1,0,0:0:0:0:
289,296,60120,2,0,L|293:360,2,55,2|0|8,0:0|0:0|0:0,0:0:0:0:
376,263,61043,6,0,L|442:270,2,55,2|0|8,0:0|0:0|0:0,0:0:0:0:
348,225,61735,1,0,0:0:0:0:
373,185,61966,2,0,L|366:129,1,55,2|0,0:0|0:0,0:0:0:0:
326,106,62428,2,0,L|335:48,1,55,8|0,0:0|0:0,0:0:0:0:
344,6,62889,1,6,0:0:0:0:
49,54,66582,6,0,P|86:80|161:84,1,110,8|8,0:1|0:1,0:0:0:0:
229,38,67505,2,0,L|349:48,1,110,8|8,0:1|0:1,0:0:0:0:
385,128,68428,2,0,L|271:137,1,110,8|8,0:1|0:1,0:0:0:0:
199,191,69351,1,8,0:1:0:0:
270,251,69812,1,8,0:1:0:0:
201,314,70274,6,0,L|86:320,1,110,8|8,0:1|0:1,0:0:0:0:
18,262,71197,2,0,P|7:194|22:145,1,110,8|8,0:1|0:1,0:0:0:0:
72,79,72120,2,0,B|126:65|126:65|199:82,1,110,8|8,0:1|0:1,0:0:0:0:
264,115,73043,1,8,0:1:0:0:
210,191,73505,1,8,0:1:0:0:
261,269,73966,6,0,L|388:263,1,110,2|8,0:0|0:1,0:0:0:0:
454,220,74889,2,0,P|460:165|451:103,1,110,2|8,0:0|0:1,0:0:0:0:
399,35,75812,2,0,B|344:22|344:22|282:36,1,110,2|8,0:0|0:1,0:0:0:0:
202,61,76735,1,2,0:0:0:0:
113,32,77197,1,8,0:1:0:0:
26,67,77659,6,0,P|16:99|26:179,1,110,2|8,0:0|0:1,0:0:0:0:
82,247,78582,2,0,L|203:256,1,110,2|8,0:0|0:1,0:0:0:0:
275,212,79505,2,0,P|289:163|277:90,1,110,2|8,0:0|0:1,0:0:0:0:
243,20,80428,1,2,0:0:0:0:
336,32,80889,1,0,0:0:0:0:
429,43,81351,6,0,P|414:89|434:152,1,110,2|8,0:0|0:1,0:0:0:0:
490,219,82274,2,0,P|506:275|492:327,1,110,2|8,0:0|0:1,0:0:0:0:
407,360,83197,2,0,L|283:366,1,110,2|8,0:0|0:1,0:0:0:0:
218,315,84120,1,2,0:0:0:0:
282,246,84582,1,8,0:1:0:0:
352,184,85043,6,0,P|362:142|352:62,1,110,2|8,0:0|0:1,0:0:0:0:
284,16,85966,2,0,L|169:25,1,110,2|8,0:0|0:1,0:0:0:0:
104,87,86889,6,0,P|93:142|105:197,1,110,0|0,0:0|0:0,0:0:0:0:
161,268,87812,1,0,0:0:0:0:
223,338,88274,1,0,0:0:0:0:
286,269,88735,6,0,L|415:263,1,110,6|8,0:0|0:0,0:0:0:0:
441,182,89659,2,0,L|325:176,1,110,2|8,0:0|0:0,0:0:0:0:
285,168,90351,1,8,3:0:0:0:
252,135,90582,2,0,P|241:80|252:20,1,110,2|8,0:0|0:0,0:0:0:0:
156,26,91505,2,0,P|169:83|154:148,1,110,2|8,0:0|0:0,0:0:0:0:
130,169,92197,1,8,3:0:0:0:
111,212,92428,6,0,P|98:252|113:321,1,110,2|8,0:0|0:0,0:0:0:0:
191,365,93351,2,0,L|310:360,1,110,2|8,0:0|0:0,0:0:0:0:
339,333,94043,1,8,3:0:0:0:
330,287,94274,2,0,P|320:234|334:164,1,110,2|8,0:0|0:0,0:0:0:0:
381,102,95197,2,0,L|261:108,1,110,2|8,0:0|0:0,0:0:0:0:
233,80,95889,1,8,3:0:0:0:
201,46,96120,6,0,L|87:52,1,110,2|10,0:0|0:0,0:0:0:0:
15,107,97043,2,0,P|8:146|16:223,1,110,2|10,0:0|0:0,0:0:0:0:
29,260,97735,1,8,3:0:0:0:
63,292,97966,2,0,L|188:287,1,110,2|10,0:0|0:0,0:0:0:0:
244,227,98889,2,0,L|363:234,1,110,10|10,0:0|0:0,0:0:0:0:
398,217,99582,1,8,3:0:0:0:
428,181,99812,6,0,P|441:124|426:64,1,110,2|10,0:0|0:0,0:0:0:0:
358,15,100735,2,0,L|245:21,1,110,2|10,0:0|0:0,0:0:0:0:
213,52,101428,1,8,3:0:0:0:
179,84,101659,2,0,L|66:91,1,110,0|10,0:0|0:0,0:0:0:0:
32,120,102351,1,2,0:0:0:0:
13,163,102582,2,0,P|7:208|16:279,1,110,2|10,0:0|0:0,0:0:0:0:
70,347,103504,5,4,0:0:0:0:
