osu file format v14

[General]
AudioFilename: audio.mp3
AudioLeadIn: 0
PreviewTime: 27697
Countdown: 0
SampleSet: Soft
StackLeniency: 0.7
Mode: 0
LetterboxInBreaks: 0
WidescreenStoryboard: 0

[Editor]
Bookmarks: 120,7505,14889,22274,27812,29659,37043,37504,44428,48120,62889,66582,73966,81351,88735,96120,103505
DistanceSpacing: 0.7
BeatDivisor: 3
GridSize: 4
TimelineZoom: 1.2

[Metadata]
Title:NIKOLAY (feat. Nikolay Sobolev)
TitleUnicode:НИКОЛАЙ (feat. Николай Соболев)
Artist:55x55
ArtistUnicode:55x55
Creator:Imakuri
Version:vanucik's KOJIbKA INSANE
Source:
Tags:marvollo m_a_r_v_o_l_l_o shmiklak russian русский ракамакафо armin and a_r_m_i_n vanucik
BeatmapID:1379821
BeatmapSetID:650120

[Difficulty]
HPDrainRate:7
CircleSize:3.4
OverallDifficulty:8
ApproachRate:8.2
SliderMultiplier:2
SliderTickRate:1

[Events]
//Background and Video events
0,0,"NIKOLAYYLMAO.jpg",0,0
//Break Periods
2,44627,47400
2,63089,65861
//Storyboard Layer 0 (Background)
//Storyboard Layer 1 (Fail)
//Storyboard Layer 2 (Pass)
//Storyboard Layer 3 (Foreground)
//Storyboard Sound Samples

[TimingPoints]
120,461.538461538462,4,2,1,80,1,0
13043,-40,4,2,1,80,0,0
14427,-200,4,2,1,80,0,0
14773,-200,4,2,1,80,0,0
14889,-90.9090909090909,4,2,1,80,0,0
27812,-200,4,2,1,80,0,0
29658,-66.6666666666667,4,2,1,80,0,1
35081,-66.6666666666667,4,2,1,80,0,1
35196,-100,4,2,1,80,0,0
37043,-66.6666666666667,4,2,1,80,0,1
42581,-100,4,2,1,80,0,0
48120,-71.4285714285714,4,2,1,80,0,0
66581,-83.3333333333333,4,2,1,80,0,0
73966,-71.4285714285714,4,2,1,80,0,1
80427,-133.333333333333,4,2,1,80,0,0
81350,-58.8235294117647,4,2,1,80,0,1
86889,-100,4,2,1,80,0,0
88735,-71.4285714285714,4,2,1,80,0,0
101658,-71.4285714285714,4,2,1,80,0,0
101889,-71.4285714285714,4,2,1,80,0,0

[Colours]
Combo1 : 183,136,181
Combo2 : 224,208,158
SliderTrackOverride : 218,218,218

[HitObjects]
204,111,120,6,0,L|327:105,1,100,6|0,0:0|0:0,0:0:0:0:
403,101,581,2,0,L|303:105,1,100,8|0,0:0|0:0,0:0:0:0:
104,115,1043,2,0,L|203:110,1,100,2|0,0:0|0:0,0:0:0:0:
403,101,1504,1,8,0:0:0:0:
204,13,1735,1,8,3:0:0:0:
257,238,1966,6,0,L|245:348,1,100,2|0,0:0|0:0,0:0:0:0:
395,208,2427,2,0,L|382:317,1,100,8|0,0:0|0:0,0:0:0:0:
269,138,2889,2,0,L|255:245,1,100,2|0,0:0|0:0,0:0:0:0:
403,101,3350,1,8,0:0:0:0:
166,63,3581,1,8,3:0:0:0:
98,233,3812,6,0,P|155:240|204:224,1,100,2|0,0:0|0:0,0:0:0:0:
322,125,4273,2,0,P|265:118|216:134,1,100,8|0,0:0|0:0,0:0:0:0:
74,268,4735,2,0,P|131:275|180:259,1,100,2|0,0:0|0:0,0:0:0:0:
310,161,5196,1,8,0:0:0:0:
112,151,5427,1,8,3:0:0:0:
228,342,5658,6,0,L|348:339,1,100,2|0,0:0|0:0,0:0:0:0:
129,260,6120,2,0,L|9:263,1,100,8|0,0:0|0:0,0:0:0:0:
292,215,6581,2,0,L|412:212,1,100,2|0,0:0|0:0,0:0:0:0:
193,133,7043,1,8,0:0:0:0:
401,306,7273,1,8,3:0:0:0:
376,116,7504,6,0,P|374:62|388:14,1,100,2|0,0:0|0:0,0:0:0:0:
308,234,7966,2,0,P|277:178|277:133,1,100,10|0,0:0|0:0,0:0:0:0:
259,363,8427,2,0,P|214:318|204:275,1,100,2|0,0:0|0:0,0:0:0:0:
109,292,8773,2,0,P|170:275|212:288,1,100,0|0,0:0|0:0,0:0:0:0:
276,215,9120,1,8,3:0:0:0:
130,123,9350,5,2,0:0:0:0:
277,101,9581,1,2,0:0:0:0:
42,202,9812,1,10,0:0:0:0:
56,41,10043,1,2,0:0:0:0:
197,255,10273,2,0,P|199:307|178:361,1,100,10|0,0:0|0:0,0:0:0:0:
197,255,10620,2,0,P|150:230|114:185,1,100,2|0,0:0|0:0,0:0:0:0:
286,211,10966,1,8,3:0:0:0:
108,304,11196,6,0,P|48:313|7:302,1,100,2|0,0:0|0:0,0:0:0:0:
259,305,11658,2,0,P|212:356|166:365,1,100,10|0,0:0|0:0,0:0:0:0:
386,182,12120,2,0,P|386:250|366:290,1,100,2|0,0:0|0:0,0:0:0:0:
295,215,12466,2,0,P|236:181|211:143,1,100,2|0,0:0|0:0,0:0:0:0:
309,121,12812,1,8,3:0:0:0:
421,338,13043,6,0,B|356:363|356:363|291:320|291:320|220:342|220:342|141:295|48:331,1,375,4|0,3:0|0:0,0:0:0:0:
52,210,13504,2,0,B|112:189|112:189|166:217|166:217|236:168|315:204|315:204|349:161|407:161,1,375,4|0,3:0|0:0,0:0:0:0:
399,264,13966,2,0,P|297:191|448:69,1,375,4|0,3:0|0:0,0:0:0:0:
494,127,14427,6,0,L|485:207,1,75,2|0,3:2|0:0,0:0:0:0:
399,264,14889,6,0,P|346:244|289:241,1,110.000003356934,2|0,0:0|0:0,0:0:0:0:
155,288,15350,1,8,0:0:0:0:
180,157,15581,1,0,0:0:0:0:
293,240,15812,2,0,B|308:292|308:292|282:342,1,110.000003356934,2|0,0:0|0:0,0:0:0:0:
49,194,16273,2,0,B|34:142|34:142|60:92,1,110.000003356934,8|0,0:0|0:0,0:0:0:0:
297,68,16735,5,2,0:0:0:0:
239,176,16966,1,0,0:0:0:0:
176,24,17196,1,8,0:0:0:0:
320,58,17427,1,0,0:0:0:0:
140,130,17658,1,2,0:0:0:0:
343,187,17889,1,0,0:0:0:0:
151,270,18120,2,0,P|91:284|24:264,1,110.000003356934,8|0,0:0|0:0,0:0:0:0:
227,296,18581,6,0,P|283:282|355:304,1,110.000003356934,2|0,0:0|0:0,0:0:0:0:
432,312,18927,1,0,0:0:0:0:
432,312,19043,2,0,P|438:257|421:206,1,110.000003356934,8|0,0:0|0:0,0:0:0:0:
314,118,19504,1,2,0:0:0:0:
223,212,19735,1,0,0:0:0:0:
115,134,19966,2,0,B|93:85|93:85|116:18,1,110.000003356934,8|0,0:0|0:0,0:0:0:0:
314,118,20427,6,0,B|336:167|336:167|313:234,1,110.000003356934,2|0,0:0|0:0,0:0:0:0:
280,311,20773,1,0,0:0:0:0:
280,311,20889,2,0,P|325:304|395:318,1,110.000003356934,8|0,0:0|0:0,0:0:0:0:
192,362,21350,1,2,0:0:0:0:
378,226,21581,1,0,0:0:0:0:
135,257,21812,2,0,P|72:238|10:236,1,110.000003356934,8|0,0:0|0:0,0:0:0:0:
221,85,22273,5,8,0:1:0:0:
242,185,22504,1,0,0:1:0:0:
329,112,22735,1,8,0:1:0:0:
256,195,22966,1,0,0:1:0:0:
387,200,23196,1,8,0:1:0:0:
269,207,23427,1,0,0:1:0:0:
369,304,23658,1,8,0:1:0:0:
274,222,23889,1,0,0:1:0:0:
224,341,24120,5,8,0:1:0:0:
385,299,24350,1,0,0:1:0:0:
249,139,24581,1,8,0:1:0:0:
387,190,24812,1,0,0:1:0:0:
213,346,25043,1,8,0:1:0:0:
396,308,25273,1,0,0:1:0:0:
233,127,25504,1,8,0:1:0:0:
404,183,25735,1,0,0:1:0:0:
169,248,25966,5,8,0:1:0:0:
328,75,26196,1,8,0:1:0:0:
312,312,26427,1,8,0:1:0:0:
184,102,26658,1,8,0:1:0:0:
421,188,26889,1,8,0:1:0:0:
78,238,27120,1,8,0:1:0:0:
419,362,27350,1,8,0:1:0:0:
335,57,27581,1,8,0:1:0:0:
235,158,27812,6,0,B|167:207|89:178|114:99|3:138|-2:210|51:250|89:235,1,300,0|0,0:0|0:0,0:0:0:0:
176,95,29427,1,0,0:0:0:0:
405,223,29658,6,0,P|433:294|404:373,1,150.000005722046,2|0,0:0|0:0,0:0:0:0:
328,298,30004,1,0,0:0:0:0:
328,298,30120,2,0,P|300:227|331:148,1,150.000005722046,8|0,0:0|0:0,0:0:0:0:
485,184,30581,1,2,0:0:0:0:
214,242,30812,1,0,0:0:0:0:
320,27,31043,2,0,L|355:183,1,150.000005722046,8|0,0:0|0:0,0:0:0:0:
213,361,31504,6,0,L|180:207,1,150.000005722046,2|0,0:0|0:0,0:0:0:0:
164,137,31850,1,0,0:0:0:0:
164,137,31966,1,8,0:0:0:0:
81,305,32196,1,0,0:0:0:0:
303,255,32427,1,2,0:0:0:0:
175,224,32658,1,0,0:0:0:0:
346,369,32889,1,8,0:0:0:0:
263,144,33120,1,0,0:0:0:0:
81,305,33350,6,0,P|48:246|73:160,1,150.000005722046,2|0,0:0|0:0,0:0:0:0:
154,230,33696,1,0,0:0:0:0:
154,230,33812,2,0,P|187:289|162:378,1,150.000005722046,8|0,0:0|0:0,0:0:0:0:
100,90,34273,1,2,0:0:0:0:
285,178,34504,1,0,0:0:0:0:
252,9,34735,2,0,B|155:74|252:120|149:198,1,225.000008583069,8|0,0:0|0:0,0:0:0:0:
79,221,35196,6,0,P|147:225|185:246,1,100,2|0,3:0|0:0,0:0:0:0:
316,297,35658,2,0,P|248:301|207:324,1,100,2|0,3:0|0:0,0:0:0:0:
361,192,36120,1,2,3:0:0:0:
439,331,36350,1,2,3:0:0:0:
200,194,36696,1,2,3:0:0:0:
340,88,36927,2,0,P|361:82|370:80,1,25,2|0,3:0|0:0,0:0:0:0:
334,106,37043,6,0,P|268:127|182:92,1,150.000005722046,2|0,0:0|0:0,0:0:0:0:
266,14,37389,1,0,0:0:0:0:
266,14,37504,2,0,P|332:-8|418:28,1,150.000005722046,8|0,0:0|0:0,0:0:0:0:
343,223,37966,1,2,0:0:0:0:
202,107,38196,1,0,0:0:0:0:
466,102,38427,2,0,B|503:168|503:168|473:246,1,150.000005722046,8|0,0:0|0:0,0:0:0:0:
238,363,38889,6,0,B|203:300|203:300|228:226,1,150.000005722046,2|0,0:0|0:0,0:0:0:0:
257,148,39235,1,0,0:0:0:0:
257,148,39350,1,8,0:0:0:0:
325,314,39581,1,0,0:0:0:0:
103,240,39812,1,2,0:0:0:0:
354,205,40043,1,0,0:0:0:0:
84,65,40273,1,8,0:0:0:0:
291,93,40504,1,0,0:0:0:0:
153,334,40735,6,0,P|85:346|7:282,1,150.000005722046,2|0,0:0|0:0,0:0:0:0:
103,253,41081,1,0,0:0:0:0:
103,253,41196,2,0,P|171:241|248:302,1,150.000005722046,8|0,0:0|0:0,0:0:0:0:
16,151,41658,1,2,0:0:0:0:
166,86,41889,1,0,0:0:0:0:
298,208,42120,2,0,B|336:271|336:271|305:353,1,150.000005722046,8|0,0:0|0:0,0:0:0:0:
256,192,42581,12,8,43966,0:0:0:0:
110,238,44196,5,0,3:0:0:0:
420,165,44427,1,6,0:0:0:0:
231,265,48120,6,0,B|222:215|222:215|208:205|208:205|217:190|217:190|207:125,1,139.999995727539,2|0,0:0|0:0,0:0:0:0:
329,178,48466,1,0,0:0:0:0:
329,178,48581,2,0,P|364:240|347:314,1,139.999995727539,8|0,0:0|0:0,0:0:0:0:
136,347,49043,2,0,P|101:285|118:211,1,139.999995727539,2|0,0:0|0:0,0:0:0:0:
306,51,49504,2,0,P|341:113|324:187,1,139.999995727539,8|0,0:0|0:0,0:0:0:0:
246,228,49850,1,0,0:0:0:0:
246,228,49966,6,0,P|183:198|98:207,1,139.999995727539,2|0,0:0|0:0,0:0:0:0:
42,252,50312,1,0,0:0:0:0:
42,252,50427,1,8,0:0:0:0:
329,178,50658,2,0,P|344:210|348:263,1,69.9999978637696,0|0,0:0|0:0,0:0:0:0:
378,327,50889,2,0,P|432:251|413:192,1,139.999995727539,2|0,0:0|0:0,0:0:0:0:
390,111,51235,1,0,0:0:0:0:
390,111,51350,2,0,B|325:88|325:88|255:120,1,139.999995727539,8|0,0:0|0:0,0:0:0:0:
67,198,51812,6,0,P|142:187|220:207,1,139.999995727539,2|0,0:0|0:0,0:0:0:0:
391,320,52273,2,0,P|286:300|228:308,1,139.999995727539,8|0,0:0|0:0,0:0:0:0:
158,333,52620,1,0,0:0:0:0:
158,333,52735,2,0,L|150:177,1,139.999995727539,2|0,0:0|0:0,0:0:0:0:
148,104,53081,1,0,0:0:0:0:
148,104,53196,1,8,0:0:0:0:
37,157,53427,1,0,0:0:0:0:
263,144,53658,6,0,P|338:134|406:154,1,139.999995727539,2|0,0:0|0:0,0:0:0:0:
237,52,54120,1,8,0:0:0:0:
177,215,54350,1,0,0:0:0:0:
399,150,54581,2,0,P|426:79|404:18,1,139.999995727539,2|0,0:0|0:0,0:0:0:0:
328,80,54927,1,0,0:0:0:0:
328,80,55043,1,8,0:0:0:0:
498,164,55273,1,0,0:0:0:0:
321,241,55504,6,0,P|263:216|176:215,1,139.999995727539,2|0,0:0|0:0,0:0:0:0:
373,350,55966,1,8,0:0:0:0:
451,256,56196,1,0,0:0:0:0:
236,342,56427,2,0,P|146:346|81:309,1,139.999995727539,2|0,0:0|0:0,0:0:0:0:
288,128,56889,1,8,0:0:0:0:
288,128,57350,6,0,P|217:109|138:139,1,139.999995727539,2|0,0:0|0:0,0:0:0:0:
410,122,57812,2,0,P|381:54|315:24,1,139.999995727539,8|0,0:0|0:0,0:0:0:0:
220,228,58273,1,2,0:0:0:0:
360,229,58504,1,0,0:0:0:0:
198,108,58735,2,0,B|130:87|130:87|56:132,1,139.999995727539,8|0,0:0|0:0,0:0:0:0:
88,329,59196,6,0,P|159:354|229:329,1,139.999995727539,2|0,0:0|0:0,0:0:0:0:
343,205,59658,2,0,P|404:182|483:204,1,139.999995727539,8|0,0:0|0:0,0:0:0:0:
415,294,60004,1,0,0:0:0:0:
415,294,60120,2,0,B|344:313|344:313|278:264,1,139.999995727539,2|0,0:0|0:0,0:0:0:0:
218,184,60466,1,0,0:0:0:0:
218,184,60581,2,0,B|289:165|289:165|355:214,1,139.999995727539,8|0,0:0|0:0,0:0:0:0:
256,192,61043,12,8,62427,0:0:0:0:
347,88,62889,5,6,0:0:0:0:
347,88,66581,6,0,P|279:133|186:111,1,159.999995117188,8|0,0:1|0:1,0:0:0:0:
99,59,67043,2,0,P|104:137|107:226,1,159.999995117188,8|0,0:1|0:1,0:0:0:0:
204,326,67504,2,0,P|209:247|212:159,1,159.999995117188,8|0,0:1|0:1,0:0:0:0:
211,32,67966,1,8,0:1:0:0:
436,273,68427,6,0,P|358:307|282:280,1,159.999995117188,8|0,0:1|0:1,0:0:0:0:
275,143,68889,2,0,P|353:109|429:136,1,159.999995117188,8|0,0:1|0:1,0:0:0:0:
355,206,69350,1,8,0:1:0:0:
97,216,69658,1,0,0:1:0:0:
162,139,69812,2,0,P|175:67|113:-8,1,159.999995117188,8|0,0:1|0:1,0:0:0:0:
76,87,70273,6,0,B|148:46|148:46|225:70,1,159.999995117188,8|0,0:1|0:1,0:0:0:0:
242,197,70735,2,0,B|170:238|170:238|93:214,1,159.999995117188,8|0,0:1|0:1,0:0:0:0:
330,148,71196,2,0,B|401:189|401:189|419:268,1,159.999995117188,8|0,0:1|0:1,0:0:0:0:
245,100,71658,1,8,0:1:0:0:
245,100,72120,5,8,0:1:0:0:
167,163,72427,5,0,0:1:0:0:
246,89,72581,1,8,0:1:0:0:
311,173,72889,5,0,0:1:0:0:
247,78,73043,1,8,0:1:0:0:
234,228,73350,5,0,0:1:0:0:
248,66,73504,1,8,0:1:0:0:
249,56,73812,5,0,0:1:0:0:
233,240,73966,6,0,P|277:315|381:321,1,186.666660970052,2|0,0:0|0:0,0:0:0:0:
336,157,74427,2,0,P|232:142|144:143,1,186.666660970052,8|0,0:1|0:1,0:0:0:0:
47,251,74889,2,0,P|152:253|237:246,1,186.666660970052,2|0,0:0|0:0,0:0:0:0:
398,224,75350,1,8,0:1:0:0:
175,87,75658,1,0,0:1:0:0:
175,87,75812,6,0,P|134:172|174:262,1,186.666660970052,2|0,0:0|0:0,0:0:0:0:
253,173,76273,2,0,P|293:91|251:-5,1,186.666660970052,8|0,0:1|0:1,0:0:0:0:
390,121,76735,1,2,0:0:0:0:
222,337,77043,1,0,0:0:0:0:
222,337,77196,2,0,P|158:336|81:309,1,93.3333304850261,8|0,0:1|0:0,0:0:0:0:
45,244,77504,1,0,0:1:0:0:
184,200,77658,6,0,P|197:125|209:13,1,186.666660970052,2|0,0:0|0:0,0:0:0:0:
346,100,78120,2,0,P|342:204|344:289,1,186.666660970052,8|0,0:1|0:1,0:0:0:0:
428,221,78581,2,0,P|339:180|250:234,1,186.666660970052,2|0,0:0|0:0,0:0:0:0:
197,354,79043,1,8,0:1:0:0:
42,206,79350,1,0,0:1:0:0:
42,206,79504,6,0,P|41:101|29:9,1,186.666660970052,2|0,0:0|0:0,0:0:0:0:
182,70,79966,2,0,P|177:130|158:207,1,93.3333304850261,8|0,0:1|0:0,0:0:0:0:
120,268,80273,1,0,0:1:0:0:
256,192,80427,12,0,81196,0:0:0:0:
379,123,81350,6,0,B|448:102|448:102|410:278,1,226.66667098999,2|0,0:0|0:0,0:0:0:0:
293,180,81812,2,0,P|282:79|395:23,1,226.66667098999,8|0,0:1|0:1,0:0:0:0:
189,103,82273,2,0,B|156:103|130:78|130:78|175:165|138:242,1,226.66667098999,2|0,0:0|0:0,0:0:0:0:
71,322,82735,1,8,0:1:0:0:
401,313,83043,1,0,0:1:0:0:
401,313,83196,6,0,B|458:217|458:217|380:95,1,226.66667098999,2|0,0:0|0:0,0:0:0:0:
217,123,83658,2,0,B|160:219|160:219|238:341,1,226.66667098999,8|0,0:1|0:1,0:0:0:0:
308,226,84120,2,0,L|304:-10,1,226.66667098999,2|0,0:0|0:0,0:0:0:0:
399,58,84581,1,8,0:1:0:0:
117,98,84889,1,0,0:1:0:0:
170,11,85043,6,0,P|219:81|133:198,1,226.66667098999,2|0,0:0|0:0,0:0:0:0:
28,276,85504,2,0,P|115:265|223:364,1,226.66667098999,8|0,0:1|0:1,0:0:0:0:
333,365,85966,2,0,P|314:256|292:115,1,226.66667098999,2|0,0:0|0:0,0:0:0:0:
385,51,86427,1,8,0:1:0:0:
200,240,86735,1,0,0:1:0:0:
128,166,86889,5,0,0:0:0:0:
410,158,87196,1,0,0:0:0:0:
410,158,87350,1,0,0:0:0:0:
181,58,87658,1,0,0:0:0:0:
181,58,87812,1,0,0:0:0:0:
263,120,88120,1,0,0:0:0:0:
263,120,88273,1,0,0:0:0:0:
325,44,88581,1,0,0:0:0:0:
403,171,88735,6,0,L|391:334,1,139.999995727539,6|0,0:0|0:0,0:0:0:0:
412,31,89196,2,0,L|401:192,1,139.999995727539,8|0,0:0|0:0,0:0:0:0:
392,310,89658,2,0,L|403:151,1,139.999995727539,2|0,0:0|0:0,0:0:0:0:
412,31,90120,1,8,0:0:0:0:
512,201,90350,1,8,3:0:0:0:
287,180,90581,6,0,P|204:165|119:188,1,139.999995727539,2|0,0:0|0:0,0:0:0:0:
398,257,91043,2,0,P|353:206|277:179,1,139.999995727539,8|0,0:0|0:0,0:0:0:0:
34,246,91504,2,0,P|89:196|158:173,1,139.999995727539,2|0,0:0|0:0,0:0:0:0:
211,305,91966,1,8,0:0:0:0:
83,79,92196,1,8,3:0:0:0:
298,208,92427,6,0,B|366:235|366:235|455:188,1,139.999995727539,2|0,0:0|0:0,0:0:0:0:
288,3,92889,2,0,B|230:48|230:48|226:148,1,139.999995727539,8|0,0:0|0:0,0:0:0:0:
494,107,93350,2,0,B|483:34|483:34|398:-18,1,139.999995727539,2|0,0:0|0:0,0:0:0:0:
363,106,93812,1,8,0:0:0:0:
512,262,94043,1,8,3:0:0:0:
295,315,94273,6,0,P|216:291|130:310,1,139.999995727539,2|0,0:0|0:0,0:0:0:0:
25,313,94735,2,0,P|99:290|169:301,1,139.999995727539,8|0,0:0|0:0,0:0:0:0:
157,157,95196,2,0,L|160:307,1,139.999995727539,2|0,0:0|0:0,0:0:0:0:
275,199,95658,1,8,0:0:0:0:
35,112,95889,1,8,3:0:0:0:
246,22,96120,6,0,B|316:8|316:8|376:67,1,139.999995727539,2|0,0:0|0:0,0:0:0:0:
35,112,96581,2,0,B|65:47|65:47|149:35,1,139.999995727539,10|0,0:0|0:0,0:0:0:0:
177,220,97043,2,0,P|106:245|25:226,1,139.999995727539,2|0,0:0|0:0,0:0:0:0:
267,205,97389,2,0,P|338:180|419:199,1,139.999995727539,2|0,0:0|0:0,0:0:0:0:
233,289,97735,1,8,3:0:0:0:
202,83,97966,5,2,0:0:0:0:
328,101,98196,1,2,0:0:0:0:
177,220,98427,1,10,0:0:0:0:
198,69,98658,1,2,0:0:0:0:
321,226,98889,2,0,B|345:292|345:292|311:352,1,139.999995727539,10|0,0:0|0:0,0:0:0:0:
425,311,99235,2,0,B|359:286|359:286|334:222,1,139.999995727539,2|0,0:0|0:0,0:0:0:0:
299,130,99581,1,8,3:0:0:0:
495,233,99812,6,0,B|523:302|523:302|482:378,1,139.999995727539,2|0,0:0|0:0,0:0:0:0:
299,130,100273,2,0,B|271:61|271:61|312:-15,1,139.999995727539,10|0,0:0|0:0,0:0:0:0:
225,291,100735,2,0,P|171:308|96:267,1,139.999995727539,2|0,0:0|0:0,0:0:0:0:
261,208,101081,2,0,P|302:246|304:331,1,139.999995727539,2|0,0:0|0:0,0:0:0:0:
171,218,101427,2,0,P|183:162|256:118,1,139.999995727539,8|0,3:0|0:0,0:0:0:0:
256,192,101889,12,4,103504,0:0:0:0:
