osu file format v14

[General]
AudioFilename: audio.mp3
AudioLeadIn: 0
PreviewTime: 27697
Countdown: 0
SampleSet: Soft
StackLeniency: 0.7
Mode: 0
LetterboxInBreaks: 0
WidescreenStoryboard: 0

[Editor]
Bookmarks: 120,7505,14889,22274,25966,27812,29659,37043,44428,48120,51812,59197,62889,66582,73966,81351,88735,96120,103505
DistanceSpacing: 1.3
BeatDivisor: 4
GridSize: 4
TimelineZoom: 1.5

[Metadata]
Title:NIKOLAY (feat. Nikolay Sobolev)
TitleUnicode:НИКОЛАЙ (feat. Николай Соболев)
Artist:55x55
ArtistUnicode:55x55
Creator:Imakuri
Version:A r M i N's KOJIbKA HARD
Source:
Tags:marvollo m_a_r_v_o_l_l_o shmiklak russian русский ракамакафо armin and a_r_m_i_n vanucik
BeatmapID:1378049
BeatmapSetID:650120

[Difficulty]
HPDrainRate:5
CircleSize:4
OverallDifficulty:6
ApproachRate:6.5
SliderMultiplier:1.4
SliderTickRate:1

[Events]
//Background and Video events
0,0,"NIKOLAYYLMAO.jpg",0,0
//Break Periods
//Storyboard Layer 0 (Background)
//Storyboard Layer 1 (Fail)
//Storyboard Layer 2 (Pass)
//Storyboard Layer 3 (Foreground)
//Storyboard Sound Samples

[TimingPoints]
120,461.538461538462,4,2,1,80,1,0
29658,-100,4,2,1,80,0,1
35196,-100,4,2,1,80,0,0
37043,-100,4,2,1,80,0,1
42581,-100,4,2,1,80,0,0
73966,-100,4,2,1,80,0,1
80427,-100,4,2,1,80,0,0
81350,-100,4,2,1,80,0,1
86889,-100,4,2,1,80,0,0

[Colours]
Combo1 : 183,136,181
Combo2 : 224,208,158
SliderTrackOverride : 218,218,218

[HitObjects]
63,51,120,5,6,0:0:0:0:
141,96,351,2,0,P|176:95|214:92,1,70,0|8,0:0|0:0,0:0:0:0:
281,34,812,2,0,P|316:35|354:38,1,70,0|2,0:0|0:0,0:0:0:0:
376,125,1274,2,0,P|341:124|306:121,1,70,0|8,0:0|0:0,0:0:0:0:
236,180,1735,6,0,B|231:216|231:216|236:250,1,70,8|2,3:0|0:0,0:0:0:0:
306,307,2197,6,0,P|340:306|375:303,1,70,0|8,0:0|0:0,0:0:0:0:
452,254,2659,2,0,P|457:213|443:175,1,70,0|2,0:0|0:0,0:0:0:0:
376,125,3120,2,0,P|341:124|306:121,1,70,0|8,0:0|0:0,0:0:0:0:
236,61,3582,6,0,B|200:56|200:56|166:61,1,70,8|2,3:0|0:0,0:0:0:0:
101,124,4043,6,0,P|98:158|97:193,1,70,0|8,0:0|0:0,0:0:0:0:
172,246,4505,2,0,P|174:280|175:315,1,70,0|2,0:0|0:0,0:0:0:0:
245,374,4966,2,0,P|286:379|324:365,1,70,0|8,0:0|0:0,0:0:0:0:
377,306,5428,6,0,B|382:270|382:270|377:236,1,70,8|2,3:0|0:0,0:0:0:0:
313,171,5889,6,0,P|304:137|310:102,1,70,0|8,0:0|0:0,0:0:0:0:
345,18,6351,2,0,P|310:18|275:21,1,70,0|2,0:0|0:0,0:0:0:0:
213,88,6812,2,0,P|178:87|143:84,1,70,0|8,0:0|0:0,0:0:0:0:
78,149,7274,6,0,B|73:183|73:183|78:219,1,70,8|2,3:0|0:0,0:0:0:0:
132,290,7735,5,0,0:0:0:0:
203,232,7966,2,0,P|237:226|271:234,1,70,10|0,0:0|0:0,0:0:0:0:
339,295,8428,2,0,P|373:300|407:292,1,70,2|0,0:0|0:0,0:0:0:0:
438,258,8774,2,0,P|437:223|434:188,1,70,2|0,0:0|0:0,0:0:0:0:
403,154,9120,6,0,B|398:118|398:118|403:84,1,70,8|2,3:0|0:0,0:0:0:0:
345,13,9582,5,2,0:0:0:0:
285,81,9812,1,10,0:0:0:0:
210,28,10043,1,2,0:0:0:0:
150,96,10274,2,0,P|144:130|152:164,1,70,10|0,0:0|0:0,0:0:0:0:
180,200,10620,2,0,P|185:234|177:268,1,70,2|0,0:0|0:0,0:0:0:0:
150,305,10966,6,0,B|145:339|145:339|150:375,1,70,8|2,3:0|0:0,0:0:0:0:
234,339,11428,5,0,0:0:0:0:
316,378,11659,2,0,P|350:377|385:374,1,70,10|0,0:0|0:0,0:0:0:0:
448,308,12120,2,0,P|453:273|445:239,1,70,2|0,0:0|0:0,0:0:0:0:
418,204,12466,2,0,P|412:169|420:135,1,70,2|0,0:0|0:0,0:0:0:0:
448,99,12812,5,8,3:0:0:0:
414,14,13043,5,4,3:0:0:0:
326,173,13505,1,4,3:0:0:0:
192,50,13966,2,0,P|121:52|51:57,1,140,4|2,3:0|3:2,0:0:0:0:
6,233,14889,6,0,P|40:235|75:236,1,70,2|0,0:0|0:0,0:0:0:0:
152,186,15351,1,8,0:0:0:0:
210,255,15582,2,0,P|244:254|279:251,1,70,0|2,0:0|0:0,0:0:0:0:
344,186,16043,1,0,0:0:0:0:
408,250,16274,2,0,P|413:284|405:318,1,70,8|0,0:0|0:0,0:0:0:0:
330,369,16735,6,0,P|295:368|260:365,1,70,2|0,0:0|0:0,0:0:0:0:
203,293,17197,2,0,P|132:295|62:300,1,140,8|2,0:0|0:0,0:0:0:0:
4,230,17889,1,0,0:0:0:0:
70,168,18120,2,0,P|104:165|139:164,1,70,8|0,0:0|0:0,0:0:0:0:
215,216,18582,6,0,P|249:218|284:219,1,70,2|0,0:0|0:0,0:0:0:0:
352,158,19043,2,0,P|360:124|354:89,1,70,8|0,0:0|0:0,0:0:0:0:
282,33,19505,2,0,P|211:35|141:40,1,140,2|8,0:0|0:0,0:0:0:0:
59,77,20197,1,0,0:0:0:0:
113,149,20428,6,0,P|118:183|110:217,1,70,2|0,0:0|0:0,0:0:0:0:
48,283,20889,2,0,P|91:305|180:273,1,140,8|2,0:0|0:0,0:0:0:0:
219,199,21582,1,0,0:0:0:0:
291,253,21812,2,0,P|325:252|360:249,1,70,8|0,0:0|0:0,0:0:0:0:
440,294,22274,5,8,0:1:0:0:
484,214,22505,1,0,0:1:0:0:
405,169,22735,2,0,P|399:134|407:100,1,70,8|0,0:1|0:1,0:0:0:0:
440,15,23197,2,0,P|405:15|370:18,1,70,8|0,0:1|0:1,0:0:0:0:
297,73,23659,2,0,P|262:72|227:69,1,70,8|0,0:1|0:1,0:0:0:0:
153,16,24120,5,8,0:1:0:0:
100,91,24351,1,0,0:1:0:0:
174,144,24581,2,0,P|175:178|164:211,1,70,8|0,0:1|0:1,0:0:0:0:
99,275,25043,2,0,P|93:309|101:343,1,70,8|0,0:1|0:1,0:0:0:0:
184,381,25505,2,0,P|218:380|253:377,1,70,8|0,0:1|0:1,0:0:0:0:
305,302,25966,5,8,0:1:0:0:
377,357,26197,1,8,0:1:0:0:
432,285,26428,1,8,0:1:0:0:
360,230,26659,1,8,0:1:0:0:
305,302,26889,2,0,P|270:307|236:299,1,70,8|8,0:1|0:1,0:0:0:0:
171,235,27351,1,8,0:1:0:0:
115,307,27582,1,8,0:1:0:0:
398,3,29197,5,0,0:0:0:0:
461,67,29428,1,0,0:0:0:0:
405,139,29659,6,0,P|396:172|402:207,1,70,2|0,0:0|0:0,0:0:0:0:
465,272,30120,2,0,P|470:306|462:340,1,70,8|0,0:0|0:0,0:0:0:0:
380,381,30582,1,2,0:0:0:0:
323,309,30812,1,0,0:0:0:0:
254,368,31043,2,0,P|219:373|185:365,1,70,8|0,0:0|0:0,0:0:0:0:
131,291,31505,6,0,P|131:256|134:221,1,70,2|0,0:0|0:0,0:0:0:0:
196,153,31966,2,0,P|195:118|192:83,1,70,8|0,0:0|0:0,0:0:0:0:
248,11,32428,1,2,0:0:0:0:
311,75,32659,1,0,0:0:0:0:
379,14,32889,1,8,0:0:0:0:
442,78,33120,1,0,0:0:0:0:
375,140,33351,6,0,P|366:173|372:208,1,70,2|0,0:0|0:0,0:0:0:0:
436,273,33812,2,0,P|444:306|438:341,1,70,8|0,0:0|0:0,0:0:0:0:
355,379,34274,1,2,0:0:0:0:
291,314,34505,1,0,0:0:0:0:
222,373,34735,2,0,P|187:379|153:371,1,70,8|0,0:0|0:0,0:0:0:0:
101,295,35197,6,0,P|103:224|108:154,2,140,2|2|2,3:0|3:0|3:0,0:0:0:0:
153,371,36351,1,2,3:0:0:0:
244,268,36697,2,0,P|243:233|240:198,1,70,2|2,3:0|3:0,0:0:0:0:
210,162,37043,6,0,P|211:127|214:92,1,70,2|0,0:0|0:0,0:0:0:0:
267,18,37505,2,0,P|301:11|335:19,1,70,8|0,0:0|0:0,0:0:0:0:
387,94,37966,1,2,0:0:0:0:
454,33,38197,1,0,0:0:0:0:
499,111,38428,2,0,P|498:146|495:181,1,70,8|0,0:0|0:0,0:0:0:0:
429,244,38889,6,0,P|430:279|433:314,1,70,2|0,0:0|0:0,0:0:0:0:
367,378,39351,2,0,P|332:384|298:376,1,70,8|0,0:0|0:0,0:0:0:0:
246,301,39812,1,2,0:0:0:0:
180,364,40043,1,0,0:0:0:0:
123,292,40274,1,8,0:0:0:0:
57,355,40505,1,0,0:0:0:0:
5,280,40735,6,0,P|6:245|9:210,1,70,2|0,0:0|0:0,0:0:0:0:
74,145,41197,2,0,P|73:110|70:75,1,70,8|0,0:0|0:0,0:0:0:0:
133,8,41659,1,2,0:0:0:0:
188,79,41889,1,0,0:0:0:0:
253,15,42120,2,0,P|288:9|322:17,1,70,8|0,0:0|0:0,0:0:0:0:
384,82,42582,5,2,0:0:0:0:
326,151,42812,2,0,P|323:185|322:220,1,70,0|8,0:0|0:0,0:0:0:0:
397,271,43274,2,0,P|399:305|400:340,1,70,0|2,0:0|0:0,0:0:0:0:
317,380,43735,2,0,P|277:381|249:371,1,70,0|8,0:0|0:0,0:0:0:0:
194,297,44197,1,0,3:0:0:0:
114,340,44428,5,6,0:0:0:0:
256,192,44543,12,0,47197,0:0:0:0:
1,109,48120,6,0,P|35:109|70:112,1,70,2|0,0:0|0:0,0:0:0:0:
132,180,48582,2,0,P|166:179|201:176,1,70,8|0,0:0|0:0,0:0:0:0:
255,102,49043,2,0,B|323:82|323:122|395:102,1,140,2|8,0:0|0:0,0:0:0:0:
456,37,49735,1,0,0:0:0:0:
504,114,49966,6,0,P|510:149|502:183,1,70,2|0,0:0|0:0,0:0:0:0:
433,242,50428,2,0,B|363:261|363:221|295:241,1,140,8|2,0:0|0:0,0:0:0:0:
229,304,51120,1,0,0:0:0:0:
157,248,51351,2,0,P|149:214|155:179,1,70,8|0,0:0|0:0,0:0:0:0:
211,108,51812,6,0,P|161:89|83:125,1,140,2|8,0:0|0:0,0:0:0:0:
74,212,52505,1,0,0:0:0:0:
157,248,52735,2,0,P|191:247|226:244,1,70,2|0,0:0|0:0,0:0:0:0:
296,184,53197,2,0,P|330:184|365:187,1,70,8|0,0:0|0:0,0:0:0:0:
434,127,53659,5,2,0:0:0:0:
494,194,53889,1,0,0:0:0:0:
427,256,54120,2,0,P|424:290|423:325,1,70,8|0,0:0|0:0,0:0:0:0:
345,373,54582,2,0,P|310:379|276:371,1,70,2|0,0:0|0:0,0:0:0:0:
208,311,55043,2,0,P|173:304|139:312,1,70,8|0,0:0|0:0,0:0:0:0:
65,365,55505,5,2,0:0:0:0:
13,290,55735,2,0,P|15:219|20:149,1,140,0|0,0:0|0:0,0:0:0:0:
80,81,56428,2,0,P|113:73|148:79,1,70,2|0,0:0|0:0,0:0:0:0:
212,143,56889,2,0,P|245:150|280:144,1,70,8|0,0:0|0:0,0:0:0:0:
341,76,57351,5,2,0:0:0:0:
405,140,57582,1,0,0:0:0:0:
345,208,57812,2,0,P|342:242|341:277,1,70,8|0,0:0|0:0,0:0:0:0:
275,341,58274,2,0,B|205:360|205:320|137:340,1,140,2|8,0:0|0:0,0:0:0:0:
53,376,58966,1,0,0:0:0:0:
5,298,59197,6,0,P|5:263|8:228,1,70,2|0,0:0|0:0,0:0:0:0:
79,169,59659,1,8,0:0:0:0:
35,89,59889,2,0,P|75:77|112:83,1,70,0|2,0:0|0:0,0:0:0:0:
176,133,60351,1,0,0:0:0:0:
231,61,60582,2,0,P|265:61|300:64,1,70,8|0,0:0|0:0,0:0:0:0:
381,22,61043,6,0,P|392:72|347:144,1,140,2|8,0:0|0:0,0:0:0:0:
259,169,61735,1,0,0:0:0:0:
310,244,61966,2,0,P|316:278|308:312,1,70,2|0,0:0|0:0,0:0:0:0:
235,366,62428,2,0,P|200:365|165:362,1,70,8|0,0:0|0:0,0:0:0:0:
78,332,62889,5,6,0:0:0:0:
256,192,63005,12,0,65659,0:0:0:0:
465,40,66582,6,0,P|468:86|469:133,1,93.3333333333333,8|0,0:1|0:1,0:0:0:0:
431,180,67043,2,0,P|427:226|426:273,1,93.3333333333333,8|0,0:1|0:1,0:0:0:0:
459,324,67505,2,0,P|411:315|363:326,1,93.3333333333333,8|0,0:1|0:1,0:0:0:0:
320,363,67966,1,8,0:1:0:0:
159,277,68428,6,0,P|113:268|67:276,1,93.3333333333333,8|0,0:1|0:1,0:0:0:0:
17,310,68889,2,0,P|18:263|21:216,1,93.3333333333333,8|0,0:1|0:1,0:0:0:0:
68,177,69351,2,0,P|66:130|63:83,1,93.3333333333333,8|0,0:1|0:1,0:0:0:0:
30,33,69812,2,0,P|77:41|125:30,1,93.3333333333333,8|0,0:1|0:1,0:0:0:0:
178,11,70274,6,0,P|224:12|271:15,1,93.3333333333333,8|0,0:1|0:1,0:0:0:0:
318,53,70735,2,0,P|326:98|318:144,1,93.3333333333333,8|0,0:1|0:1,0:0:0:0:
281,192,71197,2,0,P|272:237|280:283,1,93.3333333333333,8|0,0:1|0:1,0:0:0:0:
320,329,71659,1,8,0:1:0:0:
463,217,72120,6,0,P|471:171|462:125,1,93.3333333333333,8|0,0:1|0:1,0:0:0:0:
422,80,72582,1,8,0:1:0:0:
318,144,72889,1,0,0:1:0:0:
271,105,73043,2,0,P|224:101|177:100,1,93.3333333333333,8|0,0:1|0:1,0:0:0:0:
128,64,73505,1,8,0:1:0:0:
55,160,73812,1,0,0:1:0:0:
94,205,73966,6,0,P|102:250|94:296,1,93.3333333333333,2|0,0:0|0:0,0:0:0:0:
63,349,74428,2,0,P|109:347|156:344,1,93.3333333333333,8|0,0:1|0:1,0:0:0:0:
204,308,74889,2,0,P|250:309|297:312,1,93.3333333333333,2|0,0:0|0:0,0:0:0:0:
350,342,75351,1,8,0:1:0:0:
465,202,75812,6,0,P|473:156|465:110,1,93.3333333333333,2|0,0:0|0:0,0:0:0:0:
422,67,76274,2,0,P|375:68|328:71,1,93.3333333333333,8|0,0:1|0:1,0:0:0:0:
282,110,76735,2,0,P|235:108|188:105,1,93.3333333333333,2|0,0:0|0:0,0:0:0:0:
134,77,77197,2,0,P|142:122|133:168,1,93.3333333333333,8|0,0:1|0:1,0:0:0:0:
101,220,77659,6,0,P|92:265|101:311,1,93.3333333333333,2|0,0:0|0:0,0:0:0:0:
149,347,78120,2,0,P|195:345|242:342,1,93.3333333333333,8|0,0:1|0:1,0:0:0:0:
287,301,78582,2,0,P|333:302|380:305,1,93.3333333333333,2|0,0:0|0:0,0:0:0:0:
431,273,79043,2,0,P|439:227|431:181,1,93.3333333333333,8|0,0:1|0:1,0:0:0:0:
386,139,79505,6,0,P|339:140|292:143,1,93.3333333333333,2|0,0:0|0:0,0:0:0:0:
232,152,79966,1,8,0:1:0:0:
151,60,80274,6,0,P|144:109|144:120,1,46.6666666666667,0|2,0:1|0:0,0:0:0:0:
73,204,80735,2,0,P|80:253|80:264,1,46.6666666666667,0|0,0:0|0:0,0:0:0:0:
165,336,81197,1,0,0:0:0:0:
212,297,81351,6,0,P|257:288|303:297,1,93.3333333333333,2|0,0:0|0:0,0:0:0:0:
354,329,81812,1,8,0:1:0:0:
439,243,82120,1,0,0:1:0:0:
400,195,82274,2,0,P|397:148|395:101,1,93.3333333333333,2|0,0:0|0:0,0:0:0:0:
355,56,82735,1,8,0:1:0:0:
209,165,83197,6,0,P|163:173|117:164,1,93.3333333333333,2|0,0:0|0:0,0:0:0:0:
74,121,83659,1,8,0:1:0:0:
7,222,83966,1,0,0:1:0:0:
49,265,84120,2,0,P|95:263|142:260,1,93.3333333333333,2|0,0:0|0:0,0:0:0:0:
193,294,84582,1,8,0:1:0:0:
281,211,84889,1,0,0:1:0:0:
324,252,85043,6,0,P|369:260|415:252,1,93.3333333333333,2|0,0:0|0:0,0:0:0:0:
462,213,85505,1,8,0:1:0:0:
419,99,85812,1,0,0:1:0:0:
366,129,85966,2,0,P|319:127|272:124,1,93.3333333333333,2|0,0:0|0:0,0:0:0:0:
216,101,86428,1,8,0:1:0:0:
79,221,86889,6,0,P|70:266|78:312,1,93.3333333333333,0|0,0:0|0:0,0:0:0:0:
131,344,87351,2,0,P|177:342|224:339,1,93.3333333333333,0|0,0:0|0:0,0:0:0:0:
278,313,87812,1,0,0:0:0:0:
329,202,88120,1,0,0:0:0:0:
389,206,88274,1,0,0:0:0:0:
464,110,88582,1,0,0:0:0:0:
449,51,88735,5,6,0:0:0:0:
371,96,88966,2,0,P|336:95|298:92,1,70,0|8,0:0|0:0,0:0:0:0:
231,34,89427,2,0,P|196:35|158:38,1,70,0|2,0:0|0:0,0:0:0:0:
136,125,89889,2,0,P|171:124|206:121,1,70,0|8,0:0|0:0,0:0:0:0:
276,180,90350,6,0,B|281:216|281:216|276:250,1,70,8|2,3:0|0:0,0:0:0:0:
206,307,90812,6,0,P|172:306|137:303,1,70,0|8,0:0|0:0,0:0:0:0:
60,254,91274,2,0,P|55:213|69:175,1,70,0|2,0:0|0:0,0:0:0:0:
136,125,91735,2,0,P|171:124|206:121,1,70,0|8,0:0|0:0,0:0:0:0:
276,61,92197,6,0,B|312:56|312:56|346:61,1,70,8|2,3:0|0:0,0:0:0:0:
411,124,92658,6,0,P|414:158|415:193,1,70,0|8,0:0|0:0,0:0:0:0:
340,246,93120,2,0,P|338:280|337:315,1,70,0|2,0:0|0:0,0:0:0:0:
267,374,93581,2,0,P|226:379|188:365,1,70,0|8,0:0|0:0,0:0:0:0:
135,306,94043,6,0,B|130:270|130:270|135:236,1,70,8|2,3:0|0:0,0:0:0:0:
199,171,94504,6,0,P|208:137|202:102,1,70,0|8,0:0|0:0,0:0:0:0:
167,18,94966,2,0,P|202:18|237:21,1,70,0|2,0:0|0:0,0:0:0:0:
299,88,95427,2,0,P|334:87|369:84,1,70,0|8,0:0|0:0,0:0:0:0:
434,149,95889,6,0,B|439:183|439:183|434:219,1,70,8|2,3:0|0:0,0:0:0:0:
380,290,96350,5,0,0:0:0:0:
309,232,96581,2,0,P|275:226|241:234,1,70,10|0,0:0|0:0,0:0:0:0:
173,295,97043,2,0,P|139:300|105:292,1,70,2|0,0:0|0:0,0:0:0:0:
74,258,97389,2,0,P|75:223|78:188,1,70,2|0,0:0|0:0,0:0:0:0:
109,154,97735,6,0,B|114:118|114:118|109:84,1,70,8|2,3:0|0:0,0:0:0:0:
167,13,98197,5,2,0:0:0:0:
227,81,98427,1,10,0:0:0:0:
302,28,98658,1,2,0:0:0:0:
362,96,98889,2,0,P|368:130|360:164,1,70,10|0,0:0|0:0,0:0:0:0:
332,200,99235,2,0,P|327:234|335:268,1,70,2|0,0:0|0:0,0:0:0:0:
362,305,99581,6,0,B|367:339|367:339|362:375,1,70,8|2,3:0|0:0,0:0:0:0:
278,339,100043,5,0,0:0:0:0:
196,378,100274,2,0,P|162:377|127:374,1,70,10|0,0:0|0:0,0:0:0:0:
64,308,100735,2,0,P|59:273|67:239,1,70,2|0,0:0|0:0,0:0:0:0:
94,204,101081,2,0,P|100:169|92:135,1,70,2|0,0:0|0:0,0:0:0:0:
64,99,101427,5,8,3:0:0:0:
224,12,101889,5,2,0:0:0:0:
279,84,102120,1,10,0:0:0:0:
352,30,102351,1,2,0:0:0:0:
407,102,102582,2,0,P|414:135|408:170,1,70,10|0,0:0|0:0,0:0:0:0:
383,208,102928,2,0,P|375:241|381:276,1,70,2|0,0:0|0:0,0:0:0:0:
410,311,103273,6,0,B|415:345|415:345|410:381,1,70,2|4,0:0|0:0,0:0:0:0:
