osu file format v14

[General]
AudioFilename: audio.mp3
AudioLeadIn: 0
PreviewTime: 104100
Countdown: 1
SampleSet: Normal
StackLeniency: 0.7
Mode: 0
LetterboxInBreaks: 0
WidescreenStoryboard: 0

[Editor]
Bookmarks: 18000,56400,102900,114000,122400,123000,123600,124200
DistanceSpacing: 1
BeatDivisor: 4
GridSize: 4
TimelineZoom: 1

[Metadata]
Title:NEOB'YASNIMO, NO Haip
TitleUnicode:НЕОБЪЯСНИМО, НО ХАЙП (feat. Сергей Дружко)
Artist:55x55
ArtistUnicode:55x55
Creator:Danik_LzZ
Version:Hype
Source:Druzhko Show
Tags:55x55 hype sergei druzhko show
BeatmapID:1289726
BeatmapSetID:610883

[Difficulty]
HPDrainRate:6
CircleSize:4
OverallDifficulty:9
ApproachRate:9
SliderMultiplier:1.4
SliderTickRate:1

[Events]
//Background and Video events
0,0,"_9XFifTA4yo.jpg",0,0
//Break Periods
//Storyboard Layer 0 (Background)
//Storyboard Layer 1 (Fail)
//Storyboard Layer 2 (Pass)
//Storyboard Layer 3 (Foreground)
//Storyboard Sound Samples

[TimingPoints]
0,600,4,1,0,100,1,0
9600,-50,4,1,0,100,0,1
18000,-50,4,1,0,100,0,0
19200,-33.3333333333333,4,1,0,45,0,1
28800,-100,4,1,0,100,0,0
46500,-50,4,1,0,100,0,0
48000,-50,4,1,0,100,0,1
56400,-100,4,1,0,100,0,0
57600,-33.3333333333333,4,1,0,45,0,1
67200,-100,4,1,0,100,0,0
105600,-50,4,1,0,100,0,1
105750,-50,4,1,0,100,0,0
108000,-50,4,1,0,100,0,1
114000,-100,4,1,0,100,0,0
115200,-33.3333333333333,4,1,0,45,0,1
122400,-100,4,1,0,100,0,0

[HitObjects]
160,96,0,6,0,L|244:96,1,70
256,144,450,1,0,0:0:0:0:
272,196,600,2,0,L|360:196,1,70
400,84,1200,1,0,0:0:0:0:
384,112,1350,1,0,0:0:0:0:
416,112,1500,1,0,0:0:0:0:
308,276,1800,6,0,L|232:276,1,70
216,220,2250,1,0,0:0:0:0:
176,248,2400,2,0,P|188:308|184:344,1,70
224,320,2850,1,0,0:0:0:0:
284,308,3000,2,0,P|272:368|276:404,1,70
280,88,3600,1,0,0:0:0:0:
256,128,3750,1,0,0:0:0:0:
304,128,3900,1,0,0:0:0:0:
80,256,4200,6,0,P|120:272|168:280,1,70
192,284,4650,1,0,0:0:0:0:
248,280,4800,2,0,P|300:264|328:240,1,70
336,216,5250,1,0,0:0:0:0:
360,176,5400,2,0,P|400:192|440:224,1,70
152,128,6000,5,0,0:0:0:0:
132,164,6150,1,0,0:0:0:0:
176,164,6300,1,0,0:0:0:0:
320,88,6600,2,0,P|328:144|320:184,1,70
292,184,7050,1,0,0:0:0:0:
248,168,7200,2,0,P|232:128|240:76,1,70
256,56,7650,1,0,0:0:0:0:
312,44,7800,2,0,P|360:40|396:52,1,70
416,88,8250,1,0,0:0:0:0:
120,296,9600,6,0,P|208:336|264:336,1,140,8|0,0:0|0:0,0:0:0:0:
296,288,10050,1,0,0:0:0:0:
320,224,10200,2,0,P|308:144|324:80,1,140,8|0,0:0|0:0,0:0:0:0:
136,112,10800,2,0,L|204:56,1,70,8|0,0:0|0:0,0:0:0:0:
224,76,11100,1,0,0:0:0:0:
260,320,11400,6,0,P|220:208|192:168,1,140,8|0,0:0|0:0,0:0:0:0:
172,160,11850,1,0,0:0:0:0:
204,116,12000,2,0,P|296:88|372:124,1,140,8|0,0:0|0:0,0:0:0:0:
324,152,12450,1,0,0:0:0:0:
348,196,12600,2,0,P|292:240|200:240,1,140,8|0,0:0|0:0,0:0:0:0:
80,236,13200,5,8,0:0:0:0:
128,192,13350,1,0,0:0:0:0:
144,256,13500,1,0,0:0:0:0:
284,60,13800,2,0,P|200:88|148:136,1,140,8|0,0:0|0:0,0:0:0:0:
144,176,14250,1,0,0:0:0:0:
140,232,14400,6,0,P|112:308|56:348,1,140,8|0,0:0|0:0,0:0:0:0:
36,308,14850,1,0,0:0:0:0:
64,340,15000,2,0,P|124:288|140:200,1,140,8|0,0:0|0:0,0:0:0:0:
232,204,15600,1,8,0:0:0:0:
300,191,15750,1,0,0:0:0:0:
370,195,15900,1,0,0:0:0:0:
80,100,16200,2,0,P|88:192|132:248,1,140,8|0,0:0|0:0,0:0:0:0:
176,224,16650,1,0,0:0:0:0:
256,192,16800,12,8,18000,0:0:0:0:
168,336,19200,6,0,P|156:188|192:84,1,210.000008010865,8|0,0:0|0:0,0:0:0:0:
236,68,19650,1,0,0:0:0:0:
304,128,19800,2,0,P|332:252|312:352,1,210.000008010865,8|0,0:0|0:0,0:0:0:0:
140,104,20400,1,8,0:0:0:0:
216,108,20550,1,0,0:0:0:0:
176,176,20700,1,0,0:0:0:0:
464,296,21000,6,0,P|320:336|248:296,1,210.000008010865,8|0,0:0|0:0,0:0:0:0:
224,256,21450,1,0,0:0:0:0:
192,184,21600,2,0,P|224:64|312:24,1,210.000008010865,8|0,0:0|0:0,0:0:0:0:
304,108,22050,1,0,0:0:0:0:
312,196,22200,2,0,P|312:356|260:356,1,210.000008010865,8|0,0:0|0:0,0:0:0:0:
100,200,22800,5,8,0:0:0:0:
156,148,22950,1,0,0:0:0:0:
172,224,23100,1,0,0:0:0:0:
256,348,23400,2,0,B|224:232|280:232|248:120,1,210.000008010865,8|0,0:0|0:0,0:0:0:0:
256,36,23850,1,0,0:0:0:0:
168,108,24000,6,0,B|200:212|152:212|184:336,1,210.000008010865,8|0,0:0|0:0,0:0:0:0:
256,312,24450,1,0,0:0:0:0:
332,292,24600,2,0,P|316:168|408:56,1,210.000008010865,8|0,0:0|0:0,0:0:0:0:
240,136,25200,1,8,0:0:0:0:
164,112,25350,1,0,0:0:0:0:
116,52,25500,1,0,0:0:0:0:
144,304,25800,6,0,P|256:200|256:112,1,210.000008010865,8|0,0:0|0:0,0:0:0:0:
176,152,26250,1,0,0:0:0:0:
208,228,26400,2,0,P|348:264|420:224,1,210.000008010865,8|0,0:0|0:0,0:0:0:0:
344,148,26850,1,0,0:0:0:0:
344,232,27000,2,0,P|272:328|172:332,1,210.000008010865,8|0,0:0|0:0,0:0:0:0:
104,132,28800,6,0,L|196:132,1,70,8|0,0:0|0:0,0:0:0:0:
144,244,29400,2,0,L|228:244,1,70,8|0,0:0|0:0,0:0:0:0:
312,160,30000,2,0,L|240:160,1,70,8|0,0:0|0:0,0:0:0:0:
196,128,30450,1,0,0:0:0:0:
192,72,30600,2,0,L|276:72,1,70,8|0,0:0|0:0,0:0:0:0:
384,268,31200,6,0,L|308:268,1,70,8|0,0:0|0:0,0:0:0:0:
192,200,31800,2,0,L|272:200,1,70,8|0,0:0|0:0,0:0:0:0:
308,176,32250,1,0,0:0:0:0:
324,128,32400,2,0,P|296:76|268:64,1,70,8|0,0:0|0:0,0:0:0:0:
204,72,33000,2,0,P|172:136|172:192,1,105,8|0,0:0|0:0,0:0:0:0:
172,224,33600,2,0,L|256:224,1,70,8|0,0:0|0:0,0:0:0:0:
288,200,34050,1,0,0:0:0:0:
304,144,34200,2,0,L|228:144,1,70,8|0,0:0|0:0,0:0:0:0:
56,184,34800,6,0,L|56:264,1,70,8|0,0:0|0:0,0:0:0:0:
88,308,35250,1,0,0:0:0:0:
124,256,35400,2,0,L|124:180,1,70,8|0,0:0|0:0,0:0:0:0:
256,56,36000,6,0,L|180:56,1,70,8|0,0:0|0:0,0:0:0:0:
148,104,36450,1,0,0:0:0:0:
104,144,36600,2,0,L|28:144,1,70,8|0,0:0|0:0,0:0:0:0:
48,228,37050,1,0,0:0:0:0:
124,276,37200,2,0,P|196:256|220:224,1,105,8|0,0:0|0:0,0:0:0:0:
224,176,37800,2,0,L|144:176,1,70,8|0,0:0|0:0,0:0:0:0:
140,88,38400,6,2,L|232:88,1,70,10|2,0:0|0:0,0:0:0:0:
264,120,38850,1,2,0:0:0:0:
324,144,39000,2,2,L|416:144,1,70,10|2,0:0|0:0,0:0:0:0:
368,268,39600,1,10,0:0:0:0:
328,256,39750,1,2,0:0:0:0:
364,232,39900,1,2,0:0:0:0:
208,304,40200,6,2,P|200:256|200:208,1,70,10|2,0:0|0:0,0:0:0:0:
224,200,40650,1,2,0:0:0:0:
256,160,40800,2,2,P|256:120|244:72,1,70,10|2,0:0|0:0,0:0:0:0:
216,76,41250,1,2,0:0:0:0:
176,44,41400,2,2,P|132:48|92:64,1,70,10|2,0:0|0:0,0:0:0:0:
80,240,42000,5,10,0:0:0:0:
112,212,42150,1,2,0:0:0:0:
116,252,42300,1,2,0:0:0:0:
208,280,42600,2,2,P|224:248|240:204,1,70,10|2,0:0|0:0,0:0:0:0:
256,76,43200,6,2,P|200:72|168:80,1,70,10|2,0:0|0:0,0:0:0:0:
152,108,43650,1,2,0:0:0:0:
128,160,43800,2,2,P|128:212|156:252,1,70,10|2,0:0|0:0,0:0:0:0:
408,288,44400,1,10,0:0:0:0:
376,284,44550,1,2,0:0:0:0:
400,260,44700,1,2,0:0:0:0:
224,108,45000,6,2,P|292:128|300:140,1,70,10|2,0:0|0:0,0:0:0:0:
284,180,45450,1,2,0:0:0:0:
268,224,45600,2,2,P|224:216|192:184,1,70,10|2,0:0|0:0,0:0:0:0:
196,140,46050,6,2,P|240:132|276:144,1,70
312,168,46500,2,14,P|356:180|256:192,1,420
396,308,48000,6,0,P|296:320|236:304,1,140,8|0,0:0|0:0,0:0:0:0:
224,280,48450,1,0,0:0:0:0:
200,240,48600,2,0,P|180:172|188:84,1,140,8|0,0:0|0:0,0:0:0:0:
332,192,49200,1,8,0:0:0:0:
372,156,49350,1,0,0:0:0:0:
388,208,49500,1,0,0:0:0:0:
140,208,49800,6,0,P|184:280|248:308,1,140,8|0,0:0|0:0,0:0:0:0:
264,260,50250,1,0,0:0:0:0:
312,280,50400,2,0,P|328:200|304:136,1,140,8|0,0:0|0:0,0:0:0:0:
260,160,50850,1,0,0:0:0:0:
208,148,51000,2,0,P|128:112|96:56,1,140,8|0,0:0|0:0,0:0:0:0:
136,264,51600,6,0,P|212:256|244:256,2,70,8|0|0,0:0|0:0|0:0,0:0:0:0:
140,96,52200,2,0,P|80:136|68:220,1,140,8|0,0:0|0:0,0:0:0:0:
336,144,52800,5,8,0:0:0:0:
344,200,52950,1,0,0:0:0:0:
332,256,53100,1,0,0:0:0:0:
292,296,53250,1,0,0:0:0:0:
240,312,53400,2,0,P|176:212|172:140,1,140,8|0,0:0|0:0,0:0:0:0:
280,96,54000,5,8,0:0:0:0:
314,156,54150,1,0,0:0:0:0:
324,225,54300,1,0,0:0:0:0:
184,132,54600,2,0,P|144:192|148:304,1,140,8|0,0:0|0:0,0:0:0:0:
180,292,55050,1,0,0:0:0:0:
256,192,55200,12,8,56400,0:0:0:0:
308,56,57600,6,0,P|392:184|392:256,1,210.000008010865,8|0,0:0|0:0,0:0:0:0:
336,260,58050,1,0,0:0:0:0:
312,320,58200,2,0,P|184:280|112:184,1,210.000008010865,8|0,0:0|0:0,0:0:0:0:
264,68,58800,1,8,0:0:0:0:
224,136,58950,1,0,0:0:0:0:
300,140,59100,1,0,0:0:0:0:
264,336,59400,6,0,B|224:216|300:216|248:88,1,210.000008010865,8|0,0:0|0:0,0:0:0:0:
304,64,59850,1,0,0:0:0:0:
332,144,60000,2,0,P|232:208|128:192,1,210.000008010865,8|0,0:0|0:0,0:0:0:0:
116,128,60450,1,0,0:0:0:0:
192,132,60600,2,0,P|152:248|68:284,1,210.000008010865,8|0,0:0|0:0,0:0:0:0:
224,196,61200,5,8,0:0:0:0:
296,224,61350,1,0,0:0:0:0:
236,272,61500,1,0,0:0:0:0:
340,80,61800,2,0,P|228:80|136:116,1,210.000008010865,8|0,0:0|0:0,0:0:0:0:
152,216,62400,5,8,0:0:0:0:
252,212,62600,1,0,0:0:0:0:
276,220,62700,1,0,0:0:0:0:
296,236,62800,1,0,0:0:0:0:
316,252,62900,1,0,0:0:0:0:
336,272,63000,2,0,P|436:196|380:68,1,210.000008010865,8|0,0:0|0:0,0:0:0:0:
152,88,63600,5,8,0:0:0:0:
228,96,63750,1,0,0:0:0:0:
184,160,63900,1,0,0:0:0:0:
120,280,64200,6,0,P|224:300|336:280,1,210.000008010865,8|0,0:0|0:0,0:0:0:0:
344,208,64650,1,0,0:0:0:0:
344,128,64800,2,0,P|180:104|120:112,1,210.000008010865,8|0,0:0|0:0,0:0:0:0:
124,196,65250,1,0,0:0:0:0:
204,208,65400,2,0,P|192:96|88:36,1,210.000008010865,8|0,0:0|0:0,0:0:0:0:
80,116,65850,1,0,0:0:0:0:
344,88,67200,6,0,L|256:88,1,70,8|0,0:0|0:0,0:0:0:0:
232,120,67650,1,0,0:0:0:0:
192,152,67800,2,0,L|116:152,1,70,8|0,0:0|0:0,0:0:0:0:
112,268,68400,1,8,0:0:0:0:
144,248,68550,1,0,0:0:0:0:
144,284,68700,1,0,0:0:0:0:
248,212,69000,6,0,P|256:280|248:304,1,70,8|0,0:0|0:0,0:0:0:0:
212,308,69450,1,0,0:0:0:0:
168,288,69600,2,0,P|168:228|180:200,1,70,8|0,0:0|0:0,0:0:0:0:
212,188,70050,1,0,0:0:0:0:
260,168,70200,2,0,P|320:164|360:176,1,70,8|0,0:0|0:0,0:0:0:0:
284,256,70800,5,8,0:0:0:0:
264,292,70950,1,0,0:0:0:0:
308,288,71100,1,0,0:0:0:0:
384,164,71400,2,0,P|364:124|340:100,1,70,8|0,0:0|0:0,0:0:0:0:
96,76,72000,6,0,P|152:64|184:72,1,70,8|0,0:0|0:0,0:0:0:0:
144,156,72600,6,0,P|196:144|232:152,1,70,8|0,0:0|0:0,0:0:0:0:
200,232,73200,6,0,P|268:220|288:224,1,70,8|0,0:0|0:0,0:0:0:0:
308,336,73800,6,0,P|272:304|268:264,1,70,8|0,0:0|0:0,0:0:0:0:
288,248,74250,1,0,0:0:0:0:
320,216,74400,2,0,P|328:180|320:128,1,70,8|0,0:0|0:0,0:0:0:0:
300,100,74850,1,0,0:0:0:0:
252,136,75000,2,0,P|232:176|232:224,1,70,8|0,0:0|0:0,0:0:0:0:
208,236,75450,5,0,0:0:0:0:
276,264,75600,1,0,0:0:0:0:
364,92,76050,1,0,0:0:0:0:
408,128,76200,2,0,P|408:180|396:220,1,70
112,104,76800,6,0,L|208:104,1,70,8|0,0:0|0:0,0:0:0:0:
188,160,77250,2,0,L|284:160,1,70,8|0,0:0|0:0,0:0:0:0:
300,128,77700,2,0,L|392:128,1,70,8|0,0:0|0:0,0:0:0:0:
408,88,78150,1,8,0:0:0:0:
448,108,78300,2,0,P|452:184|452:196,1,70,0|8,0:0|0:0,0:0:0:0:
332,224,78900,1,0,0:0:0:0:
92,76,79200,6,0,L|176:76,1,70,8|0,0:0|0:0,0:0:0:0:
180,128,79650,1,0,0:0:0:0:
244,128,79800,1,8,0:0:0:0:
392,232,80100,6,0,P|384:264|368:284,2,35,0|0|8,0:0|0:0|0:0,0:0:0:0:
388,180,80550,1,0,0:0:0:0:
360,104,80700,2,0,P|320:88|280:84,1,70,0|8,0:0|0:0,0:0:0:0:
232,108,81150,1,0,0:0:0:0:
252,172,81300,1,0,0:0:0:0:
304,128,81450,1,0,0:0:0:0:
344,76,81600,6,0,P|400:92|424:108,1,70,8|0,0:0|0:0,0:0:0:0:
388,172,82050,1,0,0:0:0:0:
336,244,82200,2,0,P|276:224|256:208,1,70,8|0,0:0|0:0,0:0:0:0:
216,168,82650,1,0,0:0:0:0:
224,96,82800,6,0,P|280:108|304:120,1,70,8|0,0:0|0:0,0:0:0:0:
280,180,83250,1,0,0:0:0:0:
320,232,83400,1,8,0:0:0:0:
380,200,83550,2,0,P|368:156|344:112,1,70
296,112,84000,1,8,0:0:0:0:
192,64,84300,2,0,P|216:52|252:48,2,35,0|0|8,0:0|0:0|0:0,0:0:0:0:
144,212,84900,1,0,0:0:0:0:
208,200,85650,5,0,0:0:0:0:
272,156,85800,2,0,P|296:196|308:236,1,70
256,68,86400,6,0,L|328:68,1,70,8|0,0:0|0:0,0:0:0:0:
288,148,87000,2,0,L|208:148,1,70,8|0,0:0|0:0,0:0:0:0:
244,232,87600,2,0,P|208:296|136:292,1,140,8|8,0:0|0:0,0:0:0:0:
84,160,88800,6,0,L|168:160,1,70,8|0,0:0|0:0,0:0:0:0:
108,68,89400,2,0,L|24:68,1,70,8|0,0:0|0:0,0:0:0:0:
192,48,90000,2,0,P|240:40|328:68,1,140,8|8,0:0|0:0,0:0:0:0:
436,176,91200,6,0,L|352:176,1,70,8|0,0:0|0:0,0:0:0:0:
272,256,91800,2,0,L|360:256,1,70,8|0,0:0|0:0,0:0:0:0:
412,144,92400,2,0,P|344:116|272:124,1,140,8|8,0:0|0:0,0:0:0:0:
116,160,93600,6,0,L|116:240,1,70,8|0,0:0|0:0,0:0:0:0:
188,296,94200,2,0,L|188:216,1,70,8|0,0:0|0:0,0:0:0:0:
192,60,94800,2,0,P|296:120|296:152,1,140,8|8,0:0|0:0,0:0:0:0:
344,348,96000,6,0,L|428:348,1,70,8|0,0:0|0:0,0:0:0:0:
460,268,96600,2,0,L|380:268,1,70,8|0,0:0|0:0,0:0:0:0:
352,188,97200,2,0,L|428:188,1,70,8|0,0:0|0:0,0:0:0:0:
448,108,97800,2,0,L|368:108,1,70,8|0,0:0|0:0,0:0:0:0:
340,28,98400,2,0,L|416:28,1,70,8|0,0:0|0:0,0:0:0:0:
184,32,99000,6,0,L|268:32,1,70,8|0,0:0|0:0,0:0:0:0:
300,112,99600,2,0,L|220:112,1,70,8|0,0:0|0:0,0:0:0:0:
192,192,100200,2,0,L|268:192,1,70,8|0,0:0|0:0,0:0:0:0:
256,192,100800,12,8,102900,0:0:0:0:
244,120,103200,6,0,P|188:136|168:156,1,70
168,248,103650,1,0,0:0:0:0:
284,168,103950,1,0,0:0:0:0:
284,168,104100,1,0,0:0:0:0:
424,92,104400,5,0,0:0:0:0:
444,128,104550,1,0,0:0:0:0:
456,176,104700,1,0,0:0:0:0:
448,224,104850,1,0,0:0:0:0:
424,268,105000,2,0,L|348:268,1,70
148,128,105600,6,0,P|224:112|272:120,1,93.3333333333333
260,140,105900,1,0,0:0:0:0:
276,168,106000,1,0,0:0:0:0:
288,196,106100,1,0,0:0:0:0:
304,232,106200,2,0,P|212:280|156:280,1,140
96,152,106800,1,0,0:0:0:0:
160,108,106950,1,0,0:0:0:0:
188,192,107100,2,0,P|256:144|344:180,1,140
336,260,107700,5,0,0:0:0:0:
252,260,107850,1,0,0:0:0:0:
164,256,108000,6,0,P|116:236|60:152,1,140,8|0,0:0|0:0,0:0:0:0:
92,80,108450,1,0,0:0:0:0:
160,32,108600,2,0,P|248:48|304:104,1,140,8|0,0:0|0:0,0:0:0:0:
252,208,109200,1,8,0:0:0:0:
216,272,109350,1,0,0:0:0:0:
292,272,109500,1,0,0:0:0:0:
276,68,109800,2,0,P|376:96|416:136,1,140,8|0,0:0|0:0,0:0:0:0:
192,204,110400,5,8,0:0:0:0:
312,184,110600,1,0,0:0:0:0:
332,192,110700,1,0,0:0:0:0:
352,204,110800,1,0,0:0:0:0:
372,220,110900,1,0,0:0:0:0:
392,236,111000,2,0,P|408:324|348:344,1,140,8|0,0:0|0:0,0:0:0:0:
264,284,111600,1,8,0:0:0:0:
232,216,111750,1,0,0:0:0:0:
304,224,111900,1,0,0:0:0:0:
308,88,112200,6,0,P|196:80|144:88,1,140,8|0,0:0|0:0,0:0:0:0:
128,152,112650,1,0,0:0:0:0:
256,192,112800,12,8,114000,0:0:0:0:
92,64,115200,6,0,P|212:48|300:60,1,210.000008010865,8|0,0:0|0:0,0:0:0:0:
304,144,115650,1,0,0:0:0:0:
380,156,115800,2,0,P|440:280|432:348,1,210.000008010865,8|0,0:0|0:0,0:0:0:0:
292,316,116400,1,8,0:0:0:0:
268,228,116550,1,0,0:0:0:0:
352,240,116700,1,0,0:0:0:0:
160,80,117000,6,0,P|152:200|176:312,1,210.000008010865,8|0,0:0|0:0,0:0:0:0:
224,344,117450,1,0,0:0:0:0:
264,272,117600,2,0,P|164:200|64:200,1,210.000008010865,8|0,0:0|0:0,0:0:0:0:
64,116,118050,1,0,0:0:0:0:
136,84,118200,2,0,P|180:244|144:308,1,210.000008010865,8|0,0:0|0:0,0:0:0:0:
320,112,118800,5,8,0:0:0:0:
300,192,118950,1,0,0:0:0:0:
376,180,119100,1,0,0:0:0:0:
252,304,119400,2,0,P|192:212|184:104,1,210.000008010865,8|0,0:0|0:0,0:0:0:0:
340,80,120000,5,8,0:0:0:0:
456,164,120200,1,0,0:0:0:0:
444,196,120300,1,0,0:0:0:0:
424,216,120400,1,0,0:0:0:0:
396,236,120500,1,0,0:0:0:0:
372,252,120600,2,0,P|252:296|140:292,1,210.000008010865,8|0,0:0|0:0,0:0:0:0:
152,240,121200,1,8,0:0:0:0:
192,168,121350,1,0,0:0:0:0:
236,236,121500,1,0,0:0:0:0:
256,84,121800,6,0,P|352:144|384:256,1,210.000008010865,8|0,0:0|0:0,0:0:0:0:
292,256,122250,1,0,0:0:0:0:
256,192,122400,12,8,124200,0:0:0:0:
