osu file format v14

[General]
AudioFilename: audio.mp3
AudioLeadIn: 0
PreviewTime: 15236
Countdown: 0
SampleSet: Soft
StackLeniency: 0.7
Mode: 0
LetterboxInBreaks: 0
WidescreenStoryboard: 0

[Editor]
Bookmarks: 7916,15596,23276,30956,38636
DistanceSpacing: 1.8
BeatDivisor: 4
GridSize: 32
TimelineZoom: 1.9

[Metadata]
Title:MY REZHEM KINOLENTY (feat. Cut The Crap)
TitleUnicode:МЫ РЕЖЕМ КИНОЛЕНТЫ (feat. Cut The Crap)
Artist:55x55
ArtistUnicode:55x55
Creator:Shmiklak
Version:CUT THE HARD
Source:
Tags:marvollo m_a_r_v_o_l_l_o a_r_m_i_n armin russian русский
BeatmapID:1712012
BeatmapSetID:816264

[Difficulty]
HPDrainRate:5
CircleSize:4
OverallDifficulty:5.5
ApproachRate:6.5
SliderMultiplier:1.75
SliderTickRate:1

[Events]
//Background and Video events
0,0,"bg.jpg",0,0
//Break Periods
//Storyboard Layer 0 (Background)
//Storyboard Layer 1 (Fail)
//Storyboard Layer 2 (Pass)
//Storyboard Layer 3 (Foreground)
//Storyboard Sound Samples

[TimingPoints]
236,480,4,2,1,80,1,0
13676,-100,4,2,1,70,0,0
15596,-100,4,2,1,65,0,0
23276,-100,4,2,1,70,0,0
24236,-100,4,2,1,75,0,0
25196,-100,4,2,1,80,0,0
26156,-100,4,2,1,85,0,0
27116,-100,4,2,1,90,0,0
29036,-100,4,2,1,70,0,0
30476,-100,4,2,1,65,0,0
30956,-100,4,2,1,80,0,1
44396,-100,4,2,1,80,0,0
45596,-133.333333333333,4,2,1,80,0,0
45836,-100,4,2,1,5,0,0

[Colours]
Combo1 : 145,229,103
Combo2 : 255,213,128
Combo3 : 242,121,97
Combo4 : 255,140,179
Combo5 : 187,103,229
Combo6 : 140,236,255

[HitObjects]
171,49,7916,6,0,L|171:161,1,87.5,2|0,0:3|0:0,0:0:0:0:
171,241,8396,1,8,0:3:0:0:
171,241,8876,1,2,0:3:0:0:
273,258,9116,1,2,0:0:0:0:
203,336,9356,2,0,P|151:339|107:321,1,87.5,8|0,0:3|0:0,0:0:0:0:
282,351,9836,6,0,P|323:338|366:342,1,87.5,2|2,0:3|0:0,0:0:0:0:
459,293,10316,1,8,0:3:0:0:
372,232,10556,1,0,0:0:0:0:
446,157,10796,2,0,P|447:95|439:63,1,87.5,2|2,0:3|0:0,0:0:0:0:
348,19,11276,2,0,P|286:18|254:26,1,87.5,8|0,0:3|0:0,0:0:0:0:
168,162,11756,6,0,L|263:154,1,87.5,2|0,0:3|0:0,0:0:0:0:
329,228,12236,1,8,0:3:0:0:
329,228,12716,1,2,0:3:0:0:
403,153,12956,1,2,0:0:0:0:
477,227,13196,2,0,L|468:325,1,87.5,8|0,0:3|0:0,0:0:0:0:
505,151,13676,6,0,L|497:63,2,87.5,10|0|8,0:0|0:0|0:0,0:0:0:0:
477,227,14396,1,0,0:0:0:0:
407,189,14636,2,0,P|357:184|316:189,1,87.5,10|0,0:0|0:0,0:0:0:0:
262,241,15116,2,0,P|274:265|283:295,2,58.3333333333333,8|0|0,0:0|0:0|0:0,0:0:0:0:
174,182,15596,6,0,L|78:169,1,87.5,2|0,0:1|0:1,0:1:0:0:
36,110,16076,2,0,P|80:89|121:96,1,87.5,8|0,0:0|0:0,0:0:0:0:
194,112,16556,2,0,P|244:123|288:109,1,87.5,4|0,0:3|0:0,0:0:0:0:
356,124,17036,2,0,L|348:30,1,87.5,8|0,0:0|0:0,0:0:0:0:
426,22,17516,6,0,P|471:35|513:31,2,87.5,2|0|8,0:1|0:0|0:0,0:0:0:0:
348,36,18236,1,0,0:0:0:0:
397,96,18476,2,0,P|411:151|414:188,1,87.5,4|0,0:3|0:0,0:0:0:0:
350,228,18956,2,0,P|306:222|264:211,1,87.5,8|0,0:0|0:0,0:0:0:0:
166,334,19436,6,0,L|263:327,1,87.5,2|0,0:1|0:0,0:0:0:0:
326,361,19916,1,8,0:0:0:0:
374,298,20156,1,0,0:0:0:0:
310,250,20396,2,0,P|303:208|300:145,1,87.5,4|0,0:3|0:0,0:0:0:0:
322,87,20876,1,8,0:0:0:0:
268,29,21116,1,0,0:0:0:0:
211,83,21356,6,0,P|129:63|35:112,1,175,2|8,0:1|0:0,0:0:0:0:
11,167,22076,1,0,0:0:0:0:
47,236,22316,2,0,L|141:224,1,87.5,4|0,0:3|0:0,0:0:0:0:
197,177,22796,2,0,L|291:189,1,87.5,8|4,0:0|0:3,0:0:0:0:
408,301,23276,6,0,P|361:297|317:311,1,87.5,8|0,1:2|0:0,0:0:0:0:
231,361,23756,2,0,P|184:365|140:351,1,87.5,8|0,0:2|0:0,0:0:0:0:
57,296,24236,6,0,P|53:249|67:205,1,87.5,8|0,1:2|0:0,0:0:0:0:
117,119,24716,2,0,P|121:72|107:28,1,87.5,8|0,0:0|0:0,0:0:0:0:
191,181,25196,6,0,L|298:174,1,87.5,8|0,1:2|0:0,0:0:0:0:
374,217,25676,2,0,L|461:222,1,87.5,8|0,0:0|0:0,0:0:0:0:
471,328,26156,6,0,L|383:333,1,87.5,8|0,1:2|0:0,0:0:0:0:
290,380,26636,2,0,L|202:374,1,87.5,8|0,0:0|0:0,0:0:0:0:
256,192,27116,12,2,29036,0:0:0:0:
431,49,30476,5,0,3:0:0:0:
431,49,30716,1,0,3:0:0:0:
272,107,30956,6,0,P|274:149|265:199,1,87.5,6|0,0:0|0:0,0:0:0:0:
181,255,31436,1,8,1:1:0:0:
101,185,31676,1,0,0:0:0:0:
66,284,31916,2,0,L|71:378,2,87.5,2|0|8,0:1|0:0|1:1,0:0:0:0:
279,28,32876,6,0,P|332:21|371:26,1,87.5,2|0,0:1|0:0,0:0:0:0:
442,96,33356,1,8,1:1:0:0:
345,138,33596,1,0,0:0:0:0:
244,107,33836,1,2,0:1:0:0:
176,187,34076,1,0,0:0:0:0:
259,250,34316,2,0,P|312:248|358:220,1,87.5,8|0,1:1|0:0,0:0:0:0:
505,200,34796,6,0,P|513:257|507:310,1,87.5,2|0,0:1|0:0,0:0:0:0:
424,346,35276,1,8,1:1:0:0:
320,330,35516,1,0,0:0:0:0:
223,370,35756,2,0,L|133:358,2,87.5,2|0|8,0:1|0:0|1:1,0:0:0:0:
329,55,36716,6,0,P|270:73|231:71,1,87.5,2|0,0:1|0:0,0:0:0:0:
139,69,37196,1,8,1:1:0:0:
53,129,37436,1,0,0:0:0:0:
130,196,37676,1,2,0:1:0:0:
47,260,37916,1,0,0:0:0:0:
162,356,38156,5,8,3:1:0:0:
130,196,38396,1,0,3:0:0:0:
278,274,38636,6,0,P|319:275|366:266,1,87.5,2|0,0:1|0:0,0:0:0:0:
442,196,39116,1,8,1:1:0:0:
361,129,39356,1,0,0:0:0:0:
420,42,39596,2,0,L|512:52,2,87.5,2|0|8,0:1|0:0|1:1,0:0:0:0:
154,235,40556,6,0,P|147:182|152:143,1,87.5,2|0,0:1|0:0,0:0:0:0:
213,65,41036,1,8,1:1:0:0:
246,164,41276,1,0,0:0:0:0:
326,96,41516,1,2,0:1:0:0:
342,199,41756,1,0,0:0:0:0:
431,144,41996,2,0,P|448:104|447:61,1,87.5,8|0,1:1|0:0,0:0:0:0:
451,226,42476,6,0,P|433:265|434:308,1,87.5,2|0,0:1|0:0,0:0:0:0:
351,373,42956,1,8,1:1:0:0:
278,297,43196,1,0,0:0:0:0:
203,370,43436,1,2,0:1:0:0:
132,292,43676,1,0,0:0:0:0:
207,219,43916,2,0,P|213:162|205:117,1,87.5,8|0,1:1|0:0,0:0:0:0:
325,26,44396,6,0,P|380:34|412:46,1,87.5,2|0,3:2|3:2,0:0:0:0:
478,125,44876,1,0,3:3:0:0:
402,196,45116,1,0,3:2:0:0:
402,196,45236,1,0,3:2:0:0:
402,196,45356,1,2,3:2:0:0:
474,273,45596,1,0,3:0:0:0:
