osu file format v14

[General]
AudioFilename: audio.mp3
AudioLeadIn: 0
PreviewTime: 28876
Countdown: 0
SampleSet: Normal
StackLeniency: 0.7
Mode: 1
LetterboxInBreaks: 0
WidescreenStoryboard: 1

[Editor]
Bookmarks: 7916
DistanceSpacing: 1.3
BeatDivisor: 2
GridSize: 32
TimelineZoom: 2

[Metadata]
Title:MY REZHEM KINOLENTY (feat. Cut The Crap) (Cut Ver.)
TitleUnicode:МЫ РЕЖЕМ КИНОЛЕНТЫ (feat. Cut The Crap) (Cut Ver.)
Artist:55x55
ArtistUnicode:55x55
Creator:-Flashlight-
Version:CUT THE KANTAN
Source:
Tags:electronic russian русский house novelty
BeatmapID:3605940
BeatmapSetID:1761797

[Difficulty]
HPDrainRate:10
CircleSize:5
OverallDifficulty:2
ApproachRate:5
SliderMultiplier:1.4
SliderTickRate:1

[Events]
//Background and Video events
0,0,"bg.jpg",0,80
//Break Periods
//Storyboard Layer 0 (Background)
//Storyboard Layer 1 (Fail)
//Storyboard Layer 2 (Pass)
//Storyboard Layer 3 (Foreground)
//Storyboard Layer 4 (Overlay)
//Storyboard Sound Samples

[TimingPoints]
236,480,4,1,0,75,1,0
236,-100,4,1,0,75,0,0
15536,-100,4,1,0,80,0,0
23216,-100,4,1,0,85,0,0
28976,-100,4,1,0,70,0,0
30896,-100,4,1,0,95,0,0
30956,-100,4,1,0,95,0,1
38156,-100,4,1,0,95,0,0
38636,-100,4,1,0,95,0,1
44336,-100,4,1,0,75,0,1
44396,-100,4,1,0,75,0,0

[HitObjects]
256,192,7916,5,0,0:0:0:0:
256,192,8876,1,8,0:0:0:0:
256,192,9836,1,8,0:0:0:0:
256,192,10796,1,8,0:0:0:0:
256,192,11756,1,0,0:0:0:0:
256,192,12716,1,8,0:0:0:0:
256,192,13676,1,8,0:0:0:0:
256,192,15596,1,0,0:0:0:0:
256,192,16076,1,0,0:0:0:0:
256,192,16556,1,8,0:0:0:0:
256,192,17516,1,0,0:0:0:0:
256,192,18476,1,8,0:0:0:0:
256,192,19436,1,0,0:0:0:0:
256,192,19916,1,8,0:0:0:0:
256,192,20396,1,8,0:0:0:0:
256,192,21356,1,0,0:0:0:0:
256,192,22316,1,8,0:0:0:0:
256,192,23276,1,0,0:0:0:0:
256,192,23756,1,8,0:0:0:0:
256,192,24236,1,0,0:0:0:0:
256,192,25196,1,8,0:0:0:0:
256,192,25676,1,8,0:0:0:0:
256,192,26156,1,0,0:0:0:0:
256,192,27116,1,0,0:0:0:0:
256,192,27596,1,0,0:0:0:0:
256,192,28076,1,8,0:0:0:0:
256,192,28556,1,8,0:0:0:0:
256,192,29036,1,0,0:0:0:0:
256,192,30956,1,4,0:0:0:0:
256,192,31436,1,8,0:0:0:0:
256,192,31916,1,8,0:0:0:0:
256,192,32876,1,8,0:0:0:0:
256,192,33356,1,0,0:0:0:0:
256,192,33836,1,0,0:0:0:0:
256,192,34796,1,0,0:0:0:0:
256,192,35276,1,8,0:0:0:0:
256,192,35756,1,8,0:0:0:0:
256,192,36236,1,0,0:0:0:0:
256,192,36716,1,8,0:0:0:0:
256,192,37676,1,8,0:0:0:0:
256,192,38636,1,4,0:0:0:0:
256,192,39116,1,8,0:0:0:0:
256,192,39596,1,8,0:0:0:0:
256,192,40076,1,0,0:0:0:0:
256,192,40556,1,8,0:0:0:0:
256,192,41036,1,8,0:0:0:0:
256,192,41516,1,0,0:0:0:0:
256,192,42476,1,0,0:0:0:0:
256,192,42956,1,8,0:0:0:0:
256,192,43436,1,8,0:0:0:0:
256,192,43916,1,8,0:0:0:0:
256,192,44396,1,0,0:0:0:0:
256,192,44876,1,0,0:0:0:0:
256,192,45356,1,0,0:0:0:0:
