osu file format v14

[General]
AudioFilename: audio.mp3
AudioLeadIn: 0
PreviewTime: 17332
Countdown: 0
SampleSet: Soft
StackLeniency: 0.7
Mode: 0
LetterboxInBreaks: 0
WidescreenStoryboard: 0

[Editor]
Bookmarks: 8810,34992,50264
DistanceSpacing: 1.3
BeatDivisor: 12
GridSize: 4
TimelineZoom: 1.9

[Metadata]
Title:MUZYKA NE MUZYKANTA 2 (feat. Snailkick)
TitleUnicode:МУЗЫКА НЕ МУЗЫКАНТА 2 (feat. Snailkick)
Artist:55x55
ArtistUnicode:55x55
Creator:Shmiklak
Version:HARDKICK
Source:
Tags:snailkick снейлкик максим киселёв youtube youtuber bnb бнб блог не блоггера головные мюсли bad room russian русский marvollo m_a_r_v_o_l_l_o armin a_r_m_i_n
BeatmapID:1322346
BeatmapSetID:627526

[Difficulty]
HPDrainRate:5
CircleSize:4
OverallDifficulty:6
ApproachRate:7
SliderMultiplier:1.8
SliderTickRate:1

[Events]
//Background and Video events
0,0,"i agree with preview point.jpg",0,0
//Break Periods
2,15555,16637
2,33010,34092
//Storyboard Layer 0 (Background)
//Storyboard Layer 1 (Fail)
//Storyboard Layer 2 (Pass)
//Storyboard Layer 3 (Foreground)
//Storyboard Sound Samples

[TimingPoints]
82,545.454545454546,4,2,0,80,1,0
34991,-100,4,2,0,80,0,1
50263,-100,4,2,0,80,0,0

[Colours]
Combo1 : 0,128,192
Combo2 : 227,202,153
Combo3 : 180,44,139

[HitObjects]
12,136,8810,6,0,L|112:128,1,90,6|0,0:0|0:0,0:0:0:0:
186,165,9355,2,0,L|303:169,1,90,8|0,0:0|0:0,0:0:0:0:
360,140,9901,1,2,0:0:0:0:
376,52,10173,1,0,0:0:0:0:
440,116,10446,2,0,P|456:168|448:216,1,90,8|0,0:0|0:0,0:0:0:0:
384,308,10992,5,8,0:3:0:0:
320,244,11264,1,0,0:0:0:0:
256,307,11537,1,8,0:0:0:0:
192,243,11810,1,0,0:0:0:0:
128,306,12082,2,0,P|63:311|29:300,1,90,2|0,0:0|0:0,0:0:0:0:
8,220,12628,2,0,L|14:121,1,90,8|0,0:0|0:0,0:0:0:0:
124,68,13172,5,8,0:3:0:0:
96,156,13446,1,0,0:0:0:0:
124,240,13719,1,8,0:0:0:0:
212,256,13992,1,0,0:0:0:0:
288,208,14264,1,2,0:0:0:0:
292,116,14537,1,0,0:0:0:0:
332,36,14810,2,0,P|392:32|432:40,1,90,8|0,0:0|0:0,0:0:0:0:
421,36,15355,5,2,0:0:0:0:
244,348,17537,6,0,L|144:344,1,90,6|0,0:0|0:0,0:0:0:0:
103,269,18082,2,0,L|203:265,1,90,8|0,0:0|0:0,0:0:0:0:
240,188,18628,2,0,L|140:184,1,90,2|0,0:0|0:0,0:0:0:0:
99,109,19173,2,0,L|199:105,1,90,8|0,0:0|0:0,0:0:0:0:
300,44,19719,5,8,0:3:0:0:
300,44,19855,1,0,0:0:0:0:
300,44,19992,1,0,0:0:0:0:
363,107,20264,2,0,L|463:99,1,90,8|0,0:0|0:0,0:0:0:0:
500,176,20810,2,0,P|502:227|492:276,1,90,2|0,0:0|0:0,0:0:0:0:
472,304,21219,1,0,0:0:0:0:
444,340,21355,2,0,L|344:332,1,90,8|0,0:0|0:0,0:0:0:0:
264,243,21901,6,0,L|156:248,1,90,8|0,0:3|0:0,0:0:0:0:
110,183,22446,2,0,P|104:128|112:84,1,90,8|0,0:0|0:0,0:0:0:0:
24,60,22992,2,0,P|30:115|22:159,1,90,2|0,0:0|0:0,0:0:0:0:
12,240,23537,2,0,P|17:282|32:340,1,90,8|0,0:0|0:0,0:0:0:0:
64,356,23946,1,0,0:0:0:0:
108,364,24082,6,0,L|208:352,1,90,8|0,0:3|0:0,0:0:0:0:
274,306,24628,2,0,L|374:318,1,90,8|0,0:0|0:0,0:0:0:0:
444,352,25173,1,2,0:0:0:0:
471,266,25446,1,0,0:0:0:0:
471,266,25582,1,0,0:0:0:0:
471,266,25719,2,0,P|469:215|463:166,1,90,8|0,0:0|0:0,0:0:0:0:
375,87,26264,6,0,L|276:80,1,90,8|0,0:3|0:0,0:0:0:0:
252,164,26810,2,0,L|351:157,1,90,8|0,0:0|0:0,0:0:0:0:
364,244,27355,2,0,L|265:237,1,90,2|0,0:0|0:0,0:0:0:0:
241,321,27901,2,0,L|340:314,1,90,8|0,0:0|0:0,0:0:0:0:
452,352,28446,5,8,0:3:0:0:
420,268,28719,1,0,0:0:0:0:
480,200,28992,2,0,P|488:144|472:100,1,90,8|0,0:0|0:0,0:0:0:0:
432,36,29537,1,2,0:0:0:0:
360,88,29810,1,0,0:0:0:0:
284,44,30082,2,0,P|228:32|188:44,1,90,8|0,0:0|0:0,0:0:0:0:
80,84,30627,6,0,P|77:125|76:184,1,90,8|0,0:3|0:0,0:0:0:0:
84,264,31173,1,8,0:0:0:0:
140,348,31446,1,0,0:0:0:0:
140,348,31582,1,0,0:0:0:0:
140,348,31719,1,2,0:0:0:0:
228,360,31992,1,0,0:0:0:0:
296,300,32264,2,0,P|333:278|404:280,1,90,8|0,0:0|0:0,0:0:0:0:
379,273,32810,5,2,0:0:0:0:
340,80,34992,6,0,L|336:172,1,90,6|0,0:0|0:0,0:0:0:0:
416,212,35537,2,0,P|426:164|412:120,1,90,8|0,0:0|0:0,0:0:0:0:
340,80,36082,1,2,0:0:0:0:
260,120,36355,1,0,0:0:0:0:
184,72,36628,2,0,L|80:68,1,90,8|0,0:0|0:0,0:0:0:0:
56,188,37172,6,0,L|160:180,1,90,8|0,0:3|0:0,0:0:0:0:
220,232,37719,2,0,L|320:240,1,90,8|0,0:0|0:0,0:0:0:0:
380,292,38264,1,2,0:0:0:0:
456,244,38537,1,0,0:0:0:0:
428,160,38810,2,0,P|424:108|436:64,1,90,8|0,0:0|0:0,0:0:0:0:
324,136,39354,5,8,0:3:0:0:
328,224,39627,1,0,0:0:0:0:
284,288,39810,1,0,0:0:0:0:
262,309,39901,2,0,L|154:306,1,90,8|0,0:0|0:0,0:0:0:0:
108,244,40446,1,2,0:0:0:0:
160,168,40719,1,0,0:0:0:0:
105,96,40992,2,0,L|16:88,1,90,8|0,0:0|0:0,0:0:0:0:
120,20,41536,5,8,0:3:0:0:
212,16,41809,1,0,0:0:0:0:
267,71,41992,1,0,0:0:0:0:
267,71,42082,2,0,P|300:73|364:72,1,90,8|0,0:0|0:0,0:0:0:0:
412,127,42536,2,0,P|415:145|412:163,1,30,0|2,0:0|0:0,0:0:0:0:
360,216,42809,2,0,P|357:234|360:252,1,30
388,332,43173,2,0,L|484:324,1,90,8|0,0:0|0:0,0:0:0:0:
508,200,43719,6,0,L|504:108,1,90,8|0,0:3|0:0,0:0:0:0:
428,64,44264,2,0,P|380:54|336:68,1,90,8|0,0:0|0:0,0:0:0:0:
268,120,44810,1,2,0:0:0:0:
197,66,45082,1,0,0:0:0:0:
133,129,45355,2,0,L|129:233,1,90,8|0,0:0|0:0,0:0:0:0:
218,308,45900,6,0,L|322:300,1,90,8|0,0:3|0:0,0:0:0:0:
368,232,46446,2,0,L|272:224,1,90,8|0,0:0|0:0,0:0:0:0:
212,164,46991,1,2,0:0:0:0:
216,72,47264,1,0,0:0:0:0:
296,36,47537,2,0,P|348:32|392:44,1,90,8|0,0:0|0:0,0:0:0:0:
460,144,48082,5,8,0:3:0:0:
372,140,48354,1,0,0:0:0:0:
324,200,48537,1,0,0:0:0:0:
303,222,48628,2,0,L|306:330,1,90,8|0,0:0|0:0,0:0:0:0:
220,344,49173,1,2,0:0:0:0:
135,310,49446,1,0,0:0:0:0:
104,224,49719,2,0,P|104:180|112:135,1,90,8|0,0:0|0:0,0:0:0:0:
256,192,50264,12,0,52173,0:0:0:0:
