osu file format v14

[General]
AudioFilename: audio.mp3
AudioLeadIn: 0
PreviewTime: 47689
Countdown: 0
SampleSet: Soft
StackLeniency: 0.7
Mode: 0
LetterboxInBreaks: 0
WidescreenStoryboard: 1

[Editor]
Bookmarks: 18508,31948,49249,56929,58849
DistanceSpacing: 1.2
BeatDivisor: 4
GridSize: 4
TimelineZoom: 0.6999998

[Metadata]
Title:MUZYKA NE MUZYKANTA (feat. Snailkick)
TitleUnicode:МУЗЫКА НЕ МУЗЫКАНТА (feat. Snailkick)
Artist:55x55
ArtistUnicode:55x55
Creator:Shmiklak
Version:NORMALKICK
Source:
Tags:snailkick снейлкик максим киселёв youtube youtuber bnb бнб блог не блоггера головные мюсли bad room russian русский marvollo m_a_r_v_o_l_l_o armin a_r_m_i_n
BeatmapID:1324201
BeatmapSetID:627629

[Difficulty]
HPDrainRate:2
CircleSize:3
OverallDifficulty:3
ApproachRate:4
SliderMultiplier:1.4
SliderTickRate:1

[Events]
//Background and Video events
0,0,"i agree with preview point.jpg",0,0
//Break Periods
2,49249,55609
//Storyboard Layer 0 (Background)
//Storyboard Layer 1 (Fail)
//Storyboard Layer 2 (Pass)
//Storyboard Layer 3 (Foreground)
//Storyboard Sound Samples

[TimingPoints]
7050,333.333333333333,4,2,0,75,1,0
8827,333.333333333333,4,2,0,75,1,0
9660,333.333333333333,4,2,0,75,1,0
12346,333.333333333333,4,2,0,75,1,0
18529,480,4,2,0,75,1,0
79969,-100,4,2,0,75,0,1
93409,-100,4,2,0,75,0,0

[Colours]
Combo1 : 0,128,192
Combo2 : 227,202,153
Combo3 : 180,44,139

[HitObjects]
236,88,18529,5,2,0:0:0:0:
354,206,19009,2,0,P|361:244|366:286,1,70,8|0,0:0|0:0,0:0:0:0:
312,340,19489,2,0,P|260:344|220:336,1,70,2|0,0:0|0:0,0:0:0:0:
162,316,19969,2,0,P|110:312|70:320,1,70,8|0,0:0|0:0,0:0:0:0:
20,356,20449,5,2,0:0:0:0:
80,200,20929,2,0,P|84:148|80:124,1,70,8|0,0:0|0:0,0:0:0:0:
123,57,21409,2,0,P|163:45|199:45,1,70,2|0,0:0|0:0,0:0:0:0:
268,76,21889,2,0,P|320:80|352:68,1,70,8|0,0:0|0:0,0:0:0:0:
412,36,22369,5,2,0:0:0:0:
332,184,22849,2,0,P|324:223|324:264,1,70,8|0,0:0|0:0,0:0:0:0:
364,324,23329,2,0,P|398:325|433:332,1,70,2|0,0:0|0:0,0:0:0:0:
492,272,23809,2,0,P|484:237|482:202,1,70,8|0,0:0|0:0,0:0:0:0:
423,143,24289,5,2,0:0:0:0:
269,210,24769,2,0,L|176:208,1,70,8|0,0:0|0:0,0:0:0:0:
192,124,25249,2,0,L|285:122,1,70,2|0,0:0|0:0,0:0:0:0:
292,44,25729,2,0,L|222:42,1,70,8|0,0:0|0:0,0:0:0:0:
140,44,26209,5,2,0:0:0:0:
52,188,26689,2,0,P|40:228|36:264,1,70,8|0,0:0|0:0,0:0:0:0:
68,332,27169,2,0,L|148:324,1,70,2|0,0:0|0:0,0:0:0:0:
216,296,27649,2,0,L|296:304,1,70,8|0,0:0|0:0,0:0:0:0:
360,344,28129,5,2,0:0:0:0:
460,208,28609,2,0,L|456:128,1,70,8|0,0:0|0:0,0:0:0:0:
375,116,29089,2,0,L|371:196,1,70,2|0,0:0|0:0,0:0:0:0:
293,153,29569,2,0,L|289:73,1,70,8|0,0:0|0:0,0:0:0:0:
230,23,30049,5,2,0:0:0:0:
152,172,30529,2,0,P|108:172|64:168,1,70,8|0,0:0|0:0,0:0:0:0:
52,92,31009,2,0,P|96:92|140:88,1,70,2|0,0:0|0:0,0:0:0:0:
188,36,31489,2,0,P|232:36|276:40,1,70,8|0,0:0|0:0,0:0:0:0:
317,97,31969,6,0,P|281:222|376:320,1,280,2|2,0:0|0:0,0:0:0:0:
376,320,33889,6,0,L|224:316,1,140,2|8,0:0|0:0,0:0:0:0:
132,184,34849,2,0,L|284:180,1,140,2|8,0:0|0:0,0:0:0:0:
316,108,35569,1,0,0:0:0:0:
375,167,35809,6,0,B|384:264|384:264|356:312,1,140,2|8,0:0|0:0,0:0:0:0:
304,360,36529,1,0,0:0:0:0:
224,332,36769,2,0,P|189:326|140:328,1,70,2|0,0:0|0:0,0:0:0:0:
72,336,37249,2,0,P|44:292|40:260,1,70,8|0,0:0|0:0,0:0:0:0:
48,192,37729,5,2,0:0:0:0:
108,132,37969,2,0,P|107:98|100:48,2,70,0|8|0,0:0|0:0|0:0,0:0:0:0:
167,191,38689,2,0,L|243:187,1,70,2|0,0:0|0:0,0:0:0:0:
306,140,39169,2,0,L|382:144,1,70,8|0,0:0|0:0,0:0:0:0:
435,203,39649,5,2,0:0:0:0:
375,262,39889,2,0,L|288:272,2,70,0|8|0,0:0|0:0|0:0,0:0:0:0:
434,321,40609,2,0,L|521:331,2,70,2|0|8,0:0|0:0|0:0,0:0:0:0:
272,272,41569,6,0,L|276:120,1,140,2|8,0:0|0:0,0:0:0:0:
408,28,42529,2,0,L|412:180,1,140,2|8,0:0|0:0,0:0:0:0:
484,212,43249,1,0,0:0:0:0:
424,272,43489,6,0,B|327:281|327:281|279:253,1,140,2|8,0:0|0:0,0:0:0:0:
240,192,44209,1,0,0:0:0:0:
292,124,44449,2,0,P|298:89|296:40,1,70,2|0,0:0|0:0,0:0:0:0:
220,24,44929,2,0,L|140:32,1,70,8|0,0:0|0:0,0:0:0:0:
90,90,45409,5,2,0:0:0:0:
80,172,45649,2,0,P|74:210|76:248,2,70,0|8|0,0:0|0:0|0:0,0:0:0:0:
158,143,46369,2,0,L|234:139,1,70,2|0,0:0|0:0,0:0:0:0:
287,198,46849,2,0,L|363:202,1,70,8|0,0:0|0:0,0:0:0:0:
436,176,47329,5,2,0:0:0:0:
72,144,56929,6,0,L|240:136,3,140,2|8|2|8,0:0|0:0|0:0|0:0,0:0:0:0:
330,256,58849,6,0,L|162:248,3,140,2|8|2|8,0:0|0:0|0:0|0:0,0:0:0:0:
256,192,60769,12,0,63649,0:0:0:0:
112,56,64609,6,0,L|104:208,1,140,2|8,0:0|0:0,0:0:0:0:
223,314,65569,2,0,P|259:320|296:311,1,70,2|0,0:0|0:0,0:0:0:0:
363,269,66049,2,0,P|399:263|436:272,1,70,8|0,0:0|0:0,0:0:0:0:
496,328,66529,5,2,0:0:0:0:
436,172,67009,1,8,0:0:0:0:
276,220,67489,2,0,P|243:219|180:216,1,70,2|0,0:0|0:0,0:0:0:0:
179,137,67969,2,0,P|211:136|275:133,1,70,8|0,0:0|0:0,0:0:0:0:
308,75,68449,6,0,L|448:60,1,140,2|8,0:0|0:0,0:0:0:0:
400,220,69409,2,0,P|402:258|408:296,1,70,2|0,0:0|0:0,0:0:0:0:
484,256,69889,2,0,P|488:221|490:186,1,70,8|0,0:0|0:0,0:0:0:0:
468,104,70369,5,2,0:0:0:0:
324,192,70849,1,8,0:0:0:0:
192,88,71329,1,2,0:0:0:0:
192,88,71569,2,0,P|159:88|112:96,1,70,0|0,0:0|0:0,0:0:0:0:
64,252,72289,6,0,L|216:228,1,140,2|8,0:0|0:0,0:0:0:0:
364,276,73249,2,0,L|452:276,1,70,2|0,0:0|0:0,0:0:0:0:
432,192,73729,2,0,L|344:192,1,70,8|0,0:0|0:0,0:0:0:0:
302,132,74209,6,0,L|144:132,1,140,2|8,0:0|0:0,0:0:0:0:
79,278,75169,2,0,L|219:278,1,140,2|8,0:0|0:0,0:0:0:0:
278,337,75889,1,0,0:0:0:0:
337,277,76129,6,0,L|484:276,1,140,2|8,0:0|0:0,0:0:0:0:
358,157,77089,2,0,L|276:156,1,70,2|0,0:0|0:0,0:0:0:0:
228,96,77569,2,0,L|146:95,1,70,8|0,0:0|0:0,0:0:0:0:
98,154,78049,5,2,0:0:0:0:
98,154,79969,6,0,P|172:148|250:158,1,140,2|8,0:0|0:0,0:0:0:0:
356,272,80929,2,0,P|284:261|204:276,1,140,2|8,0:0|0:0,0:0:0:0:
148,316,81649,1,0,0:0:0:0:
80,264,81889,6,0,B|71:167|71:167|99:119,1,140,2|8,0:0|0:0,0:0:0:0:
168,92,82609,1,0,0:0:0:0:
244,56,82849,2,0,L|344:40,1,70,2|0,0:0|0:0,0:0:0:0:
380,92,83329,2,0,L|472:104,1,70,8|0,0:0|0:0,0:0:0:0:
500,168,83809,5,2,0:0:0:0:
452,240,84049,2,0,P|453:274|460:324,2,70,0|8|0,0:0|0:0|0:0,0:0:0:0:
376,204,84769,2,0,L|300:208,1,70,2|0,0:0|0:0,0:0:0:0:
240,260,85249,2,0,L|164:256,1,70,8|0,0:0|0:0,0:0:0:0:
108,204,85729,5,2,0:0:0:0:
160,136,85969,2,0,P|194:133|247:126,2,70,0|8|0,0:0|0:0|0:0,0:0:0:0:
92,84,86689,2,0,P|57:81|5:74,2,70,2|0|8,0:0|0:0|0:0,0:0:0:0:
180,224,87649,6,0,P|265:224|331:206,1,140,2|8,0:0|0:0,0:0:0:0:
472,280,88609,2,0,P|387:280|321:298,1,140,2|8,0:0|0:0,0:0:0:0:
260,332,89329,1,0,0:0:0:0:
204,268,89569,6,0,B|195:171|195:171|223:123,1,140,2|8,0:0|0:0,0:0:0:0:
292,92,90289,1,0,0:0:0:0:
348,156,90529,2,0,P|354:191|352:240,1,70,2|0,0:0|0:0,0:0:0:0:
380,304,91009,2,0,L|460:296,1,70,8|0,0:0|0:0,0:0:0:0:
512,240,91489,5,2,0:0:0:0:
464,172,91729,2,0,P|470:134|468:96,2,70,0|8|0,0:0|0:0|0:0,0:0:0:0:
392,217,92449,2,0,L|316:221,1,70,2|0,0:0|0:0,0:0:0:0:
242,194,92929,2,0,L|166:190,1,70,8|0,0:0|0:0,0:0:0:0:
256,192,93409,12,0,95089,0:0:0:0:
