osu file format v14

[General]
AudioFilename: audio.mp3
AudioLeadIn: 0
PreviewTime: 47689
Countdown: 0
SampleSet: Soft
StackLeniency: 0.7
Mode: 0
LetterboxInBreaks: 0
WidescreenStoryboard: 0

[Editor]
Bookmarks: 18508,31948,49249,56929,58849
DistanceSpacing: 1.2
BeatDivisor: 4
GridSize: 4
TimelineZoom: 0.6999998

[Metadata]
Title:MUZYKA NE MUZYKANTA (feat. Snailkick)
TitleUnicode:МУЗЫКА НЕ МУЗЫКАНТА (feat. Snailkick)
Artist:55x55
ArtistUnicode:55x55
Creator:Shmiklak
Version:HARDKICK
Source:
Tags:snailkick снейлкик максим киселёв youtube youtuber bnb бнб блог не блоггера головные мюсли bad room russian русский marvollo m_a_r_v_o_l_l_o armin a_r_m_i_n
BeatmapID:1322507
BeatmapSetID:627629

[Difficulty]
HPDrainRate:5
CircleSize:4
OverallDifficulty:6
ApproachRate:7
SliderMultiplier:1.6
SliderTickRate:1

[Events]
//Background and Video events
0,0,"i agree with preview point.jpg",0,0
//Break Periods
2,49249,56029
//Storyboard Layer 0 (Background)
//Storyboard Layer 1 (Fail)
//Storyboard Layer 2 (Pass)
//Storyboard Layer 3 (Foreground)
//Storyboard Sound Samples

[TimingPoints]
7050,333.333333333333,4,2,0,75,1,0
8827,333.333333333333,4,2,0,75,1,0
9660,333.333333333333,4,2,0,75,1,0
12346,333.333333333333,4,2,0,75,1,0
18529,480,4,2,0,75,1,0
79969,-100,4,2,0,75,0,1
93409,-100,4,2,0,75,0,0

[Colours]
Combo1 : 0,128,192
Combo2 : 227,202,153
Combo3 : 180,44,139

[HitObjects]
356,68,18529,6,0,P|399:65|444:64,1,80,2|0,0:0|0:0,0:0:0:0:
412,160,19009,2,0,P|369:158|324:156,1,80,8|0,0:0|0:0,0:0:0:0:
248,200,19489,1,2,0:0:0:0:
160,160,19729,1,0,0:0:0:0:
124,248,19969,2,0,P|117:288|136:344,1,80,8|0,0:0|0:0,0:0:0:0:
48,224,20449,6,0,P|55:184|36:128,1,80,2|0,0:0|0:0,0:0:0:0:
8,56,20929,2,0,P|48:57|100:60,1,80,8|0,0:0|0:0,0:0:0:0:
180,32,21409,1,2,0:0:0:0:
260,84,21649,1,0,0:0:0:0:
348,48,21889,2,0,P|392:44|444:60,1,80,8|0,0:0|0:0,0:0:0:0:
460,84,22249,1,0,0:0:0:0:
476,128,22369,6,0,P|480:180|476:224,1,80,2|0,0:0|0:0,0:0:0:0:
410,275,22849,2,0,P|358:271|314:275,1,80,8|0,0:0|0:0,0:0:0:0:
243,314,23329,1,2,0:0:0:0:
148,328,23569,1,0,0:0:0:0:
95,248,23809,2,0,P|93:208|97:168,1,80,8|0,0:0|0:0,0:0:0:0:
32,56,24289,6,0,P|36:116|28:148,1,80,2|0,0:0|0:0,0:0:0:0:
12,228,24769,2,0,P|16:270|20:312,1,80,8|0,0:0|0:0,0:0:0:0:
100,364,25249,1,2,0:0:0:0:
188,324,25489,1,0,0:0:0:0:
188,324,25609,1,0,0:0:0:0:
188,324,25729,1,8,0:0:0:0:
276,364,25969,1,0,0:0:0:0:
232,244,26209,6,0,P|226:202|244:140,1,80,2|0,0:0|0:0,0:0:0:0:
300,97,26689,2,0,P|342:91|404:109,1,80,8|0,0:0|0:0,0:0:0:0:
440,172,27169,1,2,0:0:0:0:
448,268,27409,1,0,0:0:0:0:
384,336,27649,2,0,P|340:333|292:332,1,80,8|0,0:0|0:0,0:0:0:0:
176,344,28129,6,0,P|136:339|92:332,1,80,2|0,0:0|0:0,0:0:0:0:
107,238,28609,2,0,P|146:231|186:226,1,80,8|0,0:0|0:0,0:0:0:0:
280,216,29089,2,0,P|320:192|344:152,1,80,2|0,0:0|0:0,0:0:0:0:
368,76,29569,1,8,0:0:0:0:
432,148,29809,1,0,0:0:0:0:
432,148,29929,1,0,0:0:0:0:
432,148,30049,6,0,P|436:189|428:252,1,80,2|0,0:0|0:0,0:0:0:0:
400,316,30529,1,8,0:0:0:0:
304,300,30769,1,0,0:0:0:0:
212,324,31009,1,2,0:0:0:0:
116,308,31249,1,0,0:0:0:0:
56,232,31489,2,0,P|55:189|60:136,1,80,8|0,0:0|0:0,0:0:0:0:
148,60,31969,6,0,B|200:84|200:84|248:56|308:68,1,160,2|8,0:0|0:0,0:0:0:0:
388,108,32689,1,0,0:0:0:0:
344,196,32929,2,0,P|339:231|344:280,1,80,2|0,0:0|0:0,0:0:0:0:
400,352,33409,2,0,P|439:356|479:352,1,80
416,243,33889,6,0,P|381:255|336:279,1,80,2|0,0:0|0:0,0:0:0:0:
256,316,34369,2,0,P|212:316|168:312,1,80,8|0,0:0|0:0,0:0:0:0:
107,244,34849,2,0,L|115:160,1,80,2|0,0:0|0:0,0:0:0:0:
80,76,35329,1,8,0:0:0:0:
168,40,35569,1,0,0:0:0:0:
191,165,35809,6,0,P|143:173|103:157,1,80,2|0,0:0|0:0,0:0:0:0:
32,112,36289,1,8,0:0:0:0:
8,204,36529,1,0,0:0:0:0:
52,288,36769,1,2,0:0:0:0:
148,300,37009,1,0,0:0:0:0:
212,372,37249,1,8,0:0:0:0:
296,324,37489,1,0,0:0:0:0:
296,324,37609,1,0,0:0:0:0:
296,324,37729,6,0,P|332:324|384:328,2,80,2|0|8,0:0|0:0|0:0,0:0:0:0:
212,372,38449,1,0,0:0:0:0:
128,324,38689,1,2,0:0:0:0:
168,236,38929,1,0,0:0:0:0:
124,152,39169,1,8,0:0:0:0:
180,76,39409,1,0,0:0:0:0:
52,88,39649,5,2,0:0:0:0:
124,152,39889,2,0,P|155:166|207:166,2,80,0|8|0,0:0|0:0|0:0,0:0:0:0:
52,88,40609,1,2,0:0:0:0:
12,176,40849,1,0,0:0:0:0:
64,256,41089,1,8,0:0:0:0:
120,336,41329,1,0,0:0:0:0:
222,261,41569,6,0,P|266:260|338:257,1,80,2|0,0:0|0:0,0:0:0:0:
280,352,42049,2,0,P|236:351|164:348,1,80,8|0,0:0|0:0,0:0:0:0:
116,300,42529,2,0,P|112:252|120:204,1,80,2|0,0:0|0:0,0:0:0:0:
156,132,43009,1,8,0:0:0:0:
68,168,43249,1,0,0:0:0:0:
192,204,43489,6,0,P|248:196|284:168,1,80,2|0,0:0|0:0,0:0:0:0:
336,116,43969,1,8,0:0:0:0:
364,208,44209,1,0,0:0:0:0:
336,300,44449,1,2,0:0:0:0:
288,216,44689,1,0,0:0:0:0:
372,168,44929,1,8,0:0:0:0:
424,248,45169,1,0,0:0:0:0:
424,248,45289,1,0,0:0:0:0:
424,248,45409,6,0,P|428:304|416:344,2,80,2|0|8,0:0|0:0|0:0,0:0:0:0:
372,168,46129,1,0,0:0:0:0:
408,80,46369,1,2,0:0:0:0:
320,36,46609,1,0,0:0:0:0:
260,112,46849,1,8,0:0:0:0:
176,64,47089,1,0,0:0:0:0:
200,188,47329,5,2,0:0:0:0:
56,320,56929,6,0,L|148:316,1,80,2|0,0:0|0:0,0:0:0:0:
200,244,57409,2,0,L|108:240,1,80,8|0,0:0|0:0,0:0:0:0:
52,172,57889,2,0,L|144:168,1,80,2|0,0:0|0:0,0:0:0:0:
196,96,58369,2,0,L|104:92,1,80,8|0,0:0|0:0,0:0:0:0:
228,28,58849,6,0,L|320:32,1,80,2|0,0:0|0:0,0:0:0:0:
372,104,59329,2,0,L|280:108,1,80,8|0,0:0|0:0,0:0:0:0:
224,176,59809,2,0,L|316:180,1,80,2|0,0:0|0:0,0:0:0:0:
368,252,60289,2,0,L|276:256,1,80,8|0,0:0|0:0,0:0:0:0:
256,192,60769,12,0,63649,0:0:0:0:
76,320,64609,6,0,L|92:148,1,160,2|8,0:0|0:0,0:0:0:0:
252,56,65569,1,2,0:0:0:0:
319,123,65809,1,0,0:0:0:0:
386,55,66049,1,8,0:0:0:0:
453,122,66289,1,0,0:0:0:0:
392,234,66529,6,0,L|288:234,1,80,2|0,0:0|0:0,0:0:0:0:
272,320,67009,2,0,L|376:320,1,80,8|0,0:0|0:0,0:0:0:0:
448,300,67489,2,0,P|472:256|476:200,2,80,2|0|8,0:0|0:0|0:0,0:0:0:0:
360,336,68209,1,0,0:0:0:0:
360,336,68329,1,0,0:0:0:0:
360,336,68449,6,0,L|264:336,1,80,2|0,0:0|0:0,0:0:0:0:
244,248,68929,2,0,L|340:248,1,80,8|0,0:0|0:0,0:0:0:0:
391,180,69409,1,2,0:0:0:0:
458,112,69649,1,0,0:0:0:0:
390,44,69889,1,8,0:0:0:0:
322,111,70129,1,0,0:0:0:0:
224,28,70369,6,0,L|130:25,1,80,2|0,0:0|0:0,0:0:0:0:
120,120,70849,2,0,L|214:117,1,80,8|0,0:0|0:0,0:0:0:0:
256,196,71329,1,2,0:0:0:0:
312,117,71569,2,0,L|392:120,1,80
316,296,72289,6,0,L|300:208,1,80,2|0,0:0|0:0,0:0:0:0:
252,136,72769,1,8,0:0:0:0:
144,296,73249,1,2,0:0:0:0:
240,300,73489,1,0,0:0:0:0:
312,236,73729,1,8,0:0:0:0:
396,280,73969,1,0,0:0:0:0:
468,216,74209,6,0,L|472:120,1,80,2|0,0:0|0:0,0:0:0:0:
388,184,74689,2,0,L|392:280,1,80,8|0,0:0|0:0,0:0:0:0:
308,212,75169,2,0,L|304:116,1,80,2|0,0:0|0:0,0:0:0:0:
256,48,75649,1,8,0:0:0:0:
172,96,75889,1,0,0:0:0:0:
172,96,76009,1,0,0:0:0:0:
172,96,76129,6,0,P|128:100|76:88,1,80,2|0,0:0|0:0,0:0:0:0:
44,176,76609,2,0,P|88:172|140:184,1,80,8|0,0:0|0:0,0:0:0:0:
192,244,77089,1,2,0:0:0:0:
254,172,77329,1,0,0:0:0:0:
321,239,77569,1,8,0:0:0:0:
388,171,77809,1,0,0:0:0:0:
455,238,78049,5,2,0:0:0:0:
24,108,79969,6,0,P|68:108|112:104,1,80,2|0,0:0|0:0,0:0:0:0:
190,63,80449,2,0,P|234:63|278:67,1,80,8|0,0:0|0:0,0:0:0:0:
337,133,80929,2,0,L|329:217,1,80,2|0,0:0|0:0,0:0:0:0:
284,296,81409,1,8,0:0:0:0:
360,356,81649,1,0,0:0:0:0:
444,260,81889,6,0,P|452:212|436:172,1,80,2|0,0:0|0:0,0:0:0:0:
364,128,82369,1,8,0:0:0:0:
276,164,82609,1,0,0:0:0:0:
196,112,82849,1,2,0:0:0:0:
132,184,83089,1,0,0:0:0:0:
60,120,83329,1,8,0:0:0:0:
104,32,83569,1,0,0:0:0:0:
104,32,83689,1,0,0:0:0:0:
104,32,83809,6,0,P|140:32|192:28,2,80,2|0|8,0:0|0:0|0:0,0:0:0:0:
60,120,84529,1,0,0:0:0:0:
127,187,84769,1,2,0:0:0:0:
59,254,85009,1,0,0:0:0:0:
126,321,85249,1,8,0:0:0:0:
216,284,85489,1,0,0:0:0:0:
332,340,85729,5,2,0:0:0:0:
408,280,85969,2,0,P|422:249|422:197,2,80,0|8|0,0:0|0:0|0:0,0:0:0:0:
332,340,86689,1,2,0:0:0:0:
256,280,86929,1,0,0:0:0:0:
168,320,87169,1,8,0:0:0:0:
100,252,87409,1,0,0:0:0:0:
167,138,87649,6,0,P|168:94|171:22,1,80,2|0,0:0|0:0,0:0:0:0:
256,16,88129,2,0,P|255:60|252:132,1,80,8|0,0:0|0:0,0:0:0:0:
304,176,88609,1,2,0:0:0:0:
400,164,88849,1,0,0:0:0:0:
476,104,89089,1,8,0:0:0:0:
500,196,89329,1,0,0:0:0:0:
392,260,89569,6,0,P|336:268|300:296,1,80,2|0,0:0|0:0,0:0:0:0:
244,344,90049,1,8,0:0:0:0:
176,276,90289,1,0,0:0:0:0:
243,208,90529,1,2,0:0:0:0:
175,140,90769,1,0,0:0:0:0:
242,72,91009,1,8,0:0:0:0:
321,18,91249,1,0,0:0:0:0:
321,18,91369,1,0,0:0:0:0:
321,18,91489,6,0,P|377:14|417:26,2,80,2|0|8,0:0|0:0|0:0,0:0:0:0:
242,72,92209,1,0,0:0:0:0:
176,140,92449,1,2,0:0:0:0:
243,207,92689,1,0,0:0:0:0:
175,274,92929,1,8,0:0:0:0:
242,341,93169,1,0,0:0:0:0:
256,192,93409,12,0,95089,0:0:0:0:
