osu file format v14

[General]
AudioFilename: audio.mp3
AudioLeadIn: 0
PreviewTime: 47689
Countdown: 0
SampleSet: Soft
StackLeniency: 0.7
Mode: 0
LetterboxInBreaks: 0
WidescreenStoryboard: 1

[Editor]
Bookmarks: 18508,29089,31948,49249,56929,58849
DistanceSpacing: 1.7
BeatDivisor: 4
GridSize: 16
TimelineZoom: 0.6999998

[Metadata]
Title:MUZYKA NE MUZYKANTA (feat. Snailkick)
TitleUnicode:МУЗЫКА НЕ МУЗЫКАНТА (feat. Snailkick)
Artist:55x55
ArtistUnicode:55x55
Creator:Shmiklak
Version:A r M i N's EASYKICK
Source:
Tags:snailkick снейлкик максим киселёв youtube youtuber bnb бнб блог не блоггера головные мюсли bad room russian русский marvollo m_a_r_v_o_l_l_o armin a_r_m_i_n
BeatmapID:1333681
BeatmapSetID:627629

[Difficulty]
HPDrainRate:2
CircleSize:2.5
OverallDifficulty:2
ApproachRate:3
SliderMultiplier:0.98
SliderTickRate:1

[Events]
//Background and Video events
0,0,"i agree with preview point.jpg",0,0
//Break Periods
2,49249,55489
//Storyboard Layer 0 (Background)
//Storyboard Layer 1 (Fail)
//Storyboard Layer 2 (Pass)
//Storyboard Layer 3 (Foreground)
//Storyboard Sound Samples

[TimingPoints]
7050,333.333333333333,4,2,0,75,1,0
8827,333.333333333333,4,2,0,75,1,0
9660,333.333333333333,4,2,0,75,1,0
12346,333.333333333333,4,2,0,75,1,0
18529,480,4,2,0,75,1,0
79969,-100,4,2,0,75,0,1
93409,-100,4,2,0,75,0,0

[Colours]
Combo1 : 0,128,192
Combo2 : 227,202,153
Combo3 : 180,44,139

[HitObjects]
38,86,18529,6,0,L|50:281,1,196,2|2,0:0|0:0,0:0:0:0:
108,347,19969,1,8,0:0:0:0:
180,297,20449,2,0,P|232:290|282:314,1,98,2|8,0:0|0:0,0:0:0:0:
339,365,21409,2,0,P|391:372|441:348,1,98,2|8,0:0|0:0,0:0:0:0:
476,278,22369,6,0,L|464:83,1,196,2|2,0:0|0:0,0:0:0:0:
389,35,23809,1,8,0:0:0:0:
320,90,24289,2,0,P|268:97|218:73,1,98,2|8,0:0|0:0,0:0:0:0:
161,22,25249,2,0,P|109:15|59:39,1,98,2|8,0:0|0:0,0:0:0:0:
30,111,26209,6,0,P|61:207|165:209,1,196,2|2,0:0|0:0,0:0:0:0:
210,159,27649,1,8,0:0:0:0:
282,209,28129,2,0,L|288:306,1,98,2|8,0:0|0:0,0:0:0:0:
349,369,29089,2,0,P|401:376|451:352,1,98,2|8,0:0|0:0,0:0:0:0:
476,277,30049,6,0,L|464:82,1,196,2|2,0:0|0:0,0:0:0:0:
397,23,31489,1,8,0:0:0:0:
328,78,31969,2,0,P|280:85|234:68,2,98,2|8|2,0:0|0:0|0:0,0:0:0:0:
397,23,33409,1,0,0:0:0:0:
464,82,33889,6,0,L|469:179,1,98,2|8,0:0|0:0,0:0:0:0:
403,237,34849,2,0,L|397:334,1,98,2|8,0:0|0:0,0:0:0:0:
318,374,35809,2,0,P|270:381|224:364,1,98,2|8,0:0|0:0,0:0:0:0:
167,297,36769,2,0,L|70:303,1,98,2|8,0:0|0:0,0:0:0:0:
2,245,37729,5,2,0:0:0:0:
66,184,38209,2,0,P|82:138|75:90,2,98,8|2|8,0:0|0:0|0:0,0:0:0:0:
2,245,39649,2,0,P|33:341|137:343,1,196,2|2,0:0|0:0,0:0:0:0:
183,295,41089,1,8,0:0:0:0:
252,349,41569,6,0,P|304:356|354:332,1,98,2|8,0:0|0:0,0:0:0:0:
391,264,42529,2,0,L|386:167,1,98,2|8,0:0|0:0,0:0:0:0:
327,100,43489,2,0,P|275:93|225:117,1,98,2|8,0:0|0:0,0:0:0:0:
165,165,44449,2,0,L|68:160,1,98,2|8,0:0|0:0,0:0:0:0:
6,224,45409,5,2,0:0:0:0:
70,285,45889,2,0,P|86:331|79:379,2,98,8|2|8,0:0|0:0|0:0,0:0:0:0:
6,224,47329,1,2,0:0:0:0:
467,351,56929,6,0,L|473:254,1,98,2|8,0:0|0:0,0:0:0:0:
409,191,57889,2,0,L|403:94,1,98,2|8,0:0|0:0,0:0:0:0:
335,36,58849,2,0,P|283:29|233:53,1,98,2|8,0:0|0:0,0:0:0:0:
178,107,59809,2,0,P|126:114|76:90,1,98,2|8,0:0|0:0,0:0:0:0:
256,192,60769,12,0,62689,0:0:0:0:
476,374,64609,6,0,L|482:277,1,98,2|8,0:0|0:0,0:0:0:0:
418,214,65569,2,0,L|412:117,1,98,2|8,0:0|0:0,0:0:0:0:
345,58,66529,2,0,B|286:13|222:109|158:61,1,196,2|2,0:0|0:0,0:0:0:0:
88,9,67969,1,8,0:0:0:0:
38,82,68449,6,0,L|44:179,1,98,2|8,0:0|0:0,0:0:0:0:
100,247,69409,2,0,P|152:254|202:230,1,98,2|8,0:0|0:0,0:0:0:0:
247,167,70369,2,0,P|337:143|397:214,1,196,2|2,0:0|0:0,0:0:0:0:
334,378,72289,6,0,L|237:372,1,98,2|8,0:0|0:0,0:0:0:0:
167,316,73249,2,0,L|70:322,1,98,2|8,0:0|0:0,0:0:0:0:
7,259,74209,2,0,P|18:166|106:137,1,196,2|2,0:0|0:0,0:0:0:0:
178,188,75649,1,8,0:0:0:0:
252,140,76129,6,0,P|304:133|354:157,1,98,2|8,0:0|0:0,0:0:0:0:
392,224,77089,2,0,L|386:321,1,98,2|8,0:0|0:0,0:0:0:0:
319,379,78049,1,2,0:0:0:0:
15,374,79969,6,0,L|9:277,1,98,2|8,0:0|0:0,0:0:0:0:
66,209,80929,2,0,L|72:112,1,98,2|8,0:0|0:0,0:0:0:0:
130,44,81889,2,0,P|182:37|232:61,1,98,2|8,0:0|0:0,0:0:0:0:
292,108,82849,2,0,P|344:115|394:91,1,98,2|8,0:0|0:0,0:0:0:0:
441,30,83809,5,2,0:0:0:0:
487,104,84289,2,0,L|481:201,2,98,8|2|8,0:0|0:0|0:0,0:0:0:0:
441,30,85729,2,0,P|351:5|291:76,1,196,2|2,0:0|0:0,0:0:0:0:
327,155,87169,1,8,0:0:0:0:
272,224,87649,6,0,P|220:231|170:207,1,98,2|8,0:0|0:0,0:0:0:0:
118,150,88609,2,0,P|66:143|16:167,1,98,2|8,0:0|0:0,0:0:0:0:
1,244,89569,2,0,L|7:341,1,98,2|8,0:0|0:0,0:0:0:0:
89,374,90529,2,0,P|141:381|191:357,1,98,2|8,0:0|0:0,0:0:0:0:
233,292,91489,5,2,0:0:0:0:
302,345,91969,2,0,L|399:351,2,98,8|2|8,0:0|0:0|0:0,0:0:0:0:
256,192,93409,12,0,95089,0:0:0:0:
