osu file format v14

[General]
AudioFilename: audio.mp3
AudioLeadIn: 0
PreviewTime: 30244
Countdown: 0
SampleSet: Soft
StackLeniency: 0.7
Mode: 0
LetterboxInBreaks: 0
WidescreenStoryboard: 0

[Editor]
Bookmarks: 16244,24244,28244,28744,29244,29744
DistanceSpacing: 2.5
BeatDivisor: 4
GridSize: 4
TimelineZoom: 1

[Metadata]
Title:MRAZ' (feat. Larin)
TitleUnicode:МРАЗЬ (feat. Ларин)
Artist:55x55
ArtistUnicode:55x55
Creator:Venix
Version:Insane
Source:
Tags:A_r_M_i_N Armin M_a_r_v_o_l_l_o Marvollo Shmiklak russian русский Дмитрий YouTube
BeatmapID:1347841
BeatmapSetID:635171

[Difficulty]
HPDrainRate:6
CircleSize:4.2
OverallDifficulty:7.5
ApproachRate:8
SliderMultiplier:2.2
SliderTickRate:1

[Events]
//Background and Video events
0,0,"shmiklakgay.jpg",0,0
//Break Periods
//Storyboard Layer 0 (Background)
//Storyboard Layer 1 (Fail)
//Storyboard Layer 2 (Pass)
//Storyboard Layer 3 (Foreground)
//Storyboard Sound Samples

[TimingPoints]
244.127874705417,500,4,2,1,75,1,0
48244,-100,4,2,1,75,0,1
52244,-95.2380952380952,4,2,1,75,0,1
54244,-90.9090909090909,4,2,1,75,0,1
56244,-86.9565217391304,4,2,1,75,0,1
58244,-83.3333333333333,4,2,1,75,0,1
60244,-100,4,2,1,75,0,0

[Colours]
Combo1 : 116,116,116
Combo2 : 155,155,155
SliderBorder : 78,78,78
SliderTrackOverride : 218,218,218

[HitObjects]
64,56,16244,6,0,P|124:44|208:64,1,110,4|0,3:0|0:0,0:0:0:0:
328,156,16744,2,0,P|268:144|184:164,1,110,8|0,0:0|0:0,0:0:0:0:
56,232,17244,1,2,0:0:0:0:
120,128,17494,1,0,0:0:0:0:
176,292,17744,1,8,0:0:0:0:
176,292,18244,5,2,0:0:0:0:
32,144,18494,1,0,0:0:0:0:
32,144,18619,1,0,0:0:0:0:
32,144,18744,2,0,B|20:92|20:92|36:12,1,110,8|0,0:0|0:0,0:0:0:0:
236,100,19244,2,0,B|248:152|248:152|232:232,1,110,2|0,0:0|0:0,0:0:0:0:
72,268,19744,1,8,0:0:0:0:
156,160,19994,1,0,0:0:0:0:
256,304,20244,6,0,L|384:316,1,110,2|0,0:0|0:0,0:0:0:0:
488,184,20744,2,0,L|360:196,1,110,8|0,0:0|0:0,0:0:0:0:
245,203,21244,1,2,0:0:0:0:
312,100,21494,1,0,0:0:0:0:
368,312,21744,1,8,0:0:0:0:
368,312,22244,5,2,0:0:0:0:
436,116,22494,1,0,0:0:0:0:
436,116,22619,1,0,0:0:0:0:
436,116,22744,2,0,P|344:120|316:112,1,110,8|0,0:0|0:0,0:0:0:0:
148,44,23244,2,0,P|240:40|268:48,1,110,2|0,0:0|0:0,0:0:0:0:
332,212,23744,1,8,0:0:0:0:
380,40,23994,1,0,0:0:0:0:
172,192,24244,6,2,L|52:176,1,110
240,312,24744,2,0,L|120:296,1,110,8|0,0:0|0:0,0:0:0:0:
320,160,25244,1,2,0:0:0:0:
240,312,25494,1,0,0:0:0:0:
301,84,25744,1,8,0:0:0:0:
368,276,25994,1,0,0:0:0:0:
236,32,26244,6,0,P|224:88|244:152,1,110,2|0,0:0|0:0,0:0:0:0:
368,276,26744,2,0,P|380:222|368:169,1,110,8|0,0:0|0:0,0:0:0:0:
180,265,27244,1,2,0:0:0:0:
236,32,27494,1,0,0:0:0:0:
368,276,27744,1,8,0:0:0:0:
114,138,27994,1,0,0:0:0:0:
368,16,28244,5,8,0:0:0:0:
366,48,28369,1,8,0:0:0:0:
365,81,28494,1,8,0:0:0:0:
364,114,28619,1,8,0:0:0:0:
396,144,28744,5,8,0:0:0:0:
397,176,28869,1,8,0:0:0:0:
398,209,28994,1,8,0:0:0:0:
399,242,29119,1,8,0:0:0:0:
428,276,29244,5,8,0:0:0:0:
390,266,29369,1,8,0:0:0:0:
352,264,29494,1,8,0:0:0:0:
314,270,29619,1,8,0:0:0:0:
276,280,29744,5,8,0:0:0:0:
277,225,29869,1,8,0:0:0:0:
250,178,29994,1,8,0:0:0:0:
203,151,30119,1,8,0:0:0:0:
149,153,30244,5,0,0:0:0:0:
184,240,30494,1,0,0:0:0:0:
250,178,30744,1,0,0:0:0:0:
108,268,30994,1,0,0:0:0:0:
276,280,31244,2,0,L|385:272,1,110
149,153,31744,5,0,0:0:0:0:
149,153,32244,5,2,0:0:0:0:
276,280,32494,1,0,0:0:0:0:
240,56,32744,1,8,0:0:0:0:
184,240,32994,1,0,0:0:0:0:
384,164,33244,2,0,P|330:151|277:161,1,110,2|0,0:0|0:0,0:0:0:0:
133,54,33744,2,0,P|186:66|239:55,1,110,8|0,0:0|0:0,0:0:0:0:
444,60,34244,5,2,0:0:0:0:
332,248,34494,1,0,0:0:0:0:
332,248,34619,1,0,0:0:0:0:
332,248,34744,2,0,L|328:128,1,110,8|0,0:0|0:0,0:0:0:0:
444,280,35244,1,2,0:0:0:0:
444,280,35369,1,0,0:0:0:0:
444,280,35494,1,0,0:0:0:0:
254,300,35744,1,8,0:0:0:0:
328,138,35994,1,0,0:0:0:0:
331,354,36244,6,0,P|343:301|332:248,1,110,2|0,0:0|0:0,0:0:0:0:
240,84,36744,2,0,P|228:137|240:190,1,110,8|0,0:0|0:0,0:0:0:0:
456,52,37244,1,2,0:0:0:0:
432,236,37494,1,0,0:0:0:0:
328,138,37744,1,8,0:0:0:0:
327,137,38244,6,0,L|313:247,1,110,2|0,0:0|0:0,0:0:0:0:
218,162,38744,2,0,L|204:272,1,110,2|0,0:0|0:0,0:0:0:0:
110,202,39244,2,0,L|96:312,1,110
96,312,40244,5,2,0:0:0:0:
56,144,40494,1,0,0:0:0:0:
0,343,40744,1,8,0:0:0:0:
151,214,40994,1,0,0:0:0:0:
60,36,41244,2,0,B|48:92|48:92|56:144,1,110,2|0,0:0|0:0,0:0:0:0:
214,270,41744,2,0,B|226:214|226:214|218:162,1,110,8|0,0:0|0:0,0:0:0:0:
88,356,42244,5,2,0:0:0:0:
300,372,42494,1,0,0:0:0:0:
300,372,42619,1,0,0:0:0:0:
300,372,42744,2,0,L|328:248,1,110,8|0,0:0|0:0,0:0:0:0:
334,113,43244,1,2,0:0:0:0:
334,113,43369,1,0,0:0:0:0:
334,113,43494,1,0,0:0:0:0:
132,168,43744,1,8,0:0:0:0:
372,269,43994,1,0,0:0:0:0:
91,354,44244,6,0,P|78:300|90:247,1,110,2|0,0:0|0:0,0:0:0:0:
304,212,44744,2,0,P|316:265|304:318,1,110,8|0,0:0|0:0,0:0:0:0:
132,168,45244,1,2,0:0:0:0:
227,264,45494,1,0,0:0:0:0:
256,68,45744,1,8,0:0:0:0:
110,275,45994,1,0,0:0:0:0:
110,275,46119,1,0,0:0:0:0:
110,275,46244,6,0,L|133:157,1,110,2|0,0:0|0:0,0:0:0:0:
150,360,46744,1,8,0:0:0:0:
227,264,46994,1,0,0:0:0:0:
108,88,48244,6,2,L|236:104,1,110
20,188,48744,2,0,L|148:204,1,110,8|0,0:0|0:0,0:0:0:0:
296,208,49244,1,2,0:0:0:0:
108,88,49494,1,0,0:0:0:0:
120,292,49744,2,0,P|188:268|216:220,1,110,8|0,0:0|0:0,0:0:0:0:
24,188,50244,5,2,0:0:0:0:
52,352,50494,1,0,0:0:0:0:
52,352,50619,1,0,0:0:0:0:
52,352,50744,2,0,B|94:375|94:375|185:358,1,110,8|0,0:0|0:0,0:0:0:0:
291,253,51244,2,0,P|279:201|240:164,1,110,2|0,0:0|0:0,0:0:0:0:
120,292,51744,1,8,0:0:0:0:
176,68,51994,1,0,0:0:0:0:
292,253,52244,6,0,B|340:268|340:268|456:241,1,115.49999647522,2|0,0:0|0:0,0:0:0:0:
480,104,52744,2,0,L|367:130,1,115.49999647522,8|0,0:0|0:0,0:0:0:0:
220,288,53244,1,2,0:0:0:0:
280,120,53494,1,0,0:0:0:0:
292,253,53744,1,8,0:0:0:0:
188,64,53994,1,0,0:0:0:0:
112,360,54244,5,2,0:0:0:0:
328,320,54494,1,0,0:0:0:0:
328,320,54619,1,0,0:0:0:0:
328,320,54744,2,0,L|312:196,1,121.000003692627,8|0,0:0|0:0,0:0:0:0:
280,28,55244,1,2,0:0:0:0:
200,224,55494,1,0,0:0:0:0:
352,104,55744,1,8,0:0:0:0:
148,64,55994,1,0,0:0:0:0:
312,199,56244,6,0,L|448:207,1,126.500002412796,2|0,0:0|0:0,0:0:0:0:
504,364,56744,2,0,L|368:372,1,126.500002412796,8|0,0:0|0:0,0:0:0:0:
225,278,57244,1,2,0:0:0:0:
438,206,57494,1,0,0:0:0:0:
192,356,57744,2,0,P|148:304|160:228,1,126.500002412796,8|0,0:0|0:0,0:0:0:0:
256,56,58244,5,2,0:0:0:0:
272,248,58494,1,0,0:0:0:0:
272,248,58619,1,0,0:0:0:0:
272,248,58744,1,8,0:0:0:0:
120,56,58994,1,0,0:0:0:0:
149,248,59244,1,2,0:0:0:0:
400,92,59494,1,0,0:0:0:0:
72,160,59744,1,8,0:0:0:0:
365,307,59994,1,0,0:0:0:0:
365,307,60119,1,0,0:0:0:0:
365,307,60244,6,0,L|341:187,1,110,2|0,0:0|0:0,0:0:0:0:
245,363,60744,1,8,0:0:0:0:
272,248,60994,1,0,0:0:0:0:
