osu file format v14

[General]
AudioFilename: audio.mp3
AudioLeadIn: 0
PreviewTime: 103479
Countdown: 0
SampleSet: Soft
StackLeniency: 0.7
Mode: 0
LetterboxInBreaks: 0
WidescreenStoryboard: 1

[Editor]
Bookmarks: 43056,63266,83477,93977,103688,123898,144109,149793,164319,184530,188319,189582,204740,219898,224951,245161,265372
DistanceSpacing: 1
BeatDivisor: 8
GridSize: 32
TimelineZoom: 3.599999

[Metadata]
Title:moon
TitleUnicode:moon
Artist:556t
ArtistUnicode:556t
Creator:revurii
Version:lasse's hard
Source:
Tags:lasse shikibe mayu shizuku- kazato asa 回路-kairo- kairo sagara kokoro 相良 心 ke 毛 japanese rock 夜明けのセカイと思考回路 world of dawn and a train of thought comiket 78 c78 秋m3 m3-26 m3
BeatmapID:2400754
BeatmapSetID:1141522

[Difficulty]
HPDrainRate:6
CircleSize:3.8
OverallDifficulty:6.8
ApproachRate:8
SliderMultiplier:1.44
SliderTickRate:1

[Events]
//Background and Video events
0,0,"moon kona290402 edit.jpg",0,0
//Break Periods
2,126624,127885
2,129466,133253
2,188319,202727
//Storyboard Layer 0 (Background)
//Storyboard Layer 1 (Fail)
//Storyboard Layer 2 (Pass)
//Storyboard Layer 3 (Foreground)
//Storyboard Layer 4 (Overlay)
//Storyboard Sound Samples

[TimingPoints]
2635.37805256091,315.789473684211,4,2,1,40,1,0
41793,-200,4,2,1,40,0,0
42424,-133.333333333333,4,2,35,20,0,0
43056,-133.333333333333,4,2,35,60,0,0
63266,-200,4,2,1,45,0,0
68161,-133.333333333333,4,2,1,45,0,0
77161,-153.846153846153,4,2,1,45,0,0
83161,-166.666666666667,4,2,35,48,0,0
83477,-133.333333333333,4,2,35,50,0,0
101161,-105.263157894737,4,2,35,55,0,0
103688,-83.3333333333333,4,2,35,65,0,1
113477,-83.3333333333333,4,2,35,60,0,0
113793,-83.3333333333333,4,2,35,65,0,1
123898,-200,4,2,35,60,0,0
124056,-200,4,2,35,30,0,0
126424,-200,4,2,1,30,0,0
128635,-200,4,2,1,40,0,0
134003,-250,4,2,35,45,0,0
137161,-250,4,2,1,40,0,0
137477,-200,4,2,1,40,0,0
138582,-166.666666666667,4,2,1,45,0,0
142845,-142.857142857143,4,2,35,50,0,0
144109,-100,4,2,35,55,0,0
164319,-100,4,2,35,55,0,0
164635,-100,4,2,35,55,0,0
169372,-111.111111111111,4,2,35,55,0,0
174424,-100,4,2,35,55,0,0
179477,-111.111111111111,4,2,35,55,0,0
181924,-111.111111111111,4,2,35,50,0,0
182003,-90.9090909090908,4,2,35,55,0,0
182319,-111.111111111111,4,2,35,55,0,0
183266,-100,4,2,35,40,0,0
203477,-158.730158730159,4,2,35,30,0,0
203556,-158.730158730159,4,2,35,5,0,0
204740,-133.333333333333,4,2,35,45,0,0
222424,-117.647058823529,4,2,35,48,0,0
223056,-105.263157894737,4,2,35,50,0,0
223688,-95.2380952380951,4,2,35,52,0,0
224319,-95.2380952380951,4,2,35,54,0,0
224951,-76.9230769230769,4,2,35,68,0,1
234740,-76.9230769230769,4,2,35,60,0,0
235056,-76.9230769230769,4,2,35,65,0,1
245161,-100,4,2,35,60,0,0
245793,-100,4,2,35,58,0,0
265214,-100,4,2,35,58,0,0
265372,-100,4,2,36,35,0,0

[Colours]
Combo1 : 255,198,224
Combo2 : 128,128,255
Combo3 : 192,236,255
Combo4 : 255,208,192

[HitObjects]
146,8,41793,6,2,B|125:87|159:142|196:153|196:153|185:111|136:102,1,252,8|0,0:2|0:0,0:2:0:0:
63,178,43056,6,2,P|42:219|66:292,1,108.000004119873,14|0,2:1|0:0,0:1:0:0:
95,345,43530,1,8,2:1:0:0:
195,296,43688,2,2,B|223:279|223:279|322:293,1,108.000004119873,10|0,0:0|0:0,0:1:0:0:
297,289,44319,5,8,2:1:0:0:
363,340,44477,2,0,P|381:298|357:242,1,108.000004119873,10|8,0:0|0:1,0:0:0:0:
467,211,44951,2,2,P|449:169|473:113,1,108.000004119873,8|0,0:0|0:0,0:1:0:0:
471,114,45582,5,8,0:1:0:0:
403,154,45740,2,0,B|376:142|376:142|340:159|299:142,1,108.000004119873,10|8,0:0|0:1,0:1:0:0:
208,61,46214,2,2,B|167:44|131:61|131:61|104:49,1,108.000004119873,10|0,0:0|0:0,0:1:0:0:
104,49,46845,5,8,0:1:0:0:
47,102,47003,2,0,B|20:152|20:152|46:204,1,108.000004119873,10|0,0:0|0:0,0:0:0:0:
121,287,47477,6,0,P|90:279|62:275,1,54.0000020599366,10|0,0:0|0:0,0:0:0:0:
150,367,47793,2,0,P|176:362|202:355,1,54.0000020599366,10|8,0:1|0:0,0:0:0:0:
287,273,48109,6,2,P|272:216|296:159,1,108.000004119873,14|0,0:1|0:0,0:1:0:0:
342,113,48582,1,8,0:1:0:0:
275,34,48740,2,2,B|223:51|223:51|160:22,1,108.000004119873,10|0,0:0|0:0,0:1:0:0:
174,28,49372,5,8,0:1:0:0:
89,103,49530,2,0,P|74:46|98:-11,1,108.000004119873,10|8,0:0|0:1,0:0:0:0:
182,130,50003,2,2,P|197:187|173:244,1,108.000004119873,10|0,0:0|0:0,0:1:0:0:
182,232,50635,5,8,0:1:0:0:
116,287,50793,2,0,B|60:271|69:307|3:287,1,108.000004119873,10|8,0:0|0:1,0:0:0:0:
161,356,51266,2,2,B|217:340|208:376|274:356,1,108.000004119873,10|0,0:0|0:0,0:1:0:0:
266,358,51898,5,8,0:1:0:0:
347,318,52056,2,0,B|323:271|323:271|348:212,1,108.000004119873,10|8,0:0|0:1,0:0:0:0:
394,154,52530,1,10,0:0:0:0:
479,232,52688,1,0,1:0:0:0:
479,232,52766,1,0,1:0:0:0:
479,232,52845,2,0,B|485:209|485:209|471:170,1,54.0000020599366,0|0,1:0|1:0,0:0:0:0:
385,119,53161,6,2,B|348:113|348:113|326:121|326:121|277:112,1,108.000004119873,14|0,0:1|0:0,0:1:0:0:
220,166,53635,1,8,0:1:0:0:
141,99,53793,2,2,P|154:51|116:-7,1,108.000004119873,10|0,0:0|0:0,0:1:0:0:
128,1,54424,5,8,0:1:0:0:
59,66,54582,2,0,P|46:117|71:163,1,108.000004119873,10|8,0:0|0:1,0:0:0:0:
174,207,55056,2,2,B|211:201|211:201|233:209|233:209|282:200,1,108.000004119873,10|0,0:0|0:0,0:1:0:0:
279,200,55688,5,8,0:1:0:0:
366,149,55845,2,0,B|347:99|347:99|367:42,1,108.000004119873,10|8,0:0|0:1,0:0:0:0:
466,95,56319,2,2,B|484:146|484:146|465:196,1,108.000004119873,10|0,0:0|0:0,0:1:0:0:
465,196,56951,5,8,0:1:0:0:
420,265,57109,2,0,P|373:240|321:251,1,108.000004119873,10|8,0:0|0:1,0:0:0:0:
254,361,57582,6,0,L|257:299,1,54.0000020599366,10|0,0:0|0:0,0:0:0:0:
172,384,57898,2,0,L|175:322,1,54.0000020599366,10|8,0:1|0:0,0:0:0:0:
116,218,58214,6,2,B|81:231|61:224|61:224|43:206|16:198,1,108.000004119873,14|0,0:1|0:0,0:1:0:0:
0,123,58688,1,8,0:1:0:0:
104,101,58845,2,2,P|123:53|102:-3,1,108.000004119873,10|0,0:0|0:0,0:1:0:0:
105,1,59477,5,8,0:1:0:0:
168,54,59635,2,0,B|220:68|220:68|279:51,1,108.000004119873,8|8,0:0|0:1,0:0:0:0:
354,126,60109,2,2,B|406:111|406:111|465:128,1,108.000004119873,10|0,0:0|0:0,0:1:0:0:
463,130,60740,6,0,L|473:196,1,54.0000020599366,14|8,0:1|0:1,0:0:0:0:
403,269,61056,2,0,L|394:215,1,54.0000020599366,10|8,0:0|0:1,0:0:0:0:
327,155,61372,5,10,0:1:0:0:
327,155,61530,2,0,P|285:159|264:147,1,54.0000020599366,10|8,0:0|0:1,0:0:0:0:
203,94,61845,1,10,0:1:0:0:
203,94,62003,2,0,P|205:59|194:38,1,54.0000020599366,10|8,0:0|0:1,0:0:0:0:
142,165,62319,2,0,P|140:200|151:221,1,54.0000020599366,10|8,0:1|0:1,0:0:0:0:
194,291,62635,6,0,L|223:298,4,27.0000010299683,0|0|0|0|0,3:0|3:0|3:0|3:0|3:0,0:0:0:0:
256,384,63266,5,14,0:0:0:0:
256,308,63582,1,8,0:0:0:0:
208,249,63898,1,8,0:0:0:0:
282,234,64214,1,8,0:0:0:0:
341,187,64530,1,8,0:0:0:0:
415,177,64845,1,8,0:0:0:0:
414,101,65161,1,8,0:0:0:0:
338,107,65477,1,8,0:0:0:0:
368,37,65793,1,8,0:0:0:0:
292,41,66109,1,8,0:0:0:0:
220,16,66424,1,8,0:0:0:0:
226,91,66740,1,8,0:0:0:0:
156,60,67056,1,8,0:0:0:0:
156,135,67372,1,8,0:0:0:0:
223,169,67688,1,8,0:0:0:0:
168,224,68003,5,8,0:0:0:0:
168,224,68161,2,0,L|106:241,1,54.0000020599366,0|8,3:2|0:0,0:0:0:0:
115,238,68477,2,0,L|79:190,1,54.0000020599366,0|8,3:0|0:0,0:0:0:0:
93,105,68951,5,8,0:0:0:0:
160,138,69266,1,8,0:0:0:0:
163,62,69582,1,8,0:0:0:0:
221,14,69898,1,8,0:0:0:0:
236,87,70214,1,8,0:0:0:0:
294,39,70530,1,8,0:0:0:0:
309,112,70845,1,8,0:0:0:0:
367,64,71161,1,8,0:0:0:0:
384,137,71477,1,8,0:0:0:0:
446,179,71793,1,8,0:0:0:0:
381,218,72109,1,8,0:0:0:0:
316,179,72424,1,8,0:0:0:0:
276,243,72740,1,8,0:0:0:0:
260,317,73056,1,8,0:0:0:0:
197,234,73372,5,12,3:2:0:0:
236,169,73688,1,8,0:0:0:0:
160,167,74003,1,8,0:0:0:0:
115,105,74319,1,8,0:0:0:0:
143,34,74635,1,8,0:0:0:0:
218,25,74951,1,8,0:0:0:0:
200,98,75266,1,8,0:0:0:0:
236,169,75582,1,8,0:0:0:0:
310,179,75898,1,8,0:0:0:0:
361,123,76214,1,8,0:0:0:0:
354,47,76530,1,8,0:0:0:0:
286,12,76845,1,8,0:0:0:0:
215,52,77161,6,0,P|180:77|111:68,1,93.5999957153322,10|8,0:0|0:0,0:0:0:0:
130,77,77635,2,0,L|131:27,1,46.7999978576661,2|8,0:0|0:0,0:0:0:0:
197,161,78109,1,8,0:0:0:0:
197,161,78266,2,0,P|181:171|135:172,1,46.7999978576661,0|8,3:0|0:0,0:0:0:0:
153,175,78582,2,0,P|113:159|91:156,1,46.7999978576661,0|8,3:0|0:0,0:0:0:0:
193,242,79056,5,8,0:0:0:0:
249,292,79372,1,8,0:0:0:0:
259,366,79688,1,8,0:0:0:0:
249,292,80003,1,8,0:0:0:0:
268,218,80319,1,8,0:0:0:0:
331,176,80635,1,8,0:0:0:0:
406,178,80951,1,8,0:0:0:0:
331,176,81266,1,8,0:0:0:0:
264,139,81582,1,8,0:0:0:0:
193,166,81898,1,8,0:0:0:0:
120,143,82214,1,8,0:0:0:0:
193,166,82530,2,0,P|223:164|291:142,1,93.5999957153322,8|0,0:0|0:0,0:0:0:0:
422,104,83161,6,0,P|406:82|418:62,1,43.1999986816407,10|0,0:0|0:0,0:0:0:0:
489,2,83477,5,12,0:1:0:0:
489,2,83635,1,8,0:1:0:0:
489,2,83793,2,0,B|509:40|509:40|493:74,1,81.0000030899049,10|8,0:0|2:0,0:0:0:0:
493,74,84266,1,10,0:1:0:0:
512,153,84424,1,8,0:0:0:0:
435,284,84740,5,10,0:1:0:0:
435,284,84898,1,8,0:1:0:0:
435,284,85056,2,0,P|432:325|448:345,1,54.0000020599366,8|2,0:0|0:0,0:0:0:0:
433,341,85293,1,8,0:0:0:0:
429,348,85372,2,0,P|375:370|312:343,1,108.000004119873,8|10,0:1|0:0,0:0:0:0:
182,299,86003,5,8,0:1:0:0:
182,299,86161,1,8,0:1:0:0:
182,299,86319,2,0,B|169:341|169:341|121:363,1,81.0000030899049,10|8,0:0|0:0,0:0:0:0:
135,356,86793,1,10,0:1:0:0:
65,333,86951,1,8,0:0:0:0:
2,193,87266,5,8,0:1:0:0:
2,193,87424,1,8,0:1:0:0:
2,193,87582,2,0,P|13:169|7:132,1,54.0000020599366,8|2,0:0|0:0,0:0:0:0:
9,133,87819,1,8,0:0:0:0:
7,125,87898,2,0,B|-9:74|-9:74|24:9,1,108.000004119873,8|10,0:1|0:0,0:0:0:0:
98,66,88372,5,0,1:0:0:0:
105,74,88451,1,0,1:0:0:0:
111,81,88530,2,0,P|152:85|182:69,1,54.0000020599366,10|8,0:1|0:1,0:0:0:0:
223,25,88845,2,0,P|247:13|322:14,1,81.0000030899049,8|8,0:0|0:0,0:0:0:0:
300,8,89319,1,10,0:1:0:0:
363,65,89477,1,8,0:0:0:0:
343,201,89793,5,8,0:1:0:0:
343,201,89951,1,8,0:1:0:0:
343,201,90109,2,0,P|331:237|344:270,1,54.0000020599366,8|0,0:0|0:0,0:0:0:0:
337,259,90345,1,8,0:0:0:0:
340,266,90424,2,0,L|461:279,1,108.000004119873,8|8,0:1|0:0,0:0:0:0:
512,154,91056,5,10,0:1:0:0:
512,154,91214,1,8,0:1:0:0:
512,154,91372,2,0,P|517:112|501:65,1,81.0000030899049,8|8,0:0|0:0,0:0:0:0:
506,75,91845,1,8,0:1:0:0:
452,25,92003,1,10,0:0:0:0:
325,75,92319,5,8,0:1:0:0:
325,75,92477,1,8,0:1:0:0:
325,75,92635,2,0,P|281:75|253:64,1,54.0000020599366,8|0,0:0|0:0,0:0:0:0:
203,29,92951,2,0,L|179:3,2,27.0000010299683,8|8|8,0:1|0:0|0:1,0:0:0:0:
140,76,93266,2,0,P|132:119|65:118,1,108.000004119873,10|8,0:0|0:1,0:0:0:0:
10,299,93898,6,0,P|1:260|19:224,1,81.0000030899049,10|8,0:0|0:0,0:0:0:0:
19,224,94372,1,10,0:1:0:0:
100,216,94530,1,8,0:0:0:0:
183,352,94845,5,10,0:1:0:0:
183,352,95003,1,8,0:1:0:0:
183,352,95161,2,0,P|231:341|255:344,1,54.0000020599366,8|2,0:0|0:0,0:0:0:0:
242,344,95398,1,8,0:0:0:0:
248,348,95477,2,0,P|274:357|359:333,1,108.000004119873,8|10,0:1|0:0,0:0:0:0:
490,381,96109,5,8,0:1:0:0:
490,381,96266,1,8,0:1:0:0:
490,381,96424,2,0,P|475:346|482:284,1,81.0000030899049,10|8,0:0|0:2,0:0:0:0:
475,303,96898,1,10,0:1:0:0:
512,239,97056,1,8,0:0:0:0:
482,111,97372,5,10,0:1:0:0:
482,111,97530,1,8,0:1:0:0:
482,111,97688,2,0,P|459:130|428:117,1,54.0000020599366,8|2,0:0|0:0,0:0:0:0:
430,121,97924,1,8,0:0:0:0:
424,115,98003,2,0,P|422:73|367:35,1,108.000004119873,8|10,0:1|0:0,0:0:0:0:
184,20,98635,5,14,0:1:0:0:
184,20,98793,1,8,0:1:0:0:
184,20,98951,2,0,L|181:101,1,81.0000030899049,8|8,0:0|0:0,0:0:0:0:
181,100,99424,1,8,0:1:0:0:
107,89,99582,1,10,0:0:0:0:
20,199,99898,5,8,0:1:0:0:
20,199,100056,1,8,0:1:0:0:
20,199,100214,2,0,P|7:232|15:267,1,54.0000020599366,8|0,0:0|0:0,0:0:0:0:
11,257,100451,1,8,0:0:0:0:
14,264,100530,2,0,P|53:286|53:349,1,108.000004119873,8|8,0:1|0:0,0:0:0:0:
258,384,101161,6,0,B|262:235,1,136.799996347046,14|0,0:1|1:0,0:0:0:0:
263,157,101635,1,0,1:0:0:0:
185,112,101793,2,0,L|117:100,1,68.399998173523,2|0,1:2|1:0,0:0:0:0:
314,84,102109,2,0,L|381:73,1,68.399998173523,2|0,1:2|1:0,0:0:0:0:
472,147,102424,6,0,P|470:189|492:211,1,68.399998173523,0|0,3:0|3:0,0:0:0:0:
494,218,102661,1,0,3:0:0:0:
503,227,102740,2,0,P|508:260|489:287,1,68.399998173523,0|0,3:0|3:0,0:0:0:0:
391,366,103056,6,0,P|360:344|315:342,1,68.399998173523,8|8,3:3|3:3,0:0:0:0:
313,341,103293,1,8,3:3:0:0:
297,347,103372,2,0,P|258:375|221:371,1,68.399998173523,4|4,3:3|3:3,0:0:0:0:
47,282,103688,5,14,0:1:0:0:
47,282,103845,2,0,B|31:276|31:276|64:256|57:217,1,86.3999973632813,10|8,0:1|0:0,0:0:0:0:
132,119,104161,1,2,0:0:0:0:
132,119,104319,2,0,B|148:113|148:113|114:93|121:54,1,86.3999973632813,10|8,0:1|0:1,0:0:0:0:
121,54,104635,6,0,P|127:88|22:80,1,172.799994726563,10|8,0:1|0:1,0:1:0:0:
31,173,105109,1,8,0:1:0:0:
76,239,105266,2,0,P|74:265|42:318,1,86.3999973632813,8|0,0:0|0:0,0:0:0:0:
45,329,105503,1,8,0:0:0:0:
49,341,105582,2,0,P|95:338|131:305,1,86.3999973632813,8|8,0:1|0:1,0:0:0:0:
212,236,105898,2,0,P|193:201|198:150,1,86.3999973632813,8|0,0:0|0:0,0:0:0:0:
297,29,106214,5,10,0:1:0:0:
297,29,106372,2,0,B|325:33|343:53|343:53|342:29|330:12,1,86.3999973632813,10|8,0:1|0:0,0:0:0:0:
448,103,106688,1,2,3:2:0:0:
448,103,106766,1,0,3:2:0:0:
448,103,106845,2,0,B|437:114|440:135|440:135|457:118|486:110,1,86.3999973632813,8|8,0:1|0:1,0:0:0:0:
500,243,107161,6,0,P|504:284|457:328,1,86.3999973632813,10|0,0:0|0:0,0:0:0:0:
395,371,107477,1,8,0:1:0:0:
336,325,107635,2,0,L|327:231,1,86.3999973632813,10|8,0:1|0:0,0:0:0:0:
358,146,107951,1,0,3:2:0:0:
358,146,108030,1,0,3:2:0:0:
358,146,108109,2,8,L|349:52,1,86.3999973632813,8|8,0:1|0:1,0:0:0:0:
256,0,108424,5,8,0:0:0:0:
48,74,108740,5,14,0:1:0:0:
48,74,108898,2,0,B|93:79|81:56|131:61,1,86.3999973632813,10|8,0:1|0:0,0:0:0:0:
183,161,109214,1,2,0:0:0:0:
183,161,109372,2,0,B|228:166|216:143|266:148,1,86.3999973632813,10|8,0:1|0:1,0:0:0:0:
266,148,109688,6,0,P|281:204|257:343,1,172.799994726563,10|8,0:0|0:1,0:1:0:0:
208,369,110161,1,8,0:1:0:0:
102,336,110319,2,0,L|95:250,1,86.3999973632813,10|0,0:0|0:0,0:0:0:0:
85,243,110556,1,8,0:0:0:0:
76,235,110635,2,0,L|68:148,1,86.3999973632813,10|0,0:1|0:0,0:0:0:0:
155,95,110951,2,0,L|162:181,1,86.3999973632813,10|0,0:0|0:0,0:0:0:0:
235,275,111266,5,10,0:1:0:0:
235,275,111424,2,0,P|279:282|312:258,1,86.3999973632813,10|8,0:1|0:0,0:0:0:0:
384,197,111740,1,2,3:2:0:0:
384,197,111819,1,0,3:2:0:0:
384,197,111898,2,0,P|428:204|455:176,1,86.3999973632813,8|8,0:1|0:1,0:0:0:0:
506,85,112214,5,10,0:0:0:0:
506,85,112530,5,8,0:1:0:0:
427,97,112688,1,8,0:1:0:0:
352,78,112845,2,0,P|357:35|325:-8,1,86.3999973632813,8|8,0:0|0:1,0:0:0:0:
230,94,113161,2,0,P|212:129|222:174,1,86.3999973632813,8|8,0:1|0:1,0:0:0:0:
335,276,113477,5,2,3:0:0:0:
335,276,113556,1,0,3:0:0:0:
335,276,113635,1,0,3:0:0:0:
335,276,113714,1,0,3:0:0:0:
335,276,113793,2,0,P|395:254|518:272,1,172.799994726563,14|8,0:1|0:0,0:1:0:0:
372,365,114266,2,0,P|286:375|204:351,1,172.799994726563,10|8,0:1|0:1,0:1:0:0:
204,351,114740,6,0,B|232:272|156:267|201:169,1,172.799994726563,10|8,0:0|0:1,0:0:0:0:
252,128,115214,1,8,0:1:0:0:
180,47,115372,2,0,P|145:70|102:66,1,86.3999973632813,8|0,0:0|0:0,0:0:0:0:
92,60,115609,1,8,0:0:0:0:
82,53,115688,2,0,P|49:26|7:30,1,86.3999973632813,8|8,0:1|0:1,0:0:0:0:
66,153,116003,2,0,P|37:179|32:227,1,86.3999973632813,8|0,0:0|0:0,0:0:0:0:
90,337,116319,5,10,0:1:0:0:
90,337,116477,2,0,B|130:325|130:325|188:334,1,86.3999973632813,10|8,0:1|0:0,0:0:0:0:
270,384,116793,1,2,3:2:0:0:
270,384,116872,1,0,3:2:0:0:
270,384,116951,2,0,B|310:372|310:372|368:381,1,86.3999973632813,8|8,0:1|0:1,0:0:0:0:
486,353,117266,6,0,P|494:325|475:267,1,86.3999973632813,10|0,0:0|0:0,0:0:0:0:
421,192,117582,1,8,0:1:0:0:
485,144,117740,2,0,P|493:116|465:50,1,86.3999973632813,10|8,0:1|0:0,0:0:0:0:
370,14,118056,5,0,3:2:0:0:
370,14,118135,1,0,3:2:0:0:
370,14,118214,2,0,P|319:45|293:30,1,86.3999973632813,10|8,0:1|0:1,0:0:0:0:
297,155,118530,2,0,P|246:124|167:140,1,129.599996044922,10|8,0:0|0:0,0:0:0:0:
172,143,118845,6,0,L|162:244,1,86.3999973632813,12|8,0:1|0:1,0:0:0:0:
76,293,119161,2,0,L|67:207,1,86.3999973632813,10|0,0:0|0:0,0:0:0:0:
56,200,119398,1,8,0:0:0:0:
46,191,119477,2,0,L|54:105,1,86.3999973632813,10|8,0:1|0:1,0:0:0:0:
144,19,119793,6,0,B|164:74|233:66|233:66|253:33|299:17,1,172.799994726563,10|8,0:0|0:1,0:0:0:0:
360,10,120266,1,8,0:1:0:0:
426,91,120424,2,0,P|435:144|423:185,1,86.3999973632813,10|0,0:0|0:0,0:0:0:0:
420,186,120661,1,8,0:0:0:0:
413,197,120740,2,0,P|405:239|414:281,1,86.3999973632813,8|8,0:1|0:1,0:0:0:0:
487,357,121056,5,10,0:0:0:0:
326,266,121372,5,12,0:1:0:0:
259,306,121530,2,0,P|200:314|161:285,1,86.3999973632813,8|8,0:1|0:0,0:0:0:0:
122,359,121845,1,0,3:0:0:0:
122,359,121924,1,0,3:0:0:0:
122,359,122003,2,0,P|128:309|115:177,1,172.799994726563,8|8,0:1|0:0,0:0:0:0:
39,30,122635,5,12,0:1:0:0:
39,30,122793,1,8,0:1:0:0:
89,87,122951,2,0,P|52:117|14:97,1,86.3999973632813,8|8,0:0|0:1,0:0:0:0:
132,202,123266,1,0,3:0:0:0:
132,202,123345,1,0,3:0:0:0:
132,202,123424,1,0,3:0:0:0:
132,202,123503,1,0,3:0:0:0:
132,202,123582,2,0,P|169:232|207:212,1,86.3999973632813,8|0,2:2|0:0,0:0:0:0:
283,160,123898,6,0,B|248:117|274:46|274:46|352:64|391:150|363:236|363:236|283:258|267:321|267:321|310:331|331:373,1,576,14|8,0:1|0:0,0:0:0:0:
212,207,128635,5,8,0:0:0:0:
212,207,128793,2,0,L|165:218,1,36,0|8,3:0|0:0,0:0:0:0:
300,177,129109,2,0,L|347:166,1,36,0|8,3:0|0:0,0:0:0:0:
331,373,134003,6,0,B|310:331|267:321|267:321|283:258|363:236|363:236|391:150|352:64|274:46|274:46|248:117|283:160,1,576,14|8,0:1|0:0,0:0:0:0:
282,159,137477,5,10,0:0:0:0:
231,222,137793,2,0,L|113:212,1,108,2|2,0:0|0:0,0:0:0:0:
0,128,138582,5,0,3:0:0:0:
0,128,138661,1,0,3:0:0:0:
0,128,138740,2,0,P|30:125|56:112,1,43.1999986816407,10|0,1:2|3:0,0:0:0:0:
149,8,139214,5,0,3:0:0:0:
149,8,139293,1,0,3:0:0:0:
149,8,139372,2,0,P|138:31|142:59,1,43.1999986816407,8|0,1:2|3:0,0:0:0:0:
402,288,142372,1,0,1:0:0:0:
408,294,142451,2,0,L|484:281,1,64.799998022461,0|8,3:0|0:0,0:0:0:0:
429,200,142845,5,8,0:1:0:0:
429,200,143003,1,8,0:1:0:0:
485,147,143161,2,0,P|494:123|479:89,1,50.3999984619141,8|0,0:0|0:0,0:0:0:0:
435,37,143477,2,0,P|410:40|381:22,1,50.3999984619141,8|8,0:0|0:0,0:0:0:0:
378,25,143714,1,8,0:0:0:0:
370,18,143793,2,0,P|347:7|322:10,1,50.3999984619141,8|8,0:0|0:0,0:0:0:0:
220,77,144109,5,12,0:1:0:0:
220,77,144266,1,8,0:1:0:0:
274,131,144424,2,0,B|289:50|220:91|236:-19,1,144,10|8,0:0|0:1,0:0:0:0:
192,118,144898,1,10,0:1:0:0:
192,118,145056,2,0,P|152:126|117:100,1,72,8|0,0:0|0:0,0:0:0:0:
18,179,145372,5,10,0:1:0:0:
18,179,145530,1,8,0:1:0:0:
18,179,145688,2,0,P|8:220|29:256,1,72,8|2,0:0|0:2,0:0:0:0:
26,258,145924,1,8,0:0:0:0:
35,268,146003,2,0,P|66:275|114:250,1,72,8|8,0:1|0:1,0:0:0:0:
159,345,146319,2,0,P|191:331|226:338,1,72,10|0,0:0|0:0,0:0:0:0:
333,384,146635,5,8,0:1:0:0:
333,384,146793,1,8,0:1:0:0:
383,322,146951,2,0,B|345:256|412:262|370:175,1,144,10|8,0:0|0:1,0:0:0:0:
312,111,147424,1,10,0:1:0:0:
312,111,147582,2,0,P|258:128|221:104,1,72,8|0,0:0|0:0,0:0:0:0:
371,29,147898,5,10,0:1:0:0:
371,29,148056,2,0,P|402:12|437:15,1,72,8|8,0:1|0:0,0:0:0:0:
512,74,148372,1,2,3:2:0:0:
512,74,148451,1,0,3:0:0:0:
512,74,148530,2,0,L|510:146,1,72,8|8,0:1|0:1,0:0:0:0:
480,237,148845,2,0,L|482:309,1,72,10|0,0:0|0:0,0:0:0:0:
379,360,149161,5,10,0:1:0:0:
379,360,149319,1,8,0:1:0:0:
379,360,149477,2,0,P|345:344|302:343,1,72,8|0,0:0|0:0,0:0:0:0:
296,344,149714,1,8,0:0:0:0:
283,351,149793,2,0,P|250:366|215:369,1,72,8|8,0:1|0:1,0:0:0:0:
128,315,150109,6,0,B|94:252|157:248|111:159,1,144,10|8,0:0|0:1,0:0:0:0:
59,134,150582,1,8,0:1:0:0:
113,59,150740,2,0,P|153:70|181:51,1,72,10|0,0:0|0:0,0:0:0:0:
190,48,150977,1,8,0:0:0:0:
202,43,151056,2,0,P|230:29|274:34,1,72,8|8,0:1|0:1,0:0:0:0:
334,89,151372,2,0,P|362:103|406:98,1,72,8|0,0:0|0:0,0:0:0:0:
491,48,151688,5,10,0:1:0:0:
491,48,151845,1,8,0:1:0:0:
491,48,152003,2,0,P|478:92|498:133,1,72,8|0,0:0|0:0,0:0:0:0:
492,128,152240,1,8,0:0:0:0:
499,140,152319,2,0,P|505:174|492:207,1,72,8|8,0:1|0:1,0:0:0:0:
420,263,152635,6,0,B|380:241|380:241|332:277|272:247,1,144,10|8,0:0|0:1,0:0:0:0:
225,207,153109,1,8,0:1:0:0:
287,135,153266,2,0,P|299:89|287:58,1,72,10|0,0:0|0:0,0:0:0:0:
213,7,153582,2,0,P|192:34|157:39,1,72,10|8,0:1|0:1,0:0:0:0:
141,41,153819,1,8,0:1:0:0:
126,42,153898,2,0,P|99:18|58:17,1,72,10|0,0:0|0:0,0:0:0:0:
0,97,154214,5,12,0:1:0:0:
0,97,154372,1,8,0:1:0:0:
57,149,154530,2,0,B|106:162|106:162|142:123|209:130,1,144,10|8,0:0|0:1,0:0:0:0:
177,219,155003,1,10,0:1:0:0:
177,219,155161,2,0,P|147:271|160:303,1,72,8|0,0:0|0:0,0:0:0:0:
219,369,155477,5,10,0:1:0:0:
219,369,155635,1,8,0:1:0:0:
219,369,155793,2,0,P|251:354|287:349,1,72,8|2,0:0|0:0,0:0:0:0:
301,352,156030,1,8,0:0:0:0:
313,358,156109,2,0,P|352:367|383:368,1,72,8|0,0:1|0:0,0:0:0:0:
474,321,156424,2,0,P|464:286|467:250,1,72,10|0,0:0|0:0,0:0:0:0:
497,138,156740,5,8,0:1:0:0:
497,138,156898,1,8,0:1:0:0:
433,180,157056,2,0,B|401:191|390:224|390:224|335:224|320:171,1,144,10|8,0:0|0:1,0:0:0:0:
268,109,157530,1,10,0:1:0:0:
268,109,157688,2,8,L|341:98,1,72,8|0,0:0|0:0,0:0:0:0:
199,25,158003,5,10,0:1:0:0:
199,25,158161,1,8,0:1:0:0:
199,25,158319,2,0,P|182:75|157:77,1,72,8|2,0:0|0:0,0:0:0:0:
154,78,158556,1,8,0:2:0:0:
140,82,158635,2,0,P|98:78|50:105,1,72,8|8,0:1|0:1,0:0:0:0:
89,186,158951,2,0,P|64:220|63:275,1,72,10|0,0:0|0:0,0:0:0:0:
108,334,159266,5,10,0:1:0:0:
108,334,159424,1,8,0:1:0:0:
108,334,159582,2,0,P|147:321|189:331,1,72,8|0,0:0|0:0,0:0:0:0:
189,333,159819,1,8,0:0:0:0:
202,338,159898,2,8,P|237:341|270:329,1,72,8|8,0:1|0:1,0:1:0:0:
352,261,160214,6,0,P|334:222|353:116,1,144,10|8,0:0|0:1,0:0:0:0:
416,57,160688,1,8,0:1:0:0:
469,114,160845,2,0,P|478:148|469:199,1,72,10|0,0:0|0:0,0:0:0:0:
470,198,161082,1,8,0:0:0:0:
464,211,161161,2,0,P|455:245|464:296,1,72,8|8,0:1|0:1,0:0:0:0:
397,361,161477,2,0,P|360:346|313:348,1,72,8|0,0:0|0:0,0:0:0:0:
222,370,161793,5,10,0:1:0:0:
222,370,161872,1,8,0:1:0:0:
222,370,161951,1,8,0:1:0:0:
188,288,162109,2,0,P|186:252|196:217,1,72,10|0,0:0|0:0,0:0:0:0:
273,157,162424,1,10,0:1:0:0:
273,157,162582,1,8,0:1:0:0:
349,183,162740,2,0,P|383:191|422:172,1,72,10|0,0:0|0:0,0:0:0:0:
428,169,162977,1,8,0:2:0:0:
439,160,163056,2,0,P|442:115|426:83,1,72,8|8,0:1|0:1,0:1:0:0:
357,22,163372,6,0,L|266:12,1,72,10|0,0:0|0:0,0:0:0:0:
278,26,163609,1,8,0:0:0:0:
266,34,163688,2,0,L|175:24,1,72,8|8,0:1|0:1,0:0:0:0:
114,53,164003,2,2,P|88:102|114:194,1,144,10|12,0:0|0:1,0:1:0:0:
288,358,164635,5,10,0:0:0:0:
365,329,164793,1,10,2:1:0:0:
365,329,164872,1,8,2:2:0:0:
365,329,164951,1,8,0:1:0:0:
439,378,165109,1,10,0:1:0:0:
439,378,165266,1,10,0:0:0:0:
439,378,165424,2,0,P|470:382|515:350,1,72,2|8,0:1|0:1,0:0:0:0:
429,274,165740,5,10,0:1:0:0:
429,274,165898,1,10,0:0:0:0:
429,274,166056,2,0,P|440:222|432:189,1,72,2|8,0:0|0:1,0:0:0:0:
379,138,166372,5,10,0:1:0:0:
379,138,166530,1,10,0:0:0:0:
379,138,166688,2,0,P|368:86|376:53,1,72,2|8,0:1|0:1,0:0:0:0:
255,92,167003,5,10,0:1:0:0:
255,92,167161,1,10,0:0:0:0:
255,92,167319,2,0,P|266:40|258:7,1,72,2|8,0:1|0:1,0:0:0:0:
150,125,167635,5,10,0:1:0:0:
150,125,167793,1,10,0:0:0:0:
150,125,167951,2,0,P|139:73|147:40,1,72,2|8,0:2|0:1,0:0:0:0:
263,99,168266,5,10,0:1:0:0:
263,99,168424,1,10,0:0:0:0:
263,99,168582,2,0,B|283:157|256:200|256:200|233:209|202:235,1,144,2|8,0:0|0:1,0:1:0:0:
169,279,169056,2,0,P|123:266|85:262,1,72,10|2,0:0|0:0,0:0:0:0:
88,266,169293,1,8,0:0:0:0:
79,272,169372,6,0,P|30:270|46:194,1,129.599996044922,14|8,0:1|0:0,0:0:0:0:
49,129,169845,1,0,3:0:0:0:
49,129,169924,1,0,3:0:0:0:
49,129,170003,2,0,P|91:128|108:111,1,64.799998022461,8|8,0:1|0:1,0:0:0:0:
158,53,170319,2,0,P|206:55|279:-4,1,129.599996044922,10|8,0:0|0:1,0:0:0:0:
271,10,170793,1,8,0:1:0:0:
280,108,170951,6,0,P|268:155|285:178,1,64.799998022461,10|0,0:0|0:0,0:0:0:0:
280,174,171188,1,8,0:0:0:0:
287,179,171266,2,0,L|369:194,1,64.799998022461,8|8,0:1|0:1,0:0:0:0:
403,248,171582,1,8,0:0:0:0:
321,358,171898,5,10,0:1:0:0:
321,358,172056,1,8,0:1:0:0:
321,358,172214,2,0,P|278:342|244:345,1,64.799998022461,8|0,0:0|0:0,0:0:0:0:
249,343,172451,1,8,0:0:0:0:
240,347,172530,2,0,P|210:360|178:362,1,64.799998022461,10|8,0:1|0:1,0:0:0:0:
104,350,172845,1,10,0:0:0:0:
23,249,173161,5,8,0:1:0:0:
23,249,173319,1,8,0:1:0:0:
89,209,173477,2,0,P|106:173|94:133,1,64.799998022461,10|0,0:0|0:0,0:0:0:0:
154,33,173793,2,0,P|152:64|167:92,1,64.799998022461,10|8,0:1|0:1,0:0:0:0:
175,99,174030,1,8,0:1:0:0:
181,105,174109,2,0,B|255:81|232:131|324:97,1,129.599996044922,10|14,0:0|0:1,0:0:0:0:
512,17,174740,5,8,0:0:0:0:
464,78,174898,1,10,0:1:0:0:
464,78,174977,1,8,0:0:0:0:
464,78,175056,1,8,0:1:0:0:
512,155,175214,1,10,0:1:0:0:
512,155,175372,1,10,0:0:0:0:
512,155,175530,2,0,P|516:182|506:237,1,72,2|8,0:1|0:1,0:0:0:0:
445,298,175845,5,10,0:1:0:0:
445,298,176003,1,10,0:0:0:0:
445,298,176161,2,0,P|419:287|369:288,1,72,2|8,0:0|0:1,0:0:0:0:
329,364,176477,5,10,0:1:0:0:
329,364,176635,1,10,0:0:0:0:
329,364,176793,2,0,P|303:375|253:374,1,72,2|8,0:0|0:1,0:0:0:0:
187,323,177109,5,10,0:1:0:0:
187,323,177266,1,10,0:0:0:0:
187,323,177424,2,0,P|198:271|190:238,1,72,2|8,0:0|0:1,0:0:0:0:
98,235,177740,5,10,0:1:0:0:
98,235,177898,1,10,0:0:0:0:
98,235,178056,2,0,P|87:183|95:150,1,72,2|8,0:0|0:1,0:0:0:0:
147,77,178372,5,10,0:1:0:0:
147,77,178530,1,10,0:0:0:0:
147,77,178688,2,0,B|178:120|228:101|228:101|231:82|268:47,1,144,2|10,0:0|0:1,0:0:0:0:
339,8,179161,2,0,P|340:45|360:73,1,72,10|2,0:0|0:0,0:0:0:0:
366,81,179398,1,8,0:0:0:0:
374,87,179477,6,0,P|425:85|463:160,1,129.599996044922,14|8,0:1|0:0,0:0:0:0:
439,234,179951,1,0,3:0:0:0:
439,234,180030,1,0,3:0:0:0:
439,234,180109,2,0,L|522:222,1,64.799998022461,8|8,0:1|0:1,0:0:0:0:
448,314,180424,2,0,P|418:368|356:372,1,129.599996044922,10|8,0:0|0:1,0:0:0:0:
356,372,180898,1,8,0:1:0:0:
298,323,181056,6,0,P|305:283|290:242,1,64.799998022461,8|0,0:0|0:0,0:0:0:0:
296,250,181293,1,8,0:0:0:0:
290,241,181372,2,0,P|283:201|298:160,1,64.799998022461,10|8,0:1|0:1,0:0:0:0:
270,73,181688,2,0,B|227:95|227:95|164:61,1,97.1999970336915,8|8,0:0|0:0,0:0:0:0:
176,63,182003,6,0,P|136:32|89:114,1,158.400004833985,14|0,0:1|1:1,0:0:0:0:
110,174,182477,1,2,1:1:0:0:
66,238,182635,2,0,P|28:255|7:240,1,64.799998022461,2|0,1:0|1:0,0:0:0:0:
126,343,182951,2,0,P|164:360|185:345,1,64.799998022461,2|0,1:2|1:0,2:0:0:0:
261,294,183266,5,10,1:0:0:0:
256,192,183345,12,14,184530,0:1:0:0:
100,117,203477,6,0,B|66:196|88:312|191:342|191:342|185:320|197:277,1,340.19998961792,2|0,0:0|0:0,0:0:0:0:
211,265,204740,6,0,P|280:276|294:234,1,108.000004119873,14|0,0:1|0:0,0:0:0:0:
333,182,205214,2,0,P|328:160|351:172,1,54.0000020599366,2|0,0:0|0:0,0:0:0:0:
350,165,205688,2,0,L|226:156,1,108.000004119873,2|0,0:0|0:0,0:0:0:0:
180,114,206161,2,0,P|190:94|167:72,1,54.0000020599366,2|0,0:0|0:0,0:0:0:0:
171,73,206635,2,0,P|143:94|100:39,1,108.000004119873,2|0,0:0|0:0,0:0:0:0:
14,153,207266,6,0,L|20:269,1,108.000004119873,2|0,0:0|0:0,0:0:0:0:
5,333,207740,2,0,P|23:314|119:322,1,108.000004119873,2|0,0:0|0:0,0:0:0:0:
171,345,208214,2,0,P|217:379|268:358,1,108.000004119873,2|0,0:0|0:0,0:0:0:0:
323,319,208688,2,0,P|314:287|329:266,1,54.0000020599366,2|0,0:0|0:0,0:0:0:0:
323,270,209161,2,2,P|384:281|414:231,1,108.000004119873,0|0,0:0|0:0,0:0:0:0:
495,141,209793,6,0,B|464:96|513:81|479:32,1,108.000004119873,14|0,0:1|0:0,0:0:0:0:
420,6,210266,2,0,P|413:35|397:21,1,54.0000020599366,2|0,0:0|0:0,0:0:0:0:
400,29,210740,2,0,P|353:3|286:25,1,108.000004119873,2|0,0:0|0:0,0:0:0:0:
251,72,211214,2,0,L|245:137,1,54.0000020599366,2|0,0:0|0:0,0:0:0:0:
246,125,211688,2,0,P|199:151|132:129,1,108.000004119873,2|0,0:0|0:0,0:0:0:0:
326,215,212319,6,0,P|373:189|440:211,1,108.000004119873,2|0,0:0|0:0,0:0:0:0:
481,262,212793,2,0,P|471:288|472:323,1,54.0000020599366,2|0,0:0|0:0,0:0:0:0:
470,313,213266,2,0,B|409:309|434:354|359:356,1,108.000004119873,2|0,0:0|0:0,0:0:0:0:
312,316,213740,2,0,P|324:279|308:260,1,54.0000020599366,2|0,0:0|0:0,0:0:0:0:
317,268,214214,2,0,P|303:230|337:150,1,108.000004119873,2|0,0:0|0:0,0:0:0:0:
479,76,214845,6,0,B|424:96|424:96|368:71,1,108.000004119873,14|0,0:1|0:0,0:0:0:0:
303,53,215319,2,0,P|314:33|297:6,1,54.0000020599366,2|0,0:0|0:0,0:0:0:0:
299,7,215793,2,0,P|271:68|280:124,1,108.000004119873,2|0,0:0|0:0,0:0:0:0:
302,182,216266,2,0,P|317:210|302:227,1,54.0000020599366,2|0,0:0|0:0,0:0:0:0:
305,224,216740,2,0,P|248:208|191:231,1,108.000004119873,2|0,0:0|0:0,0:0:0:0:
144,352,217372,6,0,P|87:368|30:345,1,108.000004119873,2|0,0:0|0:0,0:0:0:0:
0,295,217845,2,0,L|15:232,1,54.0000020599366,2|0,0:0|0:0,0:0:0:0:
12,242,218319,2,0,L|9:128,1,108.000004119873,2|0,0:0|0:0,0:0:0:0:
63,76,218793,2,0,P|101:94|155:57,1,108.000004119873,2|0,0:0|0:0,0:0:0:0:
218,16,219266,2,0,P|256:34|310:-3,1,108.000004119873,2|0,0:0|0:0,0:0:0:0:
469,90,219898,6,0,B|458:125|458:125|466:154|466:154|449:215,1,108.000004119873,14|0,0:1|0:0,0:0:0:0:
429,267,220372,2,0,P|445:298|446:338,1,54.0000020599366,2|2,0:0|0:3,0:0:0:0:
447,316,220845,2,0,P|409:304|328:307,1,108.000004119873,2|0,0:0|0:0,0:0:0:0:
266,325,221319,2,0,P|263:351|248:380,1,54.0000020599366,2|0,0:0|0:0,0:0:0:0:
251,375,221793,2,0,L|241:246,1,108.000004119873,2|0,0:0|0:0,0:0:0:0:
145,148,222424,6,0,P|110:164|79:152,1,61.2000011672974,10|8,0:3|0:0,0:0:0:0:
80,156,222661,1,8,0:0:0:0:
71,151,222740,2,0,P|58:97|65:73,1,61.2000011672974,8|8,0:0|0:1,0:0:0:0:
164,16,223056,6,0,P|215:36|275:21,2,91.1999975646973,8|8|8,0:0|0:3|0:3,0:0:0:0:
245,124,223688,6,0,P|299:108|338:42,2,100.799996923828,8|8|8,0:0|0:3|0:3,0:0:0:0:
78,52,224319,5,8,0:0:0:0:
32,335,224951,5,14,0:1:0:0:
32,335,225108,2,0,B|22:341|12:354|12:354|6:316|35:297,1,93.5999957153322,10|8,0:1|0:0,0:0:0:0:
168,359,225424,1,2,0:1:0:0:
168,359,225582,2,0,B|178:365|188:378|188:378|194:340|165:321,1,93.5999957153322,10|8,0:1|0:1,0:0:0:0:
164,320,225898,6,0,P|138:277|174:135,1,187.199991430664,10|8,0:0|0:1,0:0:0:0:
146,76,226372,1,8,0:1:0:0:
236,125,226530,2,0,P|257:121|310:70,1,93.5999957153322,8|0,0:0|0:0,0:0:0:0:
321,79,226766,1,8,0:0:0:0:
333,84,226845,2,0,P|361:47|405:32,1,93.5999957153322,8|8,0:1|0:1,0:0:0:0:
492,89,227161,2,0,B|492:120|492:120|508:141|508:141|504:193,1,93.5999957153322,8|0,0:0|0:0,0:0:0:0:
470,304,227477,5,10,0:1:0:0:
470,304,227635,2,0,B|463:330|447:333|447:333|457:303|440:265,1,93.5999957153322,10|8,0:1|0:0,0:0:0:0:
376,204,227951,1,2,3:2:0:0:
376,204,228029,1,0,3:2:0:0:
376,204,228109,2,0,B|369:230|353:233|353:233|363:203|346:165,1,93.5999957153322,8|8,0:1|0:1,0:0:0:0:
270,102,228424,6,0,B|236:143|182:123|182:123|167:73|117:64,1,187.199991430664,10|8,0:0|0:1,0:0:0:0:
36,9,228898,2,0,P|23:37|27:103,1,93.5999957153322,10|8,0:1|0:0,0:0:0:0:
104,170,229214,1,2,3:2:0:0:
104,170,229293,1,0,3:0:0:0:
104,170,229372,2,0,P|117:198|113:264,1,93.5999957153322,8|8,0:1|0:1,0:0:0:0:
53,343,229687,5,8,0:0:0:0:
246,366,230003,5,14,0:1:0:0:
246,366,230161,2,0,B|301:366|280:341|362:348,1,93.5999957153322,10|8,0:1|0:0,0:0:0:0:
421,287,230477,1,2,0:0:0:0:
421,287,230635,2,0,B|476:287|455:312|537:305,1,93.5999957153322,8|8,0:1|0:1,0:0:0:0:
511,306,230951,6,0,P|526:250|491:117,1,187.199991430664,10|8,0:0|0:1,0:0:0:0:
483,48,231424,1,8,0:1:0:0:
419,122,231582,2,0,P|372:139|315:136,1,93.5999957153322,10|0,0:0|0:0,0:0:0:0:
314,135,231819,1,8,0:0:0:0:
301,128,231898,2,0,P|257:111|210:111,1,93.5999957153322,10|8,0:1|0:1,0:0:0:0:
151,182,232214,2,0,P|162:219|148:281,1,93.5999957153322,10|0,0:0|0:0,0:0:0:0:
51,345,232529,5,10,0:1:0:0:
51,345,232688,2,0,P|40:308|54:246,1,93.5999957153322,10|8,0:1|0:0,0:0:0:0:
159,190,233003,1,2,3:2:0:0:
159,190,233082,1,0,3:0:0:0:
159,190,233161,2,0,P|170:153|156:91,1,93.5999957153322,8|8,0:1|0:1,0:0:0:0:
105,23,233477,5,10,0:0:0:0:
105,23,233793,5,8,0:1:0:0:
162,80,233951,1,8,0:1:0:0:
228,34,234109,2,0,B|271:21|271:21|347:33,1,93.5999957153322,8|8,0:0|0:1,0:0:0:0:
367,118,234424,2,0,B|410:105|410:105|486:117,1,93.5999957153322,8|8,0:1|0:1,0:0:0:0:
512,247,234740,5,2,3:0:0:0:
512,247,234819,1,0,3:0:0:0:
512,247,234898,1,0,3:0:0:0:
512,247,234977,1,0,3:0:0:0:
512,247,235056,2,0,P|496:309|381:290,1,187.199991430664,14|8,0:1|0:0,0:0:0:0:
365,151,235530,2,0,P|349:213|234:194,1,187.199991430664,10|8,0:1|0:1,0:0:0:0:
243,209,236003,6,8,B|207:124|300:121|245:13,1,187.199991430664,10|8,0:2|0:1,0:1:0:0:
182,0,236477,1,8,0:1:0:0:
121,75,236635,2,0,P|105:118|110:180,1,93.5999957153322,8|0,0:0|0:0,0:0:0:0:
109,178,236872,1,8,0:0:0:0:
113,191,236951,2,0,P|129:234|124:296,1,93.5999957153322,8|8,0:1|0:1,0:0:0:0:
39,362,237266,2,0,P|23:319|28:257,1,93.5999957153322,8|0,0:0|0:0,0:0:0:0:
150,298,237582,5,10,0:1:0:0:
150,298,237740,2,0,B|194:309|194:309|245:294,1,93.5999957153322,8|8,0:1|0:0,0:0:0:0:
333,367,238056,1,2,3:2:0:0:
333,367,238135,1,0,3:0:0:0:
333,367,238214,2,0,B|377:378|377:378|428:363,1,93.5999957153322,8|8,0:1|0:1,0:0:0:0:
504,285,238529,6,0,B|519:186|419:224|459:84,1,187.199991430664,10|8,0:0|0:1,0:0:0:0:
389,212,239003,2,0,P|324:240|299:211,1,93.5999957153322,10|8,0:1|0:0,0:0:0:0:
239,159,239319,5,0,3:0:0:0:
239,159,239398,1,0,3:0:0:0:
239,159,239477,2,0,P|247:100|220:62,1,93.5999957153322,10|8,0:1|0:1,0:0:0:0:
147,7,239793,2,0,P|105:42|127:139,1,140.399993572998,10|8,0:0|0:0,0:0:0:0:
123,138,240109,6,0,P|136:168|113:239,1,93.5999957153322,14|8,0:1|0:1,0:0:0:0:
27,324,240424,2,0,P|66:309|127:308,1,93.5999957153322,10|0,0:0|0:0,0:0:0:0:
129,313,240661,1,8,0:0:0:0:
141,319,240740,2,0,P|180:334|241:335,1,93.5999957153322,10|8,0:1|0:1,0:0:0:0:
318,261,241056,6,0,B|351:174|266:181|302:71,1,187.199991430664,10|8,0:0|0:1,0:0:0:0:
344,19,241529,1,8,0:1:0:0:
450,63,241687,2,0,P|459:116|440:155,1,93.5999957153322,10|0,0:0|0:0,0:0:0:0:
435,162,241924,1,8,0:0:0:0:
429,174,242003,2,0,P|412:217|422:262,1,93.5999957153322,8|8,0:1|0:1,0:0:0:0:
493,346,242319,5,10,0:0:0:0:
270,337,242635,5,10,0:1:0:0:
333,384,242793,2,0,P|349:341|340:296,1,93.5999957153322,8|8,0:1|0:0,0:0:0:0:
267,218,243108,1,2,3:2:0:0:
267,218,243187,1,0,3:0:0:0:
267,218,243266,2,0,P|224:261|100:204,1,187.199991430664,8|10,0:1|0:0,0:0:0:0:
0,54,243898,6,0,B|43:60|43:60|103:43,1,93.5999957153322,10|0,3:1|3:0,3:0:0:0:
98,58,244135,1,0,3:0:0:0:
106,68,244214,2,0,B|149:74|149:74|209:57,1,93.5999957153322,8|8,3:3|3:3,0:0:0:0:
300,104,244530,2,0,B|343:110|343:110|403:93,1,93.5999957153322,2|0,1:0|1:0,0:0:0:0:
404,91,244766,1,0,1:0:0:0:
417,87,244845,2,0,P|462:104|437:220,1,187.199991430664,10|10,1:2|0:1,0:0:0:0:
55,238,245793,6,0,P|23:272|52:388,1,144,14|0,0:1|0:0,0:0:0:0:
156,212,246424,2,8,L|163:299,1,72,10|8,0:1|0:2,0:1:0:0:
223,337,246740,1,2,0:0:0:0:
223,337,246898,2,0,P|271:331|371:334,1,144,8|0,0:1|0:0,0:0:0:0:
467,384,247372,2,0,P|480:315|439:258,1,144,2|8,0:0|0:1,0:0:0:0:
403,92,248003,6,0,L|390:180,1,72,2|8,0:0|0:1,0:0:0:0:
337,215,248319,1,8,0:0:0:0:
337,215,248477,2,0,P|289:209|189:212,1,144,2|0,0:0|0:0,0:0:0:0:
93,262,248951,2,0,P|79:193|120:136,1,144,10|0,0:1|0:0,0:0:0:0:
211,70,249424,2,0,L|114:56,1,72,10|8,0:1|0:0,0:0:0:0:
273,0,249740,1,2,0:0:0:0:
273,0,249898,2,0,P|286:44|382:29,1,144,2|14,0:0|0:1,0:0:0:0:
512,139,250530,6,0,P|499:183|403:168,1,144,2|8,0:0|0:0,0:0:0:0:
388,260,251003,2,0,P|355:201|289:214,1,144,2|0,0:0|0:0,0:0:0:0:
236,269,251477,2,0,B|247:327|195:360|195:360|139:334,1,144,14|0,0:1|0:0,0:0:0:0:
90,383,251951,2,0,P|79:346|96:306,1,72,10|8,0:1|0:0,0:0:0:0:
54,244,252266,2,0,P|43:207|60:167,1,72,2|2,0:0|0:0,0:0:0:0:
221,41,252740,6,0,B|187:52|187:52|133:34,1,72,12|2,0:1|0:0,0:0:0:0:
287,164,253214,2,0,B|321:175|321:175|375:157,1,72,10|10,0:1|0:0,0:0:0:0:
208,296,253688,2,0,B|174:307|174:307|120:289,1,72,2|2,0:0|0:0,0:0:0:0:
65,246,254003,6,0,L|58:188,2,48,4|0|0,3:2|3:0|3:0,0:0:0:0:
79,205,254319,2,0,L|72:147,2,48,0|0|0,3:0|3:0|3:0,0:0:0:0:
93,164,254635,2,0,L|86:106,2,48,0|0|0,3:0|3:0|3:0,0:0:0:0:
107,123,254951,2,0,L|100:65,2,48,0|0|0,3:0|3:0|3:0,0:0:0:0:
186,155,255266,6,0,P|247:164|344:92,1,144,14|0,0:1|0:0,0:0:0:0:
391,82,255740,1,8,0:1:0:0:
391,82,255819,1,8,0:1:0:0:
391,82,255898,2,0,P|363:142|392:209,1,144,8|0,0:0|0:0,0:0:0:0:
512,332,256530,6,0,L|432:324,1,72,10|8,0:1|0:0,0:0:0:0:
375,373,256845,1,2,0:0:0:0:
375,373,257003,2,0,P|384:328|369:289,1,72,8|8,0:1|0:0,0:0:0:0:
328,243,257319,2,0,P|337:198|322:159,1,72,2|2,0:0|0:0,0:0:0:0:
206,59,257793,6,0,B|157:52|157:52|125:69|125:69|39:53,1,144,10|0,0:1|0:0,0:0:0:0:
67,58,258266,1,8,0:1:0:0:
122,149,258424,2,0,P|145:181|125:289,1,144,10|0,0:0|0:0,0:0:0:0:
133,279,259056,6,0,P|130:235|148:202,1,72,10|8,0:1|0:0,0:0:0:0:
208,167,259372,1,2,0:0:0:0:
208,167,259530,2,0,P|253:167|268:139,1,72,8|8,0:1|0:0,0:0:0:0:
322,87,259845,1,2,0:0:0:0:
322,87,260003,2,0,P|277:87|262:59,1,72,2|0,0:0|0:0,0:0:0:0:
171,0,260319,6,0,P|186:44|96:69,1,144,14|0,0:1|0:0,0:0:0:0:
113,82,260793,1,8,0:1:0:0:
64,151,260951,2,0,P|46:199|75:300,1,144,10|0,0:0|0:0,0:0:0:0:
65,287,261582,6,0,P|109:274|145:279,1,72,10|8,0:1|0:0,0:0:0:0:
203,317,261898,1,2,0:0:0:0:
203,317,262056,2,0,P|236:328|272:327,1,72,8|8,0:1|0:0,0:0:0:0:
347,299,262372,1,2,0:0:0:0:
347,299,262530,2,0,L|353:214,1,72,2|0,0:0|0:0,0:0:0:0:
432,147,262845,6,0,P|436:168|436:144,1,72,10|2,0:1|0:0,0:0:0:0:
289,31,263319,6,0,P|285:52|285:28,1,72,2|10,0:0|0:0,0:0:0:0:
204,188,263793,6,0,P|208:209|208:185,1,72,2|2,0:0|0:0,0:0:0:0:
91,59,264266,6,0,P|87:80|87:56,1,72,10|2,0:0|0:0,0:0:0:0:
25,245,264740,5,10,0:0:0:0:
25,245,264898,2,0,P|74:246|87:217,1,72,2|8,0:0|0:0,0:0:0:0:
144,176,265214,6,0,P|193:177|206:148,1,72,10|0,0:1|0:0,0:0:0:0:
