osu file format v14

[General]
AudioFilename: audio.mp3
AudioLeadIn: 0
PreviewTime: 103479
Countdown: 0
SampleSet: Soft
StackLeniency: 0.7
Mode: 0
LetterboxInBreaks: 0
WidescreenStoryboard: 1

[Editor]
Bookmarks: 43056,63266,83477,103688,123898,144109,164319,184530,189582,204740,224951,245161,265372
DistanceSpacing: 1.1
BeatDivisor: 4
GridSize: 32
TimelineZoom: 3.499999

[Metadata]
Title:moon
TitleUnicode:moon
Artist:556t
ArtistUnicode:556t
Creator:revurii
Version:end
Source:
Tags:lasse shikibe mayu shizuku- kazato asa 回路-kairo- kairo sagara kokoro 相良 心 ke 毛 japanese rock 夜明けのセカイと思考回路 world of dawn and a train of thought comiket 78 c78 秋m3 m3-26 m3
BeatmapID:3114426
BeatmapSetID:1141522

[Difficulty]
HPDrainRate:8
CircleSize:4
OverallDifficulty:8
ApproachRate:9.3
SliderMultiplier:1.8
SliderTickRate:1

[Events]
//Background and Video events
0,0,"moon kona290402 edit.jpg",0,0
//Break Periods
2,126624,128081
2,129308,133449
2,194556,202923
//Storyboard Layer 0 (Background)
//Storyboard Layer 1 (Fail)
//Storyboard Layer 2 (Pass)
//Storyboard Layer 3 (Foreground)
//Storyboard Layer 4 (Overlay)
//Storyboard Sound Samples

[TimingPoints]
2635.37805256091,315.789473684211,4,2,1,5,1,0
42424,-100,4,2,1,10,0,0
42740,-100,4,2,1,30,0,0
42898,-100,4,2,1,5,0,0
43056,-100,4,2,1,50,0,0
43688,-200,4,2,1,50,0,0
44319,-100,4,2,1,50,0,0
44951,-200,4,2,1,50,0,0
45582,-100,4,2,1,50,0,0
46214,-200,4,2,1,50,0,0
46845,-100,4,2,1,50,0,0
48740,-200,4,2,1,50,0,0
49372,-100,4,2,1,50,0,0
50003,-200,4,2,1,50,0,0
50635,-100,4,2,1,50,0,0
51266,-200,4,2,1,50,0,0
51898,-100,4,2,1,50,0,0
52688,-100,4,2,0,50,0,0
52845,-100,4,2,1,50,0,0
52924,-100,4,2,0,50,0,0
53082,-100,4,2,1,50,0,0
53792,-200,4,2,1,50,0,0
54424,-100,4,2,1,50,0,0
55055,-200,4,2,1,50,0,0
55688,-100,4,2,1,50,0,0
56319,-200,4,2,1,50,0,0
56951,-100,4,2,1,50,0,0
58845,-200,4,2,1,50,0,0
59477,-100,4,2,1,50,0,0
60108,-200,4,2,1,50,0,0
60740,-100,4,2,1,50,0,0
63266,-200,4,2,1,30,0,0
83477,-100,4,2,1,50,0,0
98635,-90.9090909090909,4,2,1,50,0,0
100845,-83.3333333333333,4,2,1,50,0,0
101161,-200,4,2,1,50,0,0
102503,-200,4,3,0,50,0,0
103688,-71.4285714285714,4,2,1,60,0,1
108109,-142.857142857143,4,2,1,60,0,1
108740,-71.4285714285714,4,2,1,60,0,1
113635,-71.4285714285714,4,2,0,60,0,1
113793,-71.4285714285714,4,2,1,60,0,1
123345,-71.4285714285714,4,2,0,60,0,1
123582,-71.4285714285714,4,2,1,60,0,1
123661,-71.4285714285714,4,2,0,60,0,1
123898,-300,4,2,1,30,0,0
137793,-200,4,2,1,30,0,0
143635,-200,4,2,0,30,0,0
143793,-200,4,2,1,30,0,0
143872,-200,4,2,0,30,0,0
144030,-200,4,2,1,30,0,0
144109,-75.000000001875,4,2,1,60,0,0
144424,-200,4,2,1,60,0,0
144740,-75.000000001875,4,2,1,60,0,0
145055,-200,4,2,1,60,0,0
145372,-75.000000001875,4,2,1,60,0,0
145687,-200,4,2,1,60,0,0
146003,-75.000000001875,4,2,1,60,0,0
146318,-200,4,2,1,60,0,0
146635,-75.000000001875,4,2,1,60,0,0
146950,-200,4,2,1,60,0,0
147266,-75.000000001875,4,2,1,60,0,0
147581,-200,4,2,1,60,0,0
147898,-75.000000001875,4,2,1,60,0,0
148213,-200,4,2,1,60,0,0
148530,-75.000000001875,4,2,1,60,0,0
148845,-200,4,2,1,60,0,0
149161,-75.000000001875,4,2,1,60,0,0
149476,-200,4,2,1,60,0,0
149793,-75.000000001875,4,2,1,60,0,0
150108,-200,4,2,1,60,0,0
150424,-75.000000001875,4,2,1,60,0,0
150739,-200,4,2,1,60,0,0
151056,-75.000000001875,4,2,1,60,0,0
151371,-200,4,2,1,60,0,0
151688,-75.000000001875,4,2,1,60,0,0
152003,-200,4,2,1,60,0,0
152319,-75.000000001875,4,2,1,60,0,0
152634,-200,4,2,1,60,0,0
152951,-75.000000001875,4,2,1,60,0,0
153266,-200,4,2,1,60,0,0
153582,-75.000000001875,4,2,1,60,0,0
153897,-200,4,2,1,60,0,0
154056,-200,4,2,0,60,0,0
154214,-75.000000001875,4,2,1,60,0,0
154529,-200,4,2,1,60,0,0
154845,-75.000000001875,4,2,1,60,0,0
155160,-200,4,2,1,60,0,0
155477,-75.000000001875,4,2,1,60,0,0
155792,-200,4,2,1,60,0,0
156109,-75.000000001875,4,2,1,60,0,0
156424,-200,4,2,1,60,0,0
156740,-75.000000001875,4,2,1,60,0,0
157055,-200,4,2,1,60,0,0
157372,-75.000000001875,4,2,1,60,0,0
157687,-200,4,2,1,60,0,0
158003,-75.000000001875,4,2,1,60,0,0
158318,-200,4,2,1,60,0,0
158635,-75.000000001875,4,2,1,60,0,0
158950,-200,4,2,1,60,0,0
159266,-75.000000001875,4,2,1,60,0,0
159581,-200,4,2,1,60,0,0
159898,-75.000000001875,4,2,1,60,0,0
160213,-200,4,2,1,60,0,0
160530,-75.000000001875,4,2,1,60,0,0
160845,-200,4,2,1,60,0,0
161161,-75.000000001875,4,2,1,60,0,0
161476,-200,4,2,1,60,0,0
161793,-75.000000001875,4,2,1,60,0,0
162108,-200,4,2,1,60,0,0
162424,-75.000000001875,4,2,1,60,0,0
162739,-200,4,2,1,60,0,0
163056,-75.000000001875,4,2,1,60,0,0
163371,-200,4,2,1,60,0,0
163451,-200,4,2,0,60,0,0
164003,-200,4,2,1,60,0,0
164082,-200,4,2,0,60,0,0
164319,-75.000000001875,4,2,1,60,0,0
166845,-66.6666666666667,4,2,1,60,0,0
169372,-100,4,2,1,60,0,0
174030,-100,4,2,0,60,0,0
174109,-100,4,2,1,60,0,0
174266,-100,4,2,0,60,0,0
174424,-75.000000001875,4,2,1,60,0,0
176951,-66.6666666666667,4,2,1,60,0,0
179477,-100,4,2,1,60,0,0
181688,-66.6666666666667,4,2,1,60,0,0
182003,-150,4,2,1,60,0,0
183266,-66.6666666666667,4,2,1,60,0,0
184530,-666.666666666667,4,2,1,30,0,0
184549,-666.666666666667,4,1,1,5,0,0
189582,-666.666666666667,4,2,1,5,0,0
203477,-150,4,2,1,15,0,0
203898,-120,4,2,1,30,0,0
204319,-100,4,2,1,45,0,0
204740,-200,4,2,1,50,0,0
222424,-120,4,2,1,50,0,0
223056,-100,4,2,1,50,0,0
223266,-120,4,2,1,50,0,0
223688,-100,4,2,1,50,0,0
223898,-120,4,2,1,50,0,0
224109,-100,4,2,1,50,0,0
224951,-58.8235294117647,4,2,1,60,0,1
229372,-111.111111111111,4,2,1,50,0,1
230003,-58.8235294117647,4,2,1,60,0,1
234898,-58.8235294117647,4,2,0,60,0,1
235056,-58.8235294117647,4,2,1,60,0,1
244609,-58.8235294117647,4,2,0,60,0,1
244845,-58.8235294117647,4,2,1,60,0,1
244924,-58.8235294117647,4,2,0,60,0,1
245161,-50,4,2,1,60,0,0
245477,-66.6666666666667,4,2,1,60,0,0
245793,-200,4,2,1,60,0,0
246424,-75,4,2,1,60,0,0
247056,-200,4,2,1,60,0,0
247688,-75,4,2,1,60,0,0
248319,-200,4,2,1,60,0,0
248951,-75,4,2,1,60,0,0
250845,-200,4,2,1,60,0,0
251477,-75,4,2,1,60,0,0
252109,-200,4,2,1,60,0,0
252740,-75,4,2,1,60,0,0
253372,-200,4,2,1,60,0,0
254003,-100,4,2,1,60,0,0
255898,-200,4,2,1,60,0,0
256530,-75,4,2,1,60,0,0
257161,-200,4,2,1,60,0,0
257793,-75,4,2,1,60,0,0
258424,-200,4,2,1,60,0,0
259056,-75,4,2,1,60,0,0
260951,-200,4,2,1,60,0,0
261582,-75,4,2,1,60,0,0
262214,-200,4,2,1,60,0,0
262845,-75,4,2,1,60,0,0
263477,-200,4,2,1,60,0,0
264109,-75,4,2,1,60,0,0
264740,-200,4,2,1,60,0,0
265214,-1000,4,2,1,30,0,0
265234,-1000,4,1,1,5,0,0
275477,-1000,4,2,1,5,0,0

[Colours]
Combo1 : 255,198,224
Combo2 : 128,128,255
Combo3 : 192,236,255
Combo4 : 255,208,192

[HitObjects]
256,192,41793,12,0,42898,0:0:0:0:
406,70,43056,6,0,B|443:58|443:58|493:68,1,90,4|0,3:1|0:0,0:0:0:0:
342,158,43372,1,0,0:0:0:0:
342,158,43530,1,0,3:0:0:0:
420,276,43688,6,0,B|371:254|371:254|291:266,1,135,8|0,1:0|0:0,1:0:0:0:
366,336,44319,6,0,P|385:297|372:255,1,90,0|8,3:0|1:0,0:0:0:0:
220,206,44635,1,0,0:0:0:0:
256,277,44793,1,0,3:0:0:0:
116,365,44951,6,0,B|126:315|126:315|113:280|113:280|122:234,1,135,8|0,1:0|0:0,1:0:0:0:
36,320,45582,6,0,L|126:315,1,90,0|8,3:0|1:0,0:0:0:0:
220,206,45898,1,0,0:0:0:0:
220,206,46056,1,0,3:0:0:0:
197,60,46214,6,0,P|146:24|62:56,1,135,8|0,1:0|0:0,1:0:0:0:
0,141,46845,6,0,B|-12:184|-12:184|33:204,1,90,0|8,3:0|1:0,0:0:0:0:
159,251,47161,1,0,0:0:0:0:
220,206,47319,1,0,3:0:0:0:
438,314,47477,5,8,1:0:0:0:
376,363,47635,1,0,0:0:0:0:
257,209,47793,1,0,3:0:0:0:
449,182,47951,1,8,1:0:0:0:
368,384,48109,6,0,L|266:376,1,90,4|0,3:1|0:0,0:0:0:0:
212,294,48424,1,0,0:0:0:0:
212,294,48582,1,0,3:0:0:0:
56,317,48740,6,0,P|14:267|35:193,1,135,8|0,1:0|0:0,1:0:0:0:
117,127,49372,6,0,L|220:141,1,90,0|8,3:0|1:0,0:0:0:0:
133,298,49688,1,0,0:0:0:0:
56,317,49845,1,0,3:0:0:0:
275,204,50003,6,0,P|237:172|156:184,1,135,8|0,1:0|0:0,1:0:0:0:
133,298,50635,6,0,P|122:345|171:386,1,90,0|8,3:0|1:0,0:0:0:0:
251,240,50951,1,0,0:0:0:0:
251,240,51109,1,0,3:0:0:0:
179,79,51266,6,0,L|33:100,1,135,8|0,1:0|0:0,1:0:0:0:
25,215,51898,6,0,P|54:242|121:228,1,90,0|8,3:0|1:0,0:0:0:0:
226,144,52214,1,0,0:0:0:0:
179,79,52372,1,0,3:0:0:0:
120,260,52530,6,0,L|175:268,1,45,8|0,1:0|0:0,0:0:0:0:
354,208,52688,1,0,3:0:0:0:
367,222,52766,1,0,3:0:0:0:
373,250,52845,1,8,1:0:0:0:
357,282,52924,1,0,3:0:0:0:
315,294,53003,1,0,3:0:0:0:
278,260,53082,1,8,1:0:0:0:
282,216,53161,6,0,L|294:123,1,90,4|0,3:1|0:0,0:0:0:0:
410,44,53477,1,0,0:0:0:0:
449,112,53635,1,0,3:0:0:0:
252,163,53793,6,0,P|200:114|134:136,1,135,8|0,1:0|0:0,1:0:0:0:
314,270,54424,6,0,P|344:291|395:286,1,90,0|8,3:0|1:0,0:0:0:0:
470,216,54740,1,0,0:0:0:0:
470,216,54898,1,0,3:0:0:0:
380,83,55056,6,0,L|366:227,1,135,8|0,1:0|0:0,1:0:0:0:
254,302,55688,6,0,L|243:193,1,90,0|8,3:0|1:0,0:0:0:0:
142,137,56003,1,0,0:0:0:0:
87,194,56161,1,0,3:0:0:0:
238,333,56319,6,0,P|291:293|359:315,1,135,8|0,1:0|0:0,1:0:0:0:
494,225,56951,6,0,P|455:246|413:235,1,90,0|8,3:0|1:0,0:0:0:0:
367,121,57266,1,0,0:0:0:0:
367,121,57424,1,0,3:0:0:0:
180,55,57582,5,8,1:0:0:0:
7,153,57740,1,0,0:0:0:0:
194,219,57898,1,0,3:0:0:0:
135,117,58056,1,8,1:0:0:0:
237,245,58214,6,0,P|268:211|259:168,1,90,4|0,3:1|0:0,0:0:0:0:
135,117,58530,1,0,0:0:0:0:
135,117,58688,1,0,3:0:0:0:
237,245,58845,6,0,L|90:269,1,135,8|0,1:0|0:0,1:0:0:0:
28,193,59477,6,0,P|5:158|19:102,1,90,0|8,3:0|1:0,0:0:0:0:
127,27,59793,1,0,0:0:0:0:
167,97,59951,1,0,3:0:0:0:
297,196,60109,6,0,P|359:208|404:162,1,135,8|0,1:0|0:0,1:0:0:0:
396,19,60740,6,0,B|424:13|424:13|452:24|452:24|482:18,2,90,4|0|8,3:1|3:0|1:0,0:0:0:0:
248,139,61214,1,0,3:0:0:0:
82,47,61372,1,0,3:0:0:0:
251,163,61530,6,0,L|260:257,1,90,8|0,1:0|3:0,0:0:0:0:
268,343,61845,1,0,3:0:0:0:
375,201,62003,6,0,L|397:93,1,90,8|0,1:0|3:0,0:0:0:0:
113,269,62319,2,0,L|78:169,1,90,8|0,1:0|3:0,0:0:0:0:
268,343,62635,5,2,0:0:0:0:
270,351,62713,1,0,0:0:0:0:
273,359,62792,1,0,0:0:0:0:
276,368,62871,1,0,0:0:0:0:
279,376,62950,1,2,0:0:0:0:
474,136,63266,5,8,0:0:0:0:
474,136,63424,2,0,L|478:84,2,45,0|8|0,0:0|0:0|0:0,0:0:0:0:
397,183,63898,6,0,L|393:138,1,45,8|0,0:0|0:0,0:0:0:0:
311,145,64214,2,0,L|305:97,1,45,8|0,0:0|0:0,0:0:0:0:
241,36,64530,2,0,L|197:41,2,45,8|0|8,0:0|0:0|0:0,0:0:0:0:
144,105,65003,5,0,0:0:0:0:
118,130,65161,2,0,L|57:122,1,45,8|0,0:0|0:0,0:0:0:0:
184,214,65477,2,0,L|245:222,1,45,8|0,0:0|0:0,0:0:0:0:
113,286,65793,2,0,L|119:335,2,45,8|0|8,0:0|0:0|0:0,0:0:0:0:
184,214,66266,5,0,0:0:0:0:
213,231,66424,2,0,P|235:232|258:228,1,45,8|0,0:0|0:0,0:0:0:0:
312,154,66740,2,0,P|313:131|309:108,1,45,8|0,0:0|0:0,0:0:0:0:
347,240,67056,2,0,P|365:252|387:260,2,45,8|0|8,0:0|0:0|0:0,0:0:0:0:
423,271,67530,5,0,0:0:0:0:
406,303,67688,2,0,P|399:324|398:346,1,45,8|0,0:0|0:0,0:0:0:0:
491,235,68003,1,8,0:0:0:0:
411,162,68161,6,0,P|399:120|417:80,1,90,0|0,3:0|3:0,0:0:0:0:
418,80,68793,5,0,0:0:0:0:
418,80,68951,2,0,L|361:86,1,45,8|0,0:0|0:0,0:0:0:0:
274,80,69266,2,0,L|217:74,1,45,8|0,0:0|0:0,0:0:0:0:
386,166,69582,2,0,L|430:171,2,45,8|0|8,0:0|0:0|0:0,0:0:0:0:
311,210,70056,1,0,0:0:0:0:
307,245,70214,6,0,L|300:305,1,45,8|0,0:0|0:0,0:0:0:0:
227,330,70530,2,0,L|220:270,1,45,8|0,0:0|0:0,0:0:0:0:
144,317,70845,2,0,L|90:310,2,45,8|0|8,0:0|0:0|0:0,0:0:0:0:
221,285,71319,5,0,0:0:0:0:
234,251,71477,2,0,P|239:229|238:206,1,45,8|0,0:0|0:0,0:0:0:0:
215,97,71793,2,0,P|209:75|210:52,1,45,8|0,0:0|0:0,0:0:0:0:
159,168,72109,2,0,P|137:173|114:172,2,45,8|0|8,0:0|0:0|0:0,0:0:0:0:
237,116,72582,5,0,0:0:0:0:
237,116,72740,2,0,L|281:120,1,45,8|0,0:0|0:0,0:0:0:0:
358,141,73056,2,0,L|355:96,1,45,8|0,0:0|0:0,0:0:0:0:
467,245,73372,6,0,L|461:301,1,45,12|0,3:2|0:0,0:0:0:0:
377,273,73688,2,0,L|383:329,1,45,8|0,0:0|0:0,0:0:0:0:
303,342,74003,6,0,L|297:286,1,45,8|0,0:0|0:0,0:0:0:0:
213,314,74319,2,0,L|219:258,1,45,8|0,0:0|0:0,0:0:0:0:
136,352,74635,2,0,L|79:345,2,45,8|0|8,0:0|0:0|0:0,0:0:0:0:
217,269,75109,5,0,0:0:0:0:
214,233,75266,2,0,L|209:188,1,45,8|0,0:0|0:0,0:0:0:0:
295,282,75582,2,0,L|339:277,1,45,8|0,0:0|0:0,0:0:0:0:
209,188,75898,2,0,L|164:183,2,45,8|0|8,0:0|0:0|0:0,0:0:0:0:
296,111,76372,5,0,0:0:0:0:
316,81,76530,2,0,P|322:59|319:37,1,45,8|0,0:0|0:0,0:0:0:0:
241,8,76845,2,0,L|247:70,1,45,8|0,0:0|0:0,0:0:0:0:
182,94,77161,2,0,L|165:50,2,45,8|0|8,0:0|0:0|0:0,0:0:0:0:
100,99,77635,5,0,0:0:0:0:
100,99,77793,2,0,L|41:91,1,45,8|0,0:0|0:0,0:0:0:0:
0,218,78109,1,8,0:0:0:0:
98,321,78266,6,0,P|150:322|179:287,1,90,0|0,3:0|3:0,0:0:0:0:
175,297,78898,5,0,0:0:0:0:
175,297,79056,2,0,L|166:244,1,45,8|0,0:0|0:0,0:0:0:0:
254,284,79372,2,0,L|247:329,1,45,8|0,0:0|0:0,0:0:0:0:
329,314,79688,2,0,L|373:308,2,45,8|0|8,0:0|0:0|0:0,0:0:0:0:
401,331,80161,5,0,0:0:0:0:
428,353,80319,2,0,L|472:347,1,45,8|0,0:0|0:0,0:0:0:0:
437,261,80635,2,0,L|442:205,1,45,8|0,0:0|0:0,0:0:0:0:
437,123,80951,2,0,L|442:179,1,45,8|0,0:0|0:0,0:0:0:0:
472,36,81266,2,0,L|428:31,1,45,8|0,0:0|0:0,0:0:0:0:
360,103,81582,6,0,L|300:111,1,45,8|0,0:0|0:0,0:0:0:0:
256,55,81898,2,0,L|196:47,1,45,8|0,0:0|0:0,0:0:0:0:
152,131,82214,1,8,0:0:0:0:
152,131,82372,1,0,0:0:0:0:
80,94,82530,2,0,P|57:91|36:99,1,45,8|0,0:0|0:0,0:0:0:0:
53,216,82845,5,2,0:0:0:0:
63,218,82924,1,2,0:0:0:0:
73,220,83003,1,2,0:0:0:0:
83,222,83082,1,2,0:0:0:0:
93,225,83161,2,0,L|127:220,1,22.5,2|2,1:2|0:0,0:0:0:0:
224,202,83319,2,0,L|258:197,1,22.5,2|2,0:0|0:0,0:0:0:0:
384,181,83477,5,4,3:2:0:0:
384,181,83635,1,0,3:0:0:0:
482,254,83793,6,0,P|495:294|461:342,1,90,2|0,0:3|0:0,0:0:0:0:
446,351,84030,2,0,L|389:343,1,45,2|0,0:3|0:0,0:0:0:0:
245,289,84266,1,0,3:0:0:0:
384,181,84424,2,0,P|363:132|409:55,1,135,2|0,0:3|0:0,0:0:0:0:
426,51,84740,6,0,L|325:62,1,90,0|0,3:0|3:0,0:0:0:0:
221,194,85056,1,2,0:3:0:0:
54,182,85214,1,0,0:0:0:0:
89,184,85293,2,0,L|144:188,1,45,2|0,0:3|3:0,0:0:0:0:
260,113,85530,5,0,3:0:0:0:
352,284,85688,2,0,B|302:269|302:269|203:285,1,135,2|0,0:3|0:0,0:0:0:0:
146,301,86003,5,0,3:0:0:0:
146,301,86161,1,0,3:0:0:0:
292,352,86319,6,0,P|311:311|302:268,1,90,2|0,0:3|0:0,0:0:0:0:
277,249,86556,2,0,L|220:245,1,45,2|0,0:3|0:0,0:0:0:0:
146,301,86793,1,0,3:0:0:0:
23,117,86951,2,0,B|88:134|88:134|141:92,1,135,2|0,0:3|0:0,0:0:0:0:
168,106,87266,6,0,P|189:144|179:187,1,90,0|0,3:0|3:0,0:0:0:0:
37,269,87582,1,2,0:3:0:0:
179,187,87740,1,0,0:0:0:0:
148,192,87819,2,0,L|96:196,1,45,2|0,0:3|3:0,0:0:0:0:
233,325,88056,1,0,3:0:0:0:
296,127,88214,1,2,0:3:0:0:
459,258,88372,1,0,0:0:0:0:
459,258,88451,1,2,0:3:0:0:
482,237,88530,6,0,P|496:197|461:143,1,90,0|0,3:0|3:0,0:0:0:0:
316,144,88845,2,0,L|325:54,1,90,2|0,0:3|0:0,0:0:0:0:
247,27,89082,2,0,L|252:76,1,45,2|0,0:3|0:0,0:0:0:0:
389,117,89319,1,0,3:0:0:0:
255,102,89477,2,0,L|390:118,1,135,2|0,0:3|0:0,0:0:0:0:
449,174,89793,6,0,P|406:202|347:180,1,90,0|0,3:0|3:0,0:0:0:0:
228,178,90109,2,0,L|109:186,1,90,2|0,0:3|0:0,0:0:0:0:
223,222,90345,2,0,L|228:178,1,45,2|0,0:3|3:0,0:0:0:0:
119,85,90582,1,0,3:0:0:0:
50,233,90740,2,0,P|34:300|103:350,1,135,2|0,0:3|0:0,0:0:0:0:
106,351,91056,6,0,L|223:343,1,90,0|0,3:0|3:0,0:0:0:0:
309,211,91372,1,2,0:3:0:0:
180,259,91530,1,0,0:0:0:0:
180,259,91609,2,0,B|204:208|204:208|185:118,1,135,2|0,0:3|3:0,0:0:0:0:
114,200,92003,2,0,L|203:208,1,90,2|0,0:3|0:0,0:0:0:0:
315,125,92319,6,0,P|303:84|329:37,1,90,0|0,3:0|3:0,0:0:0:0:
464,174,92635,2,0,P|485:239|426:302,1,135,2|0,0:3|0:0,0:0:0:0:
406,356,92951,1,0,3:0:0:0:
375,362,93030,1,2,0:3:0:0:
344,368,93109,1,0,3:0:0:0:
331,249,93266,6,0,P|312:236|290:233,1,45,2|0,0:3|0:0,0:0:0:0:
212,239,93424,2,0,P|189:242|171:254,1,45
118,327,93582,5,4,3:2:0:0:
118,327,93740,1,0,0:0:0:0:
171,254,93898,6,0,P|189:206|164:152,1,90,2|0,0:3|0:0,0:0:0:0:
159,145,94135,2,0,L|105:142,1,45,2|0,0:3|0:0,0:0:0:0:
47,271,94372,1,0,3:0:0:0:
114,142,94530,2,0,P|184:156|226:104,1,135,2|0,0:3|0:0,0:0:0:0:
228,82,94845,6,0,L|322:92,1,90,0|0,3:0|3:0,0:0:0:0:
190,233,95161,1,2,0:3:0:0:
334,300,95319,1,0,0:0:0:0:
302,303,95398,2,0,L|255:308,1,45,2|0,0:3|3:0,0:0:0:0:
400,361,95635,1,0,3:0:0:0:
416,191,95793,2,0,P|388:151|410:74,1,135,2|0,0:3|0:0,0:0:0:0:
484,45,96109,5,0,3:0:0:0:
484,45,96266,1,0,3:0:0:0:
416,191,96424,6,0,P|435:239|398:289,1,90,2|0,0:3|0:0,0:0:0:0:
396,291,96661,2,0,L|335:282,1,45,2|0,0:3|0:0,0:0:0:0:
264,221,96898,1,0,3:0:0:0:
133,359,97056,2,0,P|103:328|118:265,1,90,2|0,0:3|0:0,0:0:0:0:
256,310,97372,6,0,L|265:196,1,90,0|0,3:0|3:0,0:0:0:0:
128,168,97688,1,2,0:3:0:0:
269,60,97845,1,0,0:0:0:0:
237,43,97924,2,0,L|182:57,1,45,2|0,0:3|3:0,0:0:0:0:
114,80,98161,5,0,3:0:0:0:
302,143,98319,1,2,0:3:0:0:
183,272,98477,1,0,0:0:0:0:
183,272,98556,1,0,0:0:0:0:
154,256,98635,6,0,P|142:237|144:203,1,49.5000015106202,4|0,3:2|0:0,0:0:0:0:
225,126,98793,2,0,L|284:139,1,49.5000015106202,0|0,3:0|0:0,0:0:0:0:
252,343,98951,6,0,B|364:331,1,99.0000030212403,2|0,0:0|0:0,0:0:0:0:
427,329,99188,2,0,L|487:335,1,49.5000015106202,2|2,0:3|0:0,0:0:0:0:
344,241,99424,1,0,3:0:0:0:
468,104,99582,2,0,P|429:62|328:83,1,148.50000453186,2|0,0:0|0:0,0:0:0:0:
243,165,99898,6,0,L|257:278,1,99.0000030212403,2|0,3:2|3:0,0:0:0:0:
89,116,100214,2,0,L|148:123,1,49.5000015106202,2|0,0:0|0:0,0:0:0:0:
255,263,100372,1,0,0:0:0:0:
245,291,100451,2,0,P|223:305|180:296,1,49.5000015106202,2|2,0:3|3:2,0:0:0:0:
243,165,100688,1,0,3:0:0:0:
69,100,100845,6,0,P|43:35|121:68,1,161.999995056153,2|0,0:0|0:0,0:0:0:0:
153,173,101161,6,0,P|197:166|242:164,1,90,4|0,3:2|3:0,0:0:0:0:
242,164,101635,1,0,3:0:0:0:
318,244,101793,5,0,3:0:0:0:
203,267,101951,1,0,3:0:0:0:
173,89,102109,5,2,3:0:0:0:
333,153,102266,1,2,3:0:0:0:
255,321,102424,5,0,3:0:0:0:
259,290,102503,1,0,0:0:0:0:
259,262,102582,1,0,0:0:0:0:
255,238,102661,1,0,0:0:0:0:
248,218,102740,1,2,0:0:0:0:
240,201,102819,1,0,0:0:0:0:
233,189,102898,1,0,0:0:0:0:
227,180,102977,1,0,0:0:0:0:
221,172,103056,1,8,0:0:0:0:
216,166,103135,1,8,0:0:0:0:
211,161,103214,1,8,0:0:0:0:
207,157,103293,1,8,0:0:0:0:
195,197,103372,1,4,0:0:0:0:
209,251,103451,1,4,0:0:0:0:
262,289,103530,1,4,0:0:0:0:
336,274,103609,1,4,0:0:0:0:
373,192,103688,6,0,B|428:142|428:142|474:165|479:216|447:243,1,188.999994232178,4|0,3:1|0:0,0:0:0:0:
425,312,104003,1,8,1:0:0:0:
360,364,104161,2,0,L|285:353,1,62.9999980773926,0|2,0:0|0:3,0:0:0:0:
217,360,104319,6,0,P|166:347|107:385,1,125.999996154785,0|0,3:0|3:0,0:0:0:0:
25,117,104635,2,0,P|118:148|191:76,1,188.999994232178,8|0,1:0|0:0,0:0:0:0:
313,108,104951,6,0,P|342:69|308:-10,1,125.999996154785,0|0,3:0|3:0,0:0:0:0:
115,180,105266,1,8,1:0:0:0:
166,71,105424,5,0,0:0:0:0:
146,46,105503,2,0,B|75:53,1,62.9999980773926,2|0,0:3|3:0,0:0:0:0:
239,184,105740,2,0,B|316:192,1,62.9999980773926,0|0,3:0|0:0,0:0:0:0:
146,46,105898,2,0,B|58:23|58:23|33:56|33:56|78:112,1,188.999994232178,8|0,1:0|0:0,0:0:0:0:
180,206,106214,6,0,B|233:183|233:183|304:190,1,125.999996154785,0|0,3:0|3:0,0:0:0:0:
115,366,106530,1,8,1:0:0:0:
21,350,106688,2,0,B|10:261,1,62.9999980773926,0|2,0:0|0:3,0:0:0:0:
10,233,106845,6,0,L|15:101,1,125.999996154785,0|0,3:0|3:0,0:0:0:0:
269,0,107161,2,0,P|350:28|311:132,1,188.999994232178,8|0,1:0|0:0,0:0:0:0:
387,195,107477,6,0,B|522:180,1,125.999996154785,0|0,3:0|3:0,0:0:0:0:
384,314,107793,1,8,1:0:0:0:
512,378,107951,2,0,L|420:369,1,62.9999980773926,0|2,0:0|0:3,0:0:0:0:
339,384,108109,5,0,3:0:0:0:
384,314,108266,1,0,3:0:0:0:
339,384,108424,2,0,L|270:376,1,62.9999980773926,8|0,1:0|0:0,0:0:0:0:
172,359,108740,6,0,B|114:347|67:376|67:376|114:312,1,188.999994232178,4|0,3:1|0:0,0:0:0:0:
39,249,109056,1,8,1:0:0:0:
130,286,109214,2,0,P|131:254|124:208,1,62.9999980773926,0|2,0:0|0:3,0:0:0:0:
60,158,109372,6,0,P|22:117|49:40,1,125.999996154785,0|0,3:0|3:0,0:0:0:0:
407,114,109688,2,0,B|347:108|347:108|285:140|285:140|226:133,1,188.999994232178,8|0,1:0|0:0,0:0:0:0:
258,64,110003,6,0,B|301:59|301:59|334:77|334:77|378:70,1,125.999996154785,0|0,3:0|3:0,0:0:0:0:
336,333,110319,1,8,1:0:0:0:
511,318,110477,2,0,L|447:314,1,62.9999980773926,0|2,0:3|0:3,0:3:0:0:
364,352,110635,6,0,L|354:213,1,125.999996154785,0|0,3:0|3:0,0:0:0:0:
72,88,110951,2,0,B|31:203|31:203|73:274,1,188.999994232178,8|0,1:0|0:0,0:0:0:0:
125,348,111266,6,0,L|257:335,1,125.999996154785,0|0,3:0|3:0,0:0:0:0:
308,160,111582,1,8,1:0:0:0:
267,99,111740,1,0,0:0:0:0:
267,99,111819,1,2,0:3:0:0:
267,99,111898,5,0,3:0:0:0:
241,223,112056,1,0,3:0:0:0:
122,20,112214,5,8,1:0:0:0:
388,83,112372,1,0,0:0:0:0:
142,308,112530,5,0,3:0:0:0:
369,271,112688,1,0,3:0:0:0:
204,361,112845,5,8,1:0:0:0:
172,196,113003,1,0,3:0:0:0:
261,244,113161,5,0,3:0:0:0:
261,244,113319,1,0,3:0:0:0:
89,360,113477,5,8,1:0:0:0:
34,339,113556,1,0,0:0:0:0:
4,291,113635,1,0,3:0:0:0:
9,233,113714,1,0,3:0:0:0:
48,191,113793,6,0,P|65:141|-3:74,1,125.999996154785,4|0,3:1|3:0,0:0:0:0:
89,360,114109,1,8,1:0:0:0:
167,379,114266,2,0,L|261:371,1,62.9999980773926,0|2,0:0|0:3,0:0:0:0:
333,348,114424,6,0,L|458:358,1,125.999996154785,0|0,3:1|3:0,0:0:0:0:
512,92,114740,2,0,P|466:18|353:52,1,188.999994232178,8|0,1:0|0:0,0:0:0:0:
331,129,115056,6,0,B|322:175|322:175|331:213|331:213|324:258,1,125.999996154785,0|0,3:0|3:0,0:0:0:0:
158,139,115372,1,8,1:0:0:0:
143,57,115530,5,0,0:0:0:0:
167,36,115609,2,0,L|234:48,1,62.9999980773926,2|0,0:3|3:0,0:0:0:0:
124,216,115845,2,0,L|61:227,1,62.9999980773926,0|0,3:0|0:0,0:0:0:0:
292,102,116003,2,0,B|307:165|307:165|289:227|289:227|301:287,1,188.999994232178,8|0,1:0|0:0,0:0:0:0:
458,359,116319,6,0,B|467:319|467:319|458:277|458:277|468:236,1,125.999996154785,0|0,3:0|3:0,0:0:0:0:
330,128,116635,1,8,1:0:0:0:
209,177,116793,1,0,0:0:0:0:
234,195,116872,1,2,0:3:0:0:
265,194,116951,1,0,3:0:0:0:
330,128,117109,1,0,3:0:0:0:
473,336,117266,2,0,P|409:283|301:314,1,188.999994232178,8|0,1:0|0:0,0:0:0:0:
230,382,117582,5,0,3:0:0:0:
230,382,117740,2,0,B|95:374,1,125.999996154785,0|8,3:0|1:0,0:0:0:0:
21,302,117977,2,0,P|3:277|10:236,1,62.9999980773926
94,45,118135,1,2,0:3:0:0:
94,45,118214,1,0,3:0:0:0:
109,128,118372,5,0,3:0:0:0:
387,242,118530,2,0,P|464:228|428:122,1,188.999994232178,8|0,1:0|0:0,0:0:0:0:
344,43,118845,6,0,L|218:29,1,125.999996154785,4|0,3:1|3:0,0:0:0:0:
121,366,119161,2,0,L|266:349,1,125.999996154785,8|0,1:0|0:0,0:0:0:0:
356,377,119398,1,2,0:3:0:0:
356,377,119477,5,0,3:0:0:0:
325,177,119635,1,0,3:0:0:0:
84,278,119793,2,0,P|8:226|22:130,1,188.999994232178,8|0,1:0|0:0,0:0:0:0:
106,40,120109,6,0,B|240:26,1,125.999996154785,0|0,3:0|3:0,0:0:0:0:
423,236,120424,1,8,1:0:0:0:
512,192,120582,2,0,B|511:266,1,62.9999980773926,0|2,0:0|0:3,0:0:0:0:
450,361,120740,6,0,L|302:374,1,125.999996154785,0|0,3:0|3:0,0:0:0:0:
231,26,121056,2,0,L|374:34,1,125.999996154785,8|0,1:0|0:0,0:0:0:0:
405,37,121293,1,0,0:0:0:0:
496,34,121372,6,0,L|492:96,2,62.9999980773926,4|0|0,3:1|0:0|3:0,0:0:0:0:
156,141,121688,1,8,1:0:0:0:
235,221,121845,2,0,L|300:213,1,62.9999980773926,0|2,0:0|0:3,0:0:0:0:
76,69,122003,6,0,P|50:160|102:235,1,188.999994232178,0|0,3:0|0:0,0:0:0:0:
225,300,122319,2,0,L|312:311,1,62.9999980773926,8|0,1:0|0:0,0:0:0:0:
491,149,122477,1,0,0:0:0:0:
491,149,122556,1,0,0:0:0:0:
492,96,122635,6,0,L|496:34,2,62.9999980773926,4|0|0,3:1|0:0|3:0,0:0:0:0:
297,213,122951,1,8,1:0:0:0:
166,25,123109,1,0,3:0:0:0:
11,201,123266,5,8,1:0:0:0:
51,216,123345,1,0,0:0:0:0:
85,218,123424,1,0,3:0:0:0:
111,214,123502,1,0,3:0:0:0:
132,207,123582,1,8,1:0:0:0:
147,200,123661,1,0,3:0:0:0:
157,193,123739,1,0,3:0:0:0:
165,187,123819,1,0,3:0:0:0:
170,180,123898,2,0,B|189:226|185:276|152:306|152:306|59:245|5:293|0:359|55:382|55:382|85:346|126:343|157:356,1,480,0|0,3:0|0:0,0:0:0:0:
157,356,128635,5,8,0:0:0:0:
157,356,128793,2,0,L|98:364,1,60,0|0,3:0|3:0,0:0:0:0:
305,157,134003,6,0,B|338:137|344:90|317:60|317:60|380:-17|493:81|460:161|409:171|409:171|386:175|397:137|427:134|471:146|511:201|444:271|370:233,1,600,0|0,3:0|0:0,0:0:0:0:
371,233,137477,5,0,0:0:0:0:
371,233,137793,2,0,L|219:244,1,135
68,186,138582,5,0,3:0:0:0:
68,186,138661,2,0,L|43:178,1,22.5,0|8,3:0|0:0,0:0:0:0:
139,359,138898,2,0,L|145:305,1,45,0|8,3:0|0:0,0:0:0:0:
39,260,139214,5,0,3:0:0:0:
39,260,139293,2,0,L|14:267,1,22.5,0|8,3:0|0:0,0:0:0:0:
146,284,139530,2,0,L|140:230,1,45,0|8,3:0|0:0,0:0:0:0:
122,130,140003,1,8,0:0:0:0:
56,75,140319,6,0,L|2:71,2,45,8|0|8,0:0|0:0|0:0,0:0:0:0:
143,158,140793,1,0,0:0:0:0:
142,158,140951,2,0,P|164:157|186:155,1,45,8|0,0:0|0:0,0:0:0:0:
273,108,141266,2,0,P|267:87|268:63,1,45,8|2,0:0|0:0,0:0:0:0:
412,175,141582,2,0,P|413:197|407:218,1,45,8|0,0:0|0:0,0:0:0:0:
324,268,141898,2,0,L|279:263,1,45,8|0,0:0|0:0,0:0:0:0:
406,218,142214,2,0,L|411:146,2,67.5,8|8|10,0:0|0:0|0:0,0:0:0:0:
419,52,142845,5,0,3:0:0:0:
419,52,143003,1,0,3:0:0:0:
312,202,143161,2,0,P|291:196|268:198,1,45,8|0,1:0|3:0,0:0:0:0:
126,36,143477,2,0,P|148:38|170:32,1,45,8|0,1:0|3:0,0:0:0:0:
170,32,143714,1,0,3:0:0:0:
183,46,143793,1,8,1:0:0:0:
195,61,143872,1,0,3:0:0:0:
204,88,143951,1,0,3:0:0:0:
195,126,144030,1,8,1:0:0:0:
145,159,144109,6,0,P|105:136|33:151,1,120,4|0,3:1|3:0,0:0:0:0:
301,334,144424,2,0,L|310:259,1,67.5,8|0,1:0|0:0,0:0:0:0:
315,210,144740,6,0,L|308:72,1,120,0|0,3:0|3:0,3:0:0:0:
118,24,145056,2,0,L|50:30,1,67.5,8|0,1:0|0:0,0:0:0:0:
1,109,145372,6,0,P|-2:160|56:207,1,120,0|0,3:0|3:0,3:0:0:0:
320,124,145688,1,8,1:0:0:0:
267,33,145845,1,0,0:0:0:0:
246,23,145924,1,2,0:3:0:0:
223,26,146003,1,0,3:0:0:0:
176,93,146161,2,0,P|203:109|252:99,1,60,0|0,3:0|0:0,0:0:0:0:
377,54,146319,6,0,L|447:45,1,67.5,8|0,1:0|0:0,0:0:0:0:
492,69,146635,5,0,3:0:0:0:
492,69,146793,1,0,3:0:0:0:
412,304,146951,2,0,L|345:293,1,67.5,8|0,1:0|0:0,0:0:0:0:
293,275,147266,6,0,P|260:233|283:157,1,120,0|0,3:0|3:0,0:0:0:0:
425,78,147582,2,0,L|491:69,1,67.5,8|0,1:0|0:0,0:0:0:0:
512,159,147898,6,0,L|500:296,1,120,0|0,3:0|3:0,0:0:0:0:
270,170,148214,1,8,1:0:0:0:
336,86,148372,1,0,0:0:0:0:
358,90,148451,1,2,0:3:0:0:
379,95,148530,1,0,3:0:0:0:
404,196,148688,2,0,L|343:206,1,60,0|0,3:0|0:0,0:0:0:0:
259,137,148845,6,0,L|248:66,1,67.5,8|0,1:0|0:0,0:0:0:0:
153,71,149161,6,0,P|100:40|30:59,1,120,0|0,3:0|3:0,0:0:0:0:
144,233,149477,2,0,L|192:239,1,45,8|0,1:0|0:0,0:0:0:0:
249,189,149714,2,0,L|255:153,1,22.5,2|0,0:3|3:0,0:0:0:0:
77,179,149951,5,0,3:0:0:0:
259,137,150109,2,0,P|272:102|259:68,1,67.5,8|0,1:0|0:0,0:0:0:0:
191,14,150424,6,0,L|63:25,1,120,0|0,3:0|3:0,0:0:0:0:
1,252,150740,2,0,L|50:265,1,45,8|0,1:0|0:0,0:2:0:0:
121,289,150977,1,2,0:3:0:0:
121,289,151056,6,0,L|254:274,1,120,0|0,3:0|3:0,0:0:0:0:
382,134,151372,1,8,1:0:0:0:
193,88,151530,1,0,0:0:0:0:
318,179,151688,6,0,P|339:143|302:56,1,120,0|0,3:0|3:0,0:0:0:0:
107,237,152003,2,0,P|105:265|120:288,1,56.25,8|0,1:0|0:0,0:0:0:0:
145,306,152240,2,0,L|176:312,1,22.5,2|0,0:3|3:0,0:0:0:0:
297,198,152477,5,0,3:0:0:0:
188,143,152635,2,0,L|120:154,1,67.5,8|0,1:0|0:0,0:0:0:0:
107,239,152951,6,0,L|237:226,1,120,0|0,3:0|3:0,0:0:0:0:
349,257,153266,2,0,L|397:252,1,45,8|0,1:0|0:0,2:0:0:0:
287,176,153582,5,0,3:0:0:0:
209,342,153740,2,0,P|233:357|268:351,1,60,0|0,3:0|0:0,0:0:0:0:
444,360,153898,1,8,1:0:0:0:
480,332,153977,1,0,0:0:0:0:
494,289,154056,1,0,3:0:0:0:
485,244,154135,1,2,3:0:0:0:
447,207,154214,6,0,P|428:145|471:87,1,120,4|0,3:1|3:0,0:0:0:0:
208,10,154530,2,0,P|223:41|215:80,1,67.5,8|0,1:0|0:0,0:0:0:0:
154,137,154845,6,0,P|119:111|37:129,1,120,0|0,3:0|3:0,0:0:0:0:
131,338,155161,2,0,L|201:330,1,67.5,8|0,1:0|0:0,0:0:0:0:
285,349,155477,6,0,B|311:309|311:309|295:218,1,120,0|0,3:0|3:0,0:0:0:0:
149,363,155793,1,8,1:0:0:0:
222,288,155951,1,0,0:0:0:0:
222,288,156030,1,2,0:3:0:0:
222,288,156109,2,0,L|94:277,1,120,0|0,3:0|3:0,0:0:0:0:
97,63,156424,6,0,B|164:55,1,67.5,8|0,1:0|0:0,0:0:0:0:
248,48,156740,5,0,3:0:0:0:
248,48,156898,1,0,3:0:0:0:
460,142,157056,2,0,L|453:215,1,67.5,8|0,1:0|0:0,0:0:0:0:
380,135,157372,6,0,P|346:89|369:11,1,120,0|0,3:0|3:0,0:0:0:0:
466,243,157688,2,0,P|471:276|449:310,1,67.5,8|0,1:0|0:0,0:0:0:0:
383,365,158003,6,0,L|247:351,1,120,0|0,3:0|3:0,0:0:0:0:
225,149,158319,1,8,1:0:0:0:
172,255,158477,1,0,0:0:0:0:
161,232,158556,1,2,0:3:0:0:
165,207,158635,1,0,3:0:0:0:
225,149,158793,2,0,L|298:145,1,60,0|0,3:0|0:0,0:0:0:0:
378,220,158951,6,0,L|371:290,1,67.5,8|0,1:0|0:0,0:0:0:0:
298,362,159266,6,0,L|170:349,1,120,0|0,3:0|3:0,0:0:0:0:
225,149,159582,2,0,P|213:126|219:100,1,45,8|0,1:0|0:0,0:0:0:0:
232,80,159819,2,0,L|265:72,1,22.5,2|0,0:3|3:0,3:0:0:0:
340,57,160056,5,0,3:0:0:0:
456,195,160214,2,0,P|462:228|444:256,1,67.5,8|0,1:0|0:0,0:0:0:0:
362,276,160530,6,0,P|314:239|233:276,1,120,0|0,3:0|3:0,0:0:0:0:
89,338,160845,2,0,L|97:401,1,45,8|0,1:0|0:0,0:0:0:0:
49,380,161082,2,0,L|20:377,1,22.5,2|0,0:3|3:0,0:0:0:0:
176,352,161319,5,0,3:0:0:0:
35,186,161477,2,0,L|113:175,1,67.5,8|0,1:0|0:0,0:0:0:0:
177,218,161793,6,0,B|204:239|201:270|201:270|172:280|143:264,1,120,0|0,3:0|3:0,0:0:0:0:
58,101,162109,2,0,P|42:74|54:29,1,67.5,8|0,1:0|0:0,0:0:0:0:
135,38,162424,6,0,P|178:14|259:32,1,120,0|0,3:0|3:0,0:0:0:0:
397,220,162740,2,0,L|389:268,1,45,8|0,1:0|0:0,3:0:0:0:
312,293,162977,1,0,0:0:0:0:
312,293,163056,5,0,3:0:0:0:
337,164,163214,1,0,3:0:0:0:
495,128,163372,5,8,1:0:0:0:
475,139,163451,1,0,3:0:0:0:
452,142,163530,1,0,3:0:0:0:
430,137,163609,1,0,3:0:0:0:
413,122,163688,5,0,3:0:0:0:
390,110,163766,1,0,3:0:0:0:
363,106,163845,1,0,3:0:0:0:
332,113,163924,1,0,3:0:0:0:
303,134,164003,5,8,1:0:0:0:
283,190,164082,1,0,3:0:0:0:
311,250,164161,1,0,3:0:0:0:
381,269,164240,1,0,3:0:0:0:
441,218,164319,2,0,L|429:80,1,120,0|0,3:0|3:0,0:0:0:0:
170,44,164635,5,8,1:0:0:0:
96,147,164793,1,0,0:0:0:0:
119,144,164872,1,8,1:0:0:0:
143,141,164951,1,0,3:0:0:0:
329,255,165109,5,0,3:0:0:0:
155,346,165266,1,8,1:0:0:0:
243,235,165424,1,0,0:0:0:0:
213,214,165503,1,0,0:0:0:0:
177,220,165582,1,0,3:0:0:0:
309,361,165740,5,0,3:0:0:0:
476,269,165898,1,8,1:0:0:0:
328,148,166056,1,0,0:0:0:0:
349,97,166135,2,0,L|415:84,1,60,8|0,1:0|3:0,0:0:0:0:
512,164,166372,5,0,3:0:0:0:
307,262,166530,1,8,1:0:0:0:
196,46,166688,2,0,L|121:32,1,60
31,100,166845,6,0,P|21:147|79:210,1,135.000005149842,0|0,3:0|3:0,0:0:0:0:
290,164,167161,1,8,1:0:0:0:
249,33,167319,1,0,0:0:0:0:
223,40,167398,1,8,1:0:0:0:
196,46,167477,1,0,3:0:0:0:
73,208,167635,5,0,3:0:0:0:
288,290,167793,1,8,1:0:0:0:
146,362,167951,1,0,0:0:0:0:
113,328,168030,1,0,0:0:0:0:
122,281,168109,1,0,3:0:0:0:
198,200,168266,6,0,L|275:209,1,67.5000025749208,0|0,3:0|0:0,0:0:0:0:
473,215,168424,2,0,L|465:296,1,67.5000025749208,8|0,1:0|0:0,0:0:0:0:
288,377,168582,1,0,0:0:0:0:
212,352,168661,2,0,B|136:363,1,67.5000025749208,8|0,1:0|0:0,0:0:0:0:
467,147,168898,6,0,L|473:222,1,67.5000025749208,0|0,3:0|0:0,0:0:0:0:
501,364,169056,2,0,L|362:351,1,135.000005149842,8|0,1:0|0:0,0:0:0:0:
187,117,169293,1,2,0:3:0:0:
233,39,169372,5,0,3:0:0:0:
413,63,169530,1,0,3:0:0:0:
301,205,169688,1,8,1:0:0:0:
220,151,169845,1,0,0:0:0:0:
232,146,169924,1,8,1:0:0:0:
244,141,170003,1,0,3:0:0:0:
320,110,170161,1,0,3:0:0:0:
320,110,170319,2,0,L|313:259,1,135,8|0,1:0|0:0,0:0:0:0:
306,288,170635,6,0,L|202:280,1,90,0|0,3:0|3:0,0:0:0:0:
45,203,170951,1,8,1:0:0:0:
22,330,171109,1,0,0:0:0:0:
3,304,171188,1,8,1:0:0:0:
5,273,171266,1,0,3:0:0:0:
50,207,171424,1,0,3:0:0:0:
50,207,171582,2,0,P|69:155|21:89,1,135,8|0,1:0|0:0,0:0:0:0:
35,125,171898,6,0,L|131:139,1,90,0|0,3:0|0:0,0:0:0:0:
265,238,172214,1,8,1:0:0:0:
366,96,172372,1,0,0:0:0:0:
387,88,172451,1,8,1:0:0:0:
408,81,172530,1,0,3:0:0:0:
500,132,172688,1,0,3:0:0:0:
500,132,172845,2,0,L|495:236,1,90,8|0,1:0|0:0,0:0:0:0:
262,310,173161,5,0,3:0:0:0:
363,339,173319,1,0,3:0:0:0:
174,369,173477,2,0,P|169:325|170:277,1,90,8|0,1:0|0:0,0:0:0:0:
16,65,173793,2,0,P|17:109|12:154,1,90,0|0,3:0|3:0,0:0:0:0:
15,163,174030,1,0,3:0:0:0:
21,180,174109,1,8,1:0:0:0:
39,203,174188,1,0,0:0:0:0:
74,223,174266,1,0,3:0:0:0:
126,220,174345,1,0,3:0:0:0:
172,175,174424,6,0,P|225:166|308:164,1,120,0|0,3:0|3:0,0:0:0:0:
482,292,174740,1,8,1:0:0:0:
326,372,174898,1,0,0:0:0:0:
277,346,174977,2,0,P|273:311|273:272,1,60,8|0,1:0|3:0,0:0:0:0:
293,49,175214,5,0,3:0:0:0:
272,247,175372,1,8,1:0:0:0:
431,220,175530,1,0,0:3:0:0:
451,190,175609,1,0,0:3:0:0:
446,154,175688,1,0,3:3:0:0:
226,111,175845,5,0,3:0:0:0:
302,318,176003,1,8,1:0:0:0:
446,154,176161,1,0,0:0:0:0:
404,128,176240,2,0,L|301:148,1,60,8|0,1:0|3:0,0:0:0:0:
185,272,176477,5,0,3:0:0:0:
97,84,176635,1,8,1:0:0:0:
21,217,176793,2,0,P|0:190|10:151,1,60
97,84,176951,6,0,P|152:42|231:67,1,135.000005149842,0|0,3:0|3:0,0:0:0:0:
310,271,177266,1,8,1:0:0:0:
254,358,177424,1,0,0:0:0:0:
227,364,177503,1,8,1:0:0:0:
200,369,177582,1,0,3:0:0:0:
118,223,177740,5,0,3:0:0:0:
57,352,177898,2,0,B|35:326|35:326|45:294,1,67.5000025749208,8|0,1:0|0:0,0:0:0:0:
80,137,178056,2,0,B|97:100|97:100|70:52|70:52|8:71,1,135.000005149842,0|0,0:0|3:0,0:0:0:0:
32,63,178372,6,0,P|69:65|103:35,1,67.5000025749208,0|0,3:0|0:0,0:0:0:0:
265,148,178530,2,0,P|271:185|255:214,1,67.5000025749208,8|0,1:0|0:0,0:0:0:0:
110,329,178688,1,0,0:0:0:0:
34,330,178766,2,0,P|14:314|18:260,1,67.5000025749208,8|0,1:0|0:0,0:0:0:0:
123,28,179003,6,0,L|209:13,1,67.5000025749208,0|0,3:0|0:0,0:0:0:0:
236,232,179161,2,0,L|96:218,1,135.000005149842,8|0,1:0|0:0,0:0:0:0:
189,16,179398,1,2,0:3:0:0:
302,13,179477,5,0,3:0:0:0:
505,61,179635,1,0,3:0:0:0:
391,232,179793,2,0,P|363:192|385:140,1,90,8|0,1:0|0:0,0:0:0:0:
381,144,180030,1,8,1:0:0:0:
393,140,180109,1,0,3:0:0:0:
360,241,180266,2,0,L|302:230,1,45,0|0,3:0|0:0,0:0:0:0:
126,212,180424,2,0,B|58:192|58:192|40:233|40:233|65:253,1,135,8|0,1:0|0:0,0:0:0:0:
82,263,180740,6,0,L|177:242,1,90,0|0,3:0|3:0,0:0:0:0:
207,57,181056,1,8,1:0:0:0:
115,29,181214,1,0,0:0:0:0:
115,29,181293,2,0,L|54:12,1,45,8|0,1:0|3:0,0:0:0:0:
230,171,181530,1,0,3:0:0:0:
495,29,181688,6,0,B|480:84|480:84|510:164|510:164|494:233,1,202.500007724762,8|0,1:0|0:0,0:0:0:0:
474,359,182003,6,0,L|341:374,1,120,4|0,3:1|3:0,0:0:0:0:
494,384,182477,1,0,3:0:0:0:
283,256,182635,5,0,3:0:0:0:
410,277,182793,1,0,3:0:0:0:
309,17,182951,5,2,3:0:0:0:
69,47,183109,1,2,3:0:0:0:
99,384,183266,6,0,B|120:360|120:360|110:326,1,67.5000025749208,8|0,1:0|3:0,0:0:0:0:
95,307,183424,1,0,3:0:0:0:
74,303,183503,1,0,3:0:0:0:
66,322,183582,1,0,3:0:0:0:
80,337,183661,1,0,3:0:0:0:
126,281,183740,5,8,1:0:0:0:
102,249,183819,1,0,3:0:0:0:
62,249,183898,1,0,3:0:0:0:
36,278,183977,1,0,3:0:0:0:
45,319,184056,1,0,3:0:0:0:
80,337,184135,1,0,3:0:0:0:
139,208,184214,5,8,1:0:0:0:
66,172,184293,1,0,3:0:0:0:
0,220,184372,1,0,3:0:0:0:
7,301,184451,1,0,3:0:0:0:
80,337,184530,6,0,B|133:321|133:321|195:371|195:371|233:304|233:304|341:318|341:318|340:356|303:373|303:373|266:356,1,431.999986816407,4|0,3:2|0:0,0:0:0:0:
220,375,203477,6,0,P|219:354|215:335,1,40,2|0,0:0|0:0,0:0:0:0:
299,323,203688,2,0,P|300:303|304:283,1,40,2|0,0:0|0:0,0:0:0:0:
186,316,203898,6,0,P|181:292|171:269,1,50,2|0,0:0|0:0,0:0:0:0:
315,202,204109,2,0,P|320:177|330:154,1,50,2|0,0:0|0:0,0:0:0:0:
105,55,204319,5,2,0:0:0:0:
49,113,204424,2,0,L|26:115,6,22.5
140,42,204740,6,0,P|140:87|144:133,1,90,4|0,3:2|0:0,0:0:0:0:
201,211,205214,2,0,L|294:201,1,90,2|0,0:0|0:0,0:0:0:0:
390,122,205688,2,0,P|426:103|480:111,1,90,2|0,0:0|0:0,0:0:0:0:
495,124,206161,1,2,0:0:0:0:
369,322,206477,1,0,0:0:0:0:
452,333,206635,2,0,P|409:313|364:324,1,90,2|0,0:0|0:0,0:0:0:0:
221,376,207266,6,0,L|213:273,1,90,2|0,0:0|0:0,0:0:0:0:
196,213,207740,2,0,P|171:182|176:128,1,90,2|0,0:0|0:0,0:0:0:0:
279,89,208214,2,0,P|314:69|365:78,1,90,2|0,0:0|0:0,0:0:0:0:
420,129,208688,2,0,L|410:220,1,90,2|0,0:0|0:0,0:0:0:0:
396,234,209161,2,0,P|362:216|393:205,1,90,2|0,0:0|0:0,0:0:0:0:
224,139,209635,1,0,0:0:0:0:
228,133,209714,1,0,0:0:0:0:
206,94,209793,6,0,P|213:142|213:198,1,90,4|0,3:2|0:0,0:0:0:0:
116,278,210266,2,0,L|66:284,2,45,2|0|0,0:0|0:0|0:0,0:0:0:0:
42,319,210740,2,0,P|87:307|136:324,1,90,2|0,0:0|0:0,0:0:0:0:
194,362,211214,2,0,L|293:366,1,90,2|0,0:0|0:0,0:0:0:0:
356,330,211688,2,0,B|373:384|373:384|404:351,1,90,2|0,0:0|0:0,0:0:0:0:
395,359,212161,1,0,0:0:0:0:
395,359,212319,6,0,B|421:329|421:329|383:283,1,90,2|0,0:0|0:0,0:0:0:0:
318,233,212793,2,0,B|276:250|276:250|231:242,1,90,2|0,0:0|0:0,0:0:0:0:
231,242,213266,2,0,B|225:266|225:266|240:287,1,45,2|0,0:0|0:0,0:0:0:0:
338,337,213582,1,0,0:0:0:0:
338,337,213740,2,0,B|386:316|386:316|430:332,1,90,2|0,0:0|0:0,0:0:0:0:
446,343,214214,2,0,B|493:337,1,45,2|0,0:0|0:0,0:0:0:0:
495,150,214530,1,2,0:0:0:0:
478,164,214609,1,0,0:0:0:0:
456,169,214688,1,0,0:0:0:0:
433,167,214766,1,0,0:0:0:0:
403,139,214845,6,0,P|382:103|400:52,1,90,4|0,3:2|0:0,0:0:0:0:
329,204,215319,2,0,L|227:192,1,90,2|0,0:0|0:0,0:0:0:0:
171,143,215793,2,0,P|140:166|81:154,1,90,2|0,0:0|0:0,0:0:0:0:
70,142,216266,1,2,0:0:0:0:
244,361,216582,1,0,0:0:0:0:
161,351,216740,2,0,P|204:341|243:360,1,90,2|0,0:0|0:0,0:0:0:0:
394,294,217372,6,0,P|418:264|405:206,1,90,2|0,0:0|0:0,0:0:0:0:
390,185,217845,2,0,L|329:190,1,45,2|0,0:0|0:0,0:0:0:0:
390,185,218161,1,0,0:0:0:0:
412,90,218319,6,0,P|368:98|329:78,1,90,2|0,0:0|0:0,0:0:0:0:
250,103,218793,2,0,P|250:80|252:58,1,45,2|0,0:0|0:0,0:0:0:0:
267,124,219109,1,0,0:0:0:0:
167,169,219266,1,2,0:0:0:0:
157,92,219424,1,0,0:0:0:0:
144,16,219582,2,0,L|100:21,1,45
135,162,219819,1,0,0:0:0:0:
168,171,219898,6,0,P|212:167|257:166,1,90,4|0,3:2|0:0,0:0:0:0:
321,248,220372,2,0,L|318:293,1,45,2|0,0:0|0:0,0:0:0:0:
356,234,220688,1,0,0:0:0:0:
315,326,220845,6,0,P|270:322|225:321,1,90,2|0,0:0|0:0,0:0:0:0:
144,353,221319,2,0,L|139:305,1,45,2|0,0:0|0:0,0:0:0:0:
144,353,221635,1,0,0:0:0:0:
56,334,221793,2,0,P|28:302|41:243,1,90,2|0,0:0|0:0,0:0:0:0:
32,257,222266,1,0,0:0:0:0:
99,156,222424,6,0,L|136:160,1,37.5,0|0,3:0|0:0,0:0:0:0:
184,268,222582,1,0,0:0:0:0:
170,275,222661,1,2,0:3:0:0:
156,281,222740,1,8,1:0:0:0:
174,163,222898,1,0,3:0:0:0:
312,100,223056,6,0,P|313:130|330:154,1,60,4|0,1:0|0:0,0:0:0:0:
235,312,223266,2,0,P|223:335|188:350,1,50,4|0,3:0|0:0,0:0:0:0:
300,246,223477,2,0,P|315:267|348:277,1,50,0|0,3:0|0:0,0:0:0:0:
116,341,223688,6,0,P|94:353|49:349,1,60,8|0,1:0|0:0,0:0:0:0:
380,359,223898,2,0,P|405:369|434:367,1,50,4|0,3:0|0:0,0:0:0:0:
93,258,224109,2,0,P|68:238|62:204,1,60,0|0,3:0|0:0,0:0:0:0:
439,52,224319,5,8,1:0:0:0:
232,384,224951,6,0,P|277:339|258:249,1,153.000002918243,0|0,3:0|3:0,0:0:0:0:
46,92,225266,1,8,1:0:0:0:
1,171,225424,2,0,P|31:188|77:176,1,76.5000014591217,0|2,0:0|0:3,0:0:0:0:
284,41,225582,6,0,L|454:18,1,153.000002918243,0|0,3:0|3:0,0:0:0:0:
508,371,225898,2,0,B|427:354|427:354|267:365,1,229.500004377365,8|0,1:0|0:0,0:0:0:0:
186,330,226214,6,0,P|122:370|34:319,1,153.000002918243,0|0,3:0|3:0,0:0:0:0:
57,73,226530,2,0,P|33:47|47:-6,1,76.5000014591217,8|0,1:0|0:0,0:0:0:0:
186,330,226688,1,0,0:0:0:0:
108,378,226766,2,0,L|32:369,1,76.5000014591217,2|0,0:3|3:0,0:0:0:0:
142,142,227003,6,0,B|225:127,1,76.5000014591217,0|0,3:0|0:0,0:0:0:0:
484,59,227161,2,0,B|491:104|504:137|504:137|472:211|472:211|490:250|490:286,1,229.500004377365,8|0,1:0|0:0,0:0:0:0:
381,369,227477,6,0,B|395:324|395:324|369:274|369:274|388:207,1,153.000002918243,0|0,3:0|3:0,0:0:0:0:
116,10,227793,1,8,1:0:0:0:
23,113,227951,1,0,0:0:0:0:
83,159,228030,1,2,0:3:0:0:
76,235,228109,1,0,3:0:0:0:
47,356,228266,6,0,P|22:332|39:282,1,76.5000014591217,0|0,3:0|0:0,0:0:0:0:
226,81,228424,2,0,B|262:18|352:14|352:14|316:121,1,229.500004377365,8|0,1:0|0:0,0:0:0:0:
262,252,228740,6,0,B|214:281|214:281|169:242|201:185,1,153.000002918243,0|0,3:0|3:0,0:0:0:0:
433,121,229056,1,8,1:0:0:0:
503,197,229214,2,0,P|517:231|505:266,1,76.5000014591217,0|2,0:0|0:3,0:0:0:0:
449,349,229372,5,0,3:0:0:0:
505,266,229530,1,0,3:0:0:0:
449,349,229688,2,0,L|362:362,1,80.9999975280763,8|0,1:0|0:0,0:0:0:0:
254,377,230003,6,0,B|187:349|187:349|108:366,1,153.000002918243,0|0,3:0|3:0,0:0:0:0:
173,60,230319,1,8,1:0:0:0:
21,48,230477,2,0,B|56:62|56:62|93:23,1,76.5000014591217,0|2,0:0|0:3,0:0:0:0:
249,1,230635,6,0,L|411:15,1,153.000002918243,0|0,3:0|3:0,0:0:0:0:
395,348,230951,2,0,B|335:329|335:329|299:366|299:366|265:336|265:336|164:348,1,229.500004377365,8|0,1:0|0:0,0:0:0:0:
95,380,231266,5,0,3:0:0:0:
189,258,231424,1,0,3:0:0:0:
21,184,231582,2,0,B|5:228|5:228|29:255,1,76.5000014591217,8|0,1:0|0:0,0:0:0:0:
195,344,231740,1,0,0:0:0:0:
195,344,231819,1,2,0:3:0:0:
233,369,231898,6,0,B|288:351|288:351|394:367,1,153.000002918243,0|0,3:0|3:0,0:0:0:0:
392,54,232214,2,0,B|331:46|331:46|246:68|246:68|167:52,1,229.500004377365,8|0,1:0|0:0,0:0:0:0:
11,150,232530,6,0,B|27:199|27:199|15:248|15:248|31:302,1,153.000002918243,0|0,3:0|3:0,0:0:0:0:
382,365,232845,1,8,1:0:0:0:
501,326,233003,2,0,B|511:305|511:305|503:278|503:278|513:254,1,76.5000014591217,0|2,0:0|0:3,0:0:0:0:
351,28,233161,2,0,L|167:41,1,153.000002918243,0|0,3:0|3:0,0:0:0:0:
125,310,233477,5,8,1:0:0:0:
366,346,233635,1,0,0:0:0:0:
392,54,233793,5,0,3:0:0:0:
83,103,233951,1,0,3:0:0:0:
276,352,234109,5,8,1:0:0:0:
387,254,234266,1,0,3:0:0:0:
277,173,234424,5,0,3:0:0:0:
277,173,234582,1,0,3:0:0:0:
225,256,234740,5,8,1:0:0:0:
184,202,234819,1,0,0:0:0:0:
191,128,234898,1,0,3:0:0:0:
255,79,234977,1,0,3:0:0:0:
339,101,235056,6,0,L|510:85,1,153.000002918243,0|0,3:0|3:0,0:0:0:0:
212,374,235372,1,8,1:0:0:0:
116,345,235530,2,0,B|22:360,1,76.5000014591217,0|2,0:0|0:3,0:0:0:0:
39,175,235688,6,0,B|21:128|21:128|60:81|32:31,1,153.000002918243,0|0,3:0|3:0,0:0:0:0:
491,86,236003,2,0,B|534:124|517:182|517:182|474:211|470:271|497:298,1,229.500004377365,8|0,1:0|0:0,0:0:0:0:
354,372,236319,6,0,P|280:350|329:293,1,153.000002918243,0|0,3:0|3:0,0:0:0:0:
478,29,236635,2,0,P|502:57|500:94,1,76.5000014591217,8|0,1:0|0:0,0:0:0:0:
302,298,236793,1,0,0:0:0:0:
226,266,236872,2,0,P|207:247|208:190,1,76.5000014591217,2|0,0:3|3:0,0:0:0:0:
318,19,237109,6,0,L|409:6,1,76.5000014591217,0|0,3:0|0:0,0:0:0:0:
512,195,237266,2,0,L|493:409,1,153.000002918243,8|0,1:0|0:0,0:0:0:0:
216,292,237582,6,0,P|152:245|63:269,1,153.000002918243,0|0,3:0|3:0,0:0:0:0:
431,243,237898,1,8,1:0:0:0:
431,367,238056,2,0,P|468:369|498:346,1,76.5000014591217,0|2,0:0|0:3,0:0:0:0:
485,157,238214,6,0,P|521:109|487:18,1,153.000002918243,0|0,3:0|3:0,0:0:0:0:
0,133,238530,2,0,B|2:188|47:207|47:207|-11:269|37:343,1,229.500004377365,8|0,1:0|0:0,0:0:0:0:
127,384,238845,5,0,3:0:0:0:
127,384,239003,2,0,B|191:350|191:350|292:377,1,153.000002918243,0|8,3:0|1:0,0:0:0:0:
427,375,239240,2,0,B|471:383|471:383|508:354,1,76.5000014591217
504,52,239398,1,2,0:3:0:0:
504,52,239477,5,0,3:0:0:0:
444,133,239635,1,0,3:0:0:0:
145,26,239793,2,0,B|80:13|80:13|-37:43,1,153.000002918243,8|0,1:0|0:0,0:0:0:0:
0,266,240030,1,0,0:0:0:0:
59,332,240109,6,0,B|114:310|114:310|219:319,1,153.000002918243,0|0,3:0|3:0,0:0:0:0:
278,28,240424,2,0,B|381:43|381:43|423:19,1,153.000002918243,8|0,1:0|0:0,0:0:0:0:
504,52,240661,1,2,0:3:0:0:
504,52,240740,5,0,3:0:0:0:
423,19,240898,2,0,B|405:59|405:59|427:94,1,76.5000014591217,0|0,3:0|0:0,0:0:0:0:
512,334,241056,2,0,B|508:258|430:232|430:232|421:280|374:295,1,229.500004377365,8|0,1:0|0:0,0:0:0:0:
281,375,241372,6,0,L|114:366,1,153.000002918243,0|0,3:0|3:0,0:0:0:0:
23,209,241688,1,8,1:0:0:0:
31,57,241845,2,0,B|16:99|16:99|39:144,1,76.5000014591217,0|2,0:0|0:3,0:0:0:0:
23,357,242003,6,0,B|13:311|13:311|30:261|30:261|20:192,1,153.000002918243,0|0,3:0|3:0,0:0:0:0:
379,34,242319,2,0,B|499:-3|499:-3|517:57|473:92,1,229.500004377365,8|0,1:0|0:0,0:0:0:0:
484,192,242635,6,0,B|472:237|472:237|497:289|497:289|485:349,2,153.000002918243,0|0|8,3:0|3:0|1:0,0:0:0:0:
329,375,243109,2,0,B|408:370,1,76.5000014591217,0|2,0:0|0:3,0:0:0:0:
454,111,243266,6,0,L|301:96,1,153.000002918243,0|0,3:0|3:0,0:0:0:0:
172,181,243503,1,0,0:0:0:0:
95,201,243582,2,0,P|69:271|109:333,1,153.000002918243,8|0,1:0|3:0,0:0:0:0:
329,375,243819,1,0,0:0:0:0:
403,333,243898,6,0,P|443:271|417:202,1,153.000002918243,8|0,1:0|3:0,0:0:0:0:
340,181,244135,1,0,3:0:0:0:
299,256,244214,6,0,B|185:270,1,76.5000014591217,8|0,1:0|0:0,0:0:0:0:
210,96,244372,2,0,L|97:108,1,76.5000014591217,0|0,3:0|3:0,0:0:0:0:
95,202,244530,1,8,1:0:0:0:
88,201,244608,1,0,3:0:0:0:
82,201,244688,1,0,3:0:0:0:
75,200,244766,1,0,3:0:0:0:
68,199,244845,1,8,1:0:0:0:
61,199,244924,1,0,3:0:0:0:
55,198,245003,1,0,3:0:0:0:
48,198,245082,1,0,3:0:0:0:
15,196,245161,6,0,P|39:208|23:126,1,180,8|2,1:0|0:3,0:0:0:0:
0,220,245398,1,2,0:3:0:0:
19,297,245477,6,8,B|44:316|44:316|79:307,1,67.5000025749208,8|8,3:3|3:0,3:0:0:0:
211,49,245635,2,0,B|241:34|241:34|275:39,1,67.5000025749208,4|4,3:0|3:0,0:0:0:0:
500,345,245793,6,0,B|483:339|483:339|473:355|473:355|454:348|454:348|416:354,1,90,4|0,3:1|0:0,1:0:0:0:
422,354,246424,6,0,B|370:328|370:328|309:337,1,120,0|8,3:0|1:0,0:0:0:0:
491,262,246740,1,0,0:0:0:0:
491,262,246898,1,0,3:0:0:0:
338,107,247056,6,0,B|400:87|400:87|468:98,1,135,8|0,1:0|0:0,1:0:0:0:
301,234,247688,6,0,L|167:217,1,120,0|8,3:0|1:0,0:0:0:0:
343,16,248003,1,0,0:0:0:0:
399,87,248161,1,0,3:0:0:0:
251,174,248319,6,0,P|197:136|133:153,1,135,8|0,1:0|0:0,1:0:0:0:
60,291,248951,6,0,B|29:341|29:341|84:371,1,120,0|8,3:0|1:0,0:0:0:0:
183,224,249266,1,0,0:0:0:0:
183,224,249424,1,0,3:0:0:0:
157,76,249582,5,8,1:0:0:0:
21,56,249740,1,0,0:0:0:0:
60,291,249898,5,0,3:0:0:0:
269,255,250056,1,8,1:0:0:0:
481,325,250214,6,0,B|510:282|510:282|492:194,1,120,4|0,3:1|0:0,0:0:0:0:
375,331,250530,1,0,0:0:0:0:
375,331,250688,1,0,3:0:0:0:
487,112,250845,6,0,P|419:120|411:59,1,135,8|0,1:0|0:0,1:0:0:0:
468,152,251477,6,0,L|328:165,1,120,0|8,3:0|1:0,0:0:0:0:
165,36,251793,1,0,0:0:0:0:
265,54,251951,1,0,3:0:0:0:
58,139,252109,6,0,L|196:126,1,135,8|0,1:0|0:0,1:0:0:0:
270,308,252740,6,0,L|149:326,1,120,0|8,3:0|1:0,0:0:0:0:
319,195,253056,1,0,0:0:0:0:
319,195,253214,1,0,3:0:0:0:
209,39,253372,2,0,L|159:35,1,45,8|0,1:0|0:0,1:0:0:0:
403,188,253688,2,0,L|468:195,1,45,0|0,0:0|0:0,1:0:0:0:
381,114,253924,1,0,0:0:0:0:
381,114,254003,6,0,L|460:105,2,60,0|2|2,3:0|0:3|0:3,0:0:0:0:
319,195,254319,5,0,3:0:0:0:
281,134,254424,1,0,3:0:0:0:
293,62,254530,1,0,3:0:0:0:
228,29,254635,1,8,1:0:0:0:
175,78,254740,1,0,3:0:0:0:
207,142,254845,1,0,3:0:0:0:
172,208,254951,1,8,3:0:0:0:
172,208,255056,1,0,3:0:0:0:
172,208,255161,2,0,L|124:216,1,30,0|0,3:0|0:0,0:0:0:0:
62,248,255266,6,0,P|34:227|49:153,1,90,4|0,3:1|0:0,0:0:0:0:
93,74,255582,1,0,0:0:0:0:
93,74,255740,2,0,P|114:84|135:81,1,45,0|0,3:0|0:0,0:0:0:0:
303,109,255898,2,0,P|344:72|436:92,1,135,8|0,1:0|0:0,1:0:0:0:
467,298,256530,6,0,L|337:312,1,120,0|8,3:0|1:0,0:0:0:0:
444,98,256845,1,0,0:0:0:0:
501,167,257003,1,0,3:0:0:0:
347,310,257161,6,0,P|293:276|219:297,1,135,8|0,1:0|0:0,1:0:0:0:
48,365,257793,6,0,P|2:326|17:259,1,120,0|8,3:0|1:0,0:0:0:0:
203,319,258109,1,0,0:0:0:0:
203,319,258266,1,0,3:0:0:0:
90,129,258424,2,0,P|162:141|207:94,1,135,8|0,1:0|0:0,1:0:0:0:
405,209,259056,6,0,L|271:196,1,120,0|8,3:0|1:0,0:0:0:0:
119,335,259372,1,0,0:0:0:0:
203,319,259530,1,0,3:0:0:0:
438,348,259688,5,8,1:0:0:0:
317,368,259845,1,0,0:0:0:0:
288,94,260003,5,0,3:0:0:0:
509,142,260161,1,8,1:0:0:0:
386,276,260319,6,0,P|334:246|253:278,1,120,4|0,3:1|0:0,0:0:0:0:
144,312,260635,1,0,0:0:0:0:
144,312,260793,1,0,3:0:0:0:
27,114,260951,2,0,P|101:125|146:80,1,135,8|0,1:0|0:0,1:0:0:0:
303,27,261582,6,0,L|433:40,1,120,0|8,3:0|1:0,0:0:0:0:
505,245,261898,1,0,0:0:0:0:
396,258,262056,1,0,3:0:0:0:
510,128,262214,2,0,P|536:193|497:251,1,135,8|0,1:0|0:0,1:0:0:0:
363,358,262845,6,0,B|321:334|321:334|230:349,1,120,0|8,3:0|1:0,0:0:0:0:
414,276,263161,1,0,0:0:0:0:
414,276,263319,1,0,3:0:0:0:
305,384,263477,2,0,L|161:376,1,135,8|0,1:0|0:0,1:0:0:0:
40,294,264109,6,0,B|6:252|6:252|32:169,2,120,0|8|0,3:0|1:0|0:0,0:0:0:0:
102,231,264582,1,0,3:0:0:0:
304,297,264740,1,12,1:0:0:0:
399,108,264898,1,0,0:0:0:0:
404,100,264977,1,0,0:0:0:0:
408,92,265056,1,8,1:0:0:0:
405,22,265214,6,0,B|468:6|538:72|517:179|422:201|365:151|365:151|430:190|524:142|492:18|405:22,1,585,0|0,3:0|0:0,0:0:0:0:
