osu file format v14

[General]
AudioFilename: audio.mp3
AudioLeadIn: 0
PreviewTime: 76202
Countdown: 0
SampleSet: Soft
StackLeniency: 0.7
Mode: 0
LetterboxInBreaks: 0
WidescreenStoryboard: 0

[Editor]
Bookmarks: 13571,35379,57230,76296,98101,119954,141739,160507,182325,204486,226312,238594
DistanceSpacing: 1.2
BeatDivisor: 8
GridSize: 32
TimelineZoom: 1.5

[Metadata]
Title:change
TitleUnicode:change
Artist:556t
ArtistUnicode:556t
Creator:fllecc
Version:Collab Lunatic
Source:東方地霊殿 ~ Subterranean Animism.
Tags:mamiya takuji tsumugi-chan mugi 回路-kairo- do not distract the eye in the here and now 東方project touhou toho project zun team shanghai alice japanese rock reitaisai 10 水橋 パルスィ parsee mizuhashi 緑眼のジェラシー ryokugan no jealousy green-eyed
BeatmapID:4357799
BeatmapSetID:2080925

[Difficulty]
HPDrainRate:6
CircleSize:4
OverallDifficulty:8
ApproachRate:9
SliderMultiplier:3.59999990463257
SliderTickRate:1

[Events]
//Background and Video events
0,0,"mizunashi.jpg",0,0
//Break Periods
//Storyboard Layer 0 (Background)
//Storyboard Layer 1 (Fail)
//Storyboard Layer 2 (Pass)
//Storyboard Layer 3 (Foreground)
//Storyboard Layer 4 (Overlay)
//Storyboard Sound Samples

[TimingPoints]
1989,681.818181818182,4,2,1,50,1,0
1989,-200,4,2,1,50,0,0
2673,659.340659340659,4,2,1,50,1,0
2673,-111.111111111111,4,2,1,50,0,0
3332,674.157303370787,4,2,1,50,1,0
3332,-111.111111111111,4,2,1,50,0,0
4006,687.679083094556,4,2,1,50,1,0
4346,-111.111111111111,4,2,1,50,0,0
4693,710.059171597633,4,2,1,50,1,0
4693,-222.222222222222,4,2,1,50,0,0
5403,674.157303370787,4,2,1,50,1,0
5403,-133.333333333333,4,2,1,50,0,0
6582,655.737704918032,4,2,1,50,1,0
6582,-133.333333333333,4,2,1,50,0,0
6909,699.708454810495,4,2,1,50,1,0
6909,-133.333333333333,4,2,1,50,0,0
7433,707.964601769911,4,2,1,50,1,0
8140,677.966101694916,4,2,1,50,1,0
8140,-111.111111111111,4,2,1,50,0,0
8817,687.679083094556,4,2,1,50,1,0
8817,-111.111111111111,4,2,1,50,0,0
9676,650.40650406504,4,2,1,50,1,0
9838,-111.111111111111,4,2,1,50,0,0
10163,689.655172413793,4,2,1,50,1,0
10163,-222.222222222222,4,2,1,50,0,0
10852,674.157303370787,4,2,1,50,1,0
10852,-111.111111111111,4,2,1,50,0,0
11526,683.760683760684,4,2,1,50,1,0
11526,-111.111111111111,4,2,1,50,0,0
12380,662.983425414365,4,2,1,50,1,0
12380,-111.111111111111,4,2,1,50,0,0
12877,679.886685552408,4,2,1,50,1,0
12877,-83.3333333333333,4,2,1,70,0,0
13216,710.059171597633,4,2,1,70,1,0
13216,-105.263157894737,4,2,1,70,0,0
13571,668.523676880223,4,2,1,70,1,0
13571,-90.9090909090909,4,2,1,70,0,0
14239,689.655172413793,4,2,1,70,1,0
14791,640,4,2,1,70,1,0
15111,681.818181818182,4,2,1,70,1,0
15963,664.819944598338,4,2,1,70,1,0
16295,705.882352941176,4,2,1,70,1,0
16295,-90.9090909090909,4,2,1,70,0,0
16999,707.964601769911,4,2,1,70,1,0
16999,-90.9090909090909,4,2,1,70,0,0
17529,612.244897959184,4,2,1,70,1,0
17529,-90.9090909090909,4,2,1,70,0,0
17835,716.417910447761,4,2,1,70,1,0
18193,674.157303370787,4,2,1,70,1,0
18698,652.173913043478,4,2,1,70,1,0
19024,685.714285714286,4,2,1,70,1,0
19024,-90.9090909090909,4,2,1,70,0,0
19366,666.666666666667,4,2,1,70,1,0
19699,683.760683760684,4,2,1,70,1,0
20211,645.161290322581,4,2,1,70,1,0
20533,727.272727272727,4,2,1,70,1,0
20896,676.056338028169,4,2,1,70,1,0
21403,672.268907563026,4,2,1,70,1,0
21739,625,4,2,1,70,1,0
21895,691.64265129683,4,2,1,70,1,0
21895,-90.9090909090909,4,2,1,70,0,0
22759,664.819944598338,4,2,1,70,1,0
22923,-90.9090909090909,4,2,1,70,0,0
23091,712.166172106825,4,2,1,70,1,0
23447,-90.9090909090909,4,2,1,70,0,0
23625,685.714285714286,4,2,1,70,1,0
23967,648.648648648649,4,2,1,70,1,0
24453,710.059171597633,4,2,1,70,1,0
24453,-90.9090909090909,4,2,1,70,0,0
25163,718.562874251497,4,2,1,70,1,0
25701,640,4,2,1,70,1,0
26021,693.64161849711,4,2,1,70,1,0
26367,681.818181818182,4,2,1,70,1,0
26878,691.64265129683,4,2,1,70,1,0
27223,693.64161849711,4,2,1,70,1,0
27223,-90.9090909090909,4,2,1,70,0,0
27569,645.161290322581,4,2,1,70,1,0
27891,691.64265129683,4,2,1,70,1,0
27891,-90.9090909090909,4,2,1,70,0,0
28236,693.64161849711,4,2,1,70,1,0
28409,-90.9090909090909,4,2,1,70,0,0
28929,685.714285714286,4,2,1,70,1,0
29271,676.056338028169,4,2,1,70,1,0
29947,716.417910447761,4,2,1,70,1,0
29947,-90.9090909090909,4,2,1,70,0,0
30484,613.81074168798,4,2,1,70,1,0
30637,662.983425414365,4,2,1,70,1,0
30968,693.641618497109,4,2,1,70,1,0
31488,683.760683760684,4,2,1,70,1,0
32000,659.340659340659,4,2,1,70,1,0
32329,666.666666666667,4,2,1,70,1,0
32662,670.391061452514,4,2,1,70,1,0
33164,677.966101694916,4,2,1,70,1,0
33672,687.679083094556,4,2,1,70,1,0
33672,-90.9090909090909,4,2,1,70,0,0
34187,668.523676880223,4,2,1,70,1,0
34688,664.819944598338,4,2,1,70,1,0
35020,722.89156626506,4,2,1,65,1,0
35200,716.417910447761,4,2,1,60,1,0
35379,689.655172413793,4,2,1,50,1,0
35379,-125,4,2,1,50,0,0
36068,689.655172413793,4,2,1,50,1,0
36068,-166.666666666667,4,2,1,50,0,0
36585,689.655172413793,4,2,1,50,1,0
36757,-166.666666666667,4,2,1,50,0,0
37447,679.886685552408,4,2,1,50,1,0
37447,-166.666666666667,4,2,1,50,0,0
38126,712.166172106825,4,2,1,50,1,0
38126,-166.666666666667,4,2,1,50,0,0
38838,668.523676880223,4,2,1,50,1,0
38838,-166.666666666667,4,2,1,50,0,0
39339,695.652173913043,4,2,1,50,1,0
39339,-166.666666666667,4,2,1,50,0,0
39686,652.173913043478,4,2,1,50,1,0
39686,-166.666666666667,4,2,1,50,0,0
40175,679.886685552408,4,2,1,50,1,0
40175,-166.666666666667,4,2,1,50,0,0
40854,685.714285714286,4,2,1,50,1,0
40854,-166.666666666667,4,2,1,50,0,0
42054,676.056338028169,4,2,1,50,1,0
42054,-166.666666666667,4,2,1,50,0,0
42899,693.64161849711,4,2,1,50,1,0
42899,-166.666666666667,4,2,1,50,0,0
43592,681.818181818182,4,2,1,50,1,0
43592,-166.666666666667,4,2,1,50,0,0
44785,659.340659340659,4,2,1,50,1,0
44785,-166.666666666667,4,2,1,50,0,0
45114,662.983425414365,4,2,1,50,1,0
45114,-166.666666666667,4,2,1,50,0,0
45611,693.64161849711,4,2,1,50,1,0
45611,-125,4,2,1,50,0,0
45957,747.663551401869,4,2,1,50,1,0
45957,-125,4,2,1,50,0,0
46330,662.983425414364,4,2,1,50,1,0
46330,-111.111111111111,4,2,1,50,0,0
47490,683.760683760684,4,2,1,50,1,0
47490,-111.111111111111,4,2,1,50,0,0
47831,703.812316715542,4,2,1,50,1,0
48006,-111.111111111111,4,2,1,50,0,0
48358,683.760683760684,4,2,1,50,1,0
48358,-111.111111111111,4,2,1,50,0,0
49041,666.666666666667,4,2,1,50,1,0
49041,-111.111111111111,4,2,1,50,0,0
49707,707.964601769911,4,2,1,50,1,0
50060,681.818181818182,4,2,1,50,1,0
50060,-111.111111111111,4,2,1,50,0,0
50741,676.056338028169,4,2,1,50,1,0
51079,676.056338028169,4,2,1,50,1,0
51079,-111.111111111111,4,2,1,50,0,0
51755,687.679083094556,4,2,1,50,1,0
51755,-111.111111111111,4,2,1,50,0,0
53302,648.648648648649,4,2,1,50,1,0
53302,-111.111111111111,4,2,1,50,0,0
53788,693.64161849711,4,2,1,50,1,0
54134,-111.111111111111,4,2,1,50,0,0
54481,685.714285714286,4,2,1,50,1,0
54481,-111.111111111111,4,2,1,50,0,0
55166,681.818181818182,4,2,1,50,1,0
55166,-111.111111111111,4,2,1,50,0,0
56529,701.754385964912,4,2,1,50,1,0
56529,-83.3333333333333,4,2,1,70,0,0
56879,-100,4,2,1,60,0,0
57230,655.737704918032,4,2,1,60,1,0
57230,-153.846153846154,4,2,1,60,0,0
57803,-153.846153846154,4,2,1,5,0,0
57885,699.708454810495,4,2,1,60,1,0
58234,662.983425414365,4,2,1,60,1,0
58565,716.417910447761,4,2,1,60,1,0
58565,-153.846153846154,4,2,1,60,0,0
58923,689.655172413793,4,2,1,60,1,0
58923,-153.846153846154,4,2,1,60,0,0
59612,681.818181818182,4,2,1,60,1,0
59612,-153.846153846154,4,2,1,60,0,0
60293,661.157024793389,4,2,1,60,1,0
60954,681.818181818182,4,2,1,60,1,0
60954,-153.846153846154,4,2,1,60,0,0
61635,662.983425414365,4,2,1,60,1,0
61966,681.818181818182,4,2,1,60,1,0
61966,-153.846153846154,4,2,1,60,0,0
62647,659.340659340658,4,2,1,60,1,0
62647,-117.647058823529,4,2,1,60,0,0
63306,722.89156626506,4,2,1,60,1,0
63667,697.674418604651,4,2,1,60,1,0
64015,652.173913043478,4,2,1,60,1,0
64341,697.674418604651,4,2,1,60,1,0
64689,699.708454810496,4,2,1,60,1,0
65038,738.461538461539,4,2,1,60,1,0
65038,-153.846153846153,4,2,1,60,0,0
65776,623.376623376623,4,2,1,60,1,0
66087,659.340659340659,4,2,1,60,1,0
66746,683.760683760684,4,2,1,60,1,0
66746,-153.846153846154,4,2,1,60,0,0
67087,679.886685552408,4,2,1,60,1,0
67426,666.666666666667,4,2,1,60,1,0
67426,-153.846153846154,4,2,1,60,0,0
68009,-153.846153846154,4,2,1,5,0,0
68092,693.64161849711,4,2,1,60,1,0
68785,693.64161849711,4,2,1,60,1,0
68785,-100,4,2,1,60,0,0
69131,689.655172413793,4,2,1,60,1,0
70165,683.760683760684,4,2,1,60,1,0
70506,685.714285714286,4,2,1,60,1,0
70506,-153.846153846154,4,2,1,60,0,0
71191,652.173913043478,4,2,1,60,1,0
71517,687.679083094556,4,2,1,60,1,0
71517,-153.846153846154,4,2,1,60,0,0
72204,670.391061452514,4,2,1,60,1,0
72539,661.157024793388,4,2,1,60,1,0
72869,716.417910447761,4,2,1,60,1,0
73585,679.886685552408,4,2,1,60,1,0
73585,-200,4,2,1,60,0,0
74264,718.562874251497,4,2,1,60,1,0
74982,631.578947368421,4,2,1,60,1,0
74982,-200,4,2,1,60,0,0
75613,691.64265129683,4,2,1,60,1,0
75958,677.966101694915,4,2,1,60,1,0
76296,687.679083094556,4,2,1,50,1,0
76296,-90.9090909090909,4,2,1,60,0,0
76983,707.964601769911,4,2,1,65,1,0
76983,-90.9090909090909,4,2,1,65,0,0
77336,668.523676880223,4,2,1,65,1,0
77336,-90.9090909090909,4,2,1,65,0,0
78004,693.64161849711,4,2,1,65,1,0
78350,683.760683760684,4,2,1,65,1,0
78350,-90.9090909090909,4,2,1,65,0,0
79033,683.760683760684,4,2,1,65,1,0
79033,-111.111111111111,4,2,1,65,0,0
79545,-100,4,2,1,65,0,0
80058,668.523676880223,4,2,1,65,1,0
80726,691.64265129683,4,2,1,65,1,0
81071,679.886685552408,4,2,1,65,1,0
81750,689.655172413793,4,2,1,65,1,0
82439,722.89156626506,4,2,1,65,1,0
82800,652.173913043478,4,2,1,65,1,0
83452,676.056338028169,4,2,1,65,1,0
83790,681.818181818182,4,2,1,65,1,0
83790,-111.111111111111,4,2,1,65,0,0
84471,681.818181818182,4,2,1,65,1,0
84471,-100,4,2,1,65,0,0
85152,720.72072072072,4,2,1,65,1,0
85692,691.64265129683,4,2,1,65,1,0
86210,687.679083094556,4,2,1,65,1,0
86553,664.819944598338,4,2,1,65,1,0
87217,683.760683760684,4,2,1,65,1,0
87217,-111.111111111111,4,2,1,65,0,0
87900,705.882352941176,4,2,1,65,1,0
88252,657.534246575342,4,2,1,65,1,0
88252,-90.9090909090909,4,2,1,65,0,0
88580,-100,4,2,1,65,0,0
88909,683.760683760684,4,2,1,65,1,0
89250,685.714285714286,4,2,1,65,1,0
89935,670.391061452514,4,2,1,65,1,0
90605,699.708454810495,4,2,1,65,1,0
90954,681.818181818182,4,2,1,65,1,0
91294,681.818181818182,4,2,1,65,1,0
92657,-90.9090909090909,4,2,1,65,0,0
93339,714.285714285714,4,2,1,65,1,0
93696,670.391061452514,4,2,1,65,1,0
94366,679.886685552408,4,2,1,65,1,0
95385,691.64265129683,4,2,1,65,1,0
95385,-222.222222222221,4,2,1,65,0,0
96076,697.674418604651,4,2,1,65,1,0
96424,-222.222222222222,4,2,1,65,0,0
96948,645.161290322581,4,2,1,65,1,0
97431,670.391061452514,4,2,1,65,1,0
98101,687.679083094556,4,2,1,50,1,0
98101,-153.846153846153,4,2,1,50,0,0
98788,712.166172106825,4,2,1,50,1,0
99500,674.157303370787,4,2,1,50,1,0
99500,-153.846153846154,4,2,1,50,0,0
100848,691.64265129683,4,2,1,50,1,0
100848,-153.846153846154,4,2,1,50,0,0
102058,687.679083094556,4,2,1,50,1,0
102058,-153.846153846154,4,2,1,50,0,0
102401,691.64265129683,4,2,1,50,1,0
102573,-153.846153846154,4,2,1,50,0,0
102919,687.679083094556,4,2,1,50,1,0
102919,-153.846153846154,4,2,1,50,0,0
103606,655.737704918032,4,2,1,50,1,0
103606,-153.846153846154,4,2,1,50,0,0
104261,695.652173913043,4,2,1,50,1,0
104434,-153.846153846154,4,2,1,50,0,0
104782,681.818181818182,4,2,1,50,1,0
104952,-153.846153846154,4,2,1,50,0,0
105122,657.534246575342,4,2,1,50,1,0
105286,-153.846153846154,4,2,1,50,0,0
105615,695.652173913043,4,2,1,50,1,0
105615,-153.846153846154,4,2,1,50,0,0
106310,679.886685552408,4,2,1,50,1,0
106310,-153.846153846154,4,2,1,50,0,0
106989,676.056338028169,4,2,1,50,1,0
106989,-153.846153846154,4,2,1,50,0,0
107496,710.059171597633,4,2,1,50,1,0
107673,-153.846153846154,4,2,1,50,0,0
107851,676.056338028169,4,2,1,50,1,0
108020,-153.846153846154,4,2,1,50,0,0
108358,679.886685552408,4,2,1,50,1,0
108697,-153.846153846154,4,2,1,50,0,0
109037,683.760683760684,4,2,1,50,1,0
109037,-153.846153846154,4,2,1,50,0,0
110233,691.64265129683,4,2,1,50,1,0
110578,652.173913043478,4,2,1,50,1,0
110741,-153.846153846154,4,2,1,50,0,0
111067,687.679083094556,4,2,1,50,1,0
111067,-153.846153846154,4,2,1,50,0,0
111754,677.966101694916,4,2,1,50,1,0
111754,-153.846153846154,4,2,1,50,0,0
112431,687.679083094556,4,2,1,50,1,0
112431,-153.846153846154,4,2,1,50,0,0
112946,683.760683760684,4,2,1,50,1,0
112946,-153.846153846154,4,2,1,50,0,0
113799,693.64161849711,4,2,1,50,1,0
113799,-153.846153846154,4,2,1,50,0,0
114492,685.714285714286,4,2,1,50,1,0
114492,-153.846153846154,4,2,1,50,0,0
115692,691.64265129683,4,2,1,50,1,0
115864,-153.846153846154,4,2,1,50,0,0
116037,650.40650406504,4,2,1,50,1,0
116199,-153.846153846154,4,2,1,50,0,0
116524,695.652173913043,4,2,1,50,1,0
116871,-153.846153846154,4,2,1,50,0,0
117219,674.157303370787,4,2,1,50,1,0
117219,-153.846153846154,4,2,1,50,0,0
117893,668.523676880223,4,2,1,50,1,0
117893,-153.846153846154,4,2,1,50,0,0
118394,720.72072072072,4,2,1,50,1,0
118394,-153.846153846154,4,2,1,50,0,0
118754,662.983425414364,4,2,1,50,1,0
118754,-153.846153846154,4,2,1,50,0,0
119251,703.812316715542,4,2,1,50,1,0
119251,-125,4,2,1,50,0,0
119954,674.157303370787,4,2,1,60,1,0
120628,672.268907563026,4,2,1,60,1,0
120628,-125,4,2,1,60,0,0
121132,661.157024793388,4,2,1,60,1,0
121132,-125,4,2,1,60,0,0
121462,679.886685552408,4,2,1,60,1,0
121462,-125,4,2,1,60,0,0
121971,679.886685552408,4,2,1,60,1,0
121971,-125,4,2,1,60,0,0
122650,679.886685552408,4,2,1,60,1,0
123329,681.818181818182,4,2,1,60,1,0
123840,699.708454810495,4,2,1,60,1,0
123840,-125,4,2,1,60,0,0
124189,672.268907563026,4,2,1,60,1,0
124693,714.285714285714,4,2,1,60,1,0
124693,-125,4,2,1,60,0,0
125407,652.173913043478,4,2,1,60,1,0
125407,-125,4,2,1,60,0,0
126059,699.708454810495,4,2,1,60,1,0
126583,666.666666666667,4,2,1,60,1,0
126916,668.523676880223,4,2,1,60,1,0
127417,712.166172106825,4,2,1,60,1,0
127773,-125,4,2,1,60,0,0
128129,659.340659340659,4,2,1,60,1,0
128129,-125,4,2,1,60,0,0
128788,710.059171597633,4,2,1,60,1,0
128788,-125,4,2,1,60,0,0
129320,679.886685552408,4,2,1,60,1,0
129659,664.819944598338,4,2,1,60,1,0
130323,687.679083094556,4,2,1,60,1,0
130838,703.812316715542,4,2,1,50,1,0
130838,-86.9565217391304,4,2,1,70,0,0
131541,687.679083094556,4,2,1,70,1,0
131884,687.679083094556,4,2,1,70,1,0
132399,655.737704918033,4,2,1,70,1,0
132726,681.818181818182,4,2,1,70,1,0
133407,659.340659340659,4,2,1,70,1,0
133571,674.157303370787,4,2,1,70,1,0
134245,-90.9090909090909,4,2,1,70,0,0
134582,750,4,2,1,70,1,0
134769,662.983425414365,4,2,1,70,1,0
135100,697.674418604651,4,2,1,70,1,0
135448,666.666666666667,4,2,1,70,1,0
135781,650.40650406504,4,2,1,70,1,0
136268,697.674418604651,4,2,1,70,1,0
136791,689.655172413793,4,2,1,70,1,0
137480,697.674418604651,4,2,1,70,1,0
137829,655.737704918033,4,2,1,70,1,0
138156,672.268907563026,4,2,1,70,1,0
138660,676.056338028169,4,2,1,70,1,0
138998,693.64161849711,4,2,1,70,1,0
138998,-90.9090909090909,4,2,1,70,0,0
139691,691.64265129683,4,2,1,70,1,0
140555,672.268907563026,4,2,1,70,1,0
141563,707.964601769911,4,2,1,70,1,0
141563,-90.9090909090909,4,2,1,70,0,0
141739,736.196319018405,4,2,1,70,1,0
141739,-90.9090909090909,4,2,1,70,0,0
142107,643.43163538874,4,2,1,70,1,0
142428,693.64161849711,4,2,1,70,1,0
142948,712.166172106825,4,2,1,70,1,0
143304,697.674418604651,4,2,1,70,1,0
143652,646.900269541779,4,2,1,70,1,0
144298,710.059171597633,4,2,1,70,1,0
144475,710.059171597633,4,2,1,70,1,0
144475,-90.9090909090909,4,2,1,70,0,0
145007,650.40650406504,4,2,1,70,1,0
145169,689.655172413793,4,2,1,70,1,0
145686,679.886685552408,4,2,1,70,1,0
146875,662.983425414364,4,2,1,70,1,0
147206,720.72072072072,4,2,1,70,1,0
147206,-90.9090909090909,4,2,1,70,0,0
147746,625,4,2,1,70,1,0
147902,666.666666666667,4,2,1,70,1,0
148235,677.966101694916,4,2,1,70,1,0
149590,652.173913043478,4,2,1,70,1,0
149916,705.882352941176,4,2,1,70,1,0
149916,-83.3333333333333,4,2,1,70,0,0
150268,701.754385964912,4,2,1,70,1,0
150794,625,4,2,1,70,1,0
150950,681.818181818182,4,2,1,70,1,0
150950,-83.3333333333333,4,2,1,70,0,0
151631,661.157024793388,4,2,1,70,1,0
152126,685.714285714286,4,2,1,70,1,0
152640,705.882352941176,4,2,1,70,1,0
152640,-83.3333333333333,4,2,1,70,0,0
153698,672.268907563026,4,2,1,70,1,0
154202,720.720720720721,4,2,1,70,1,0
154742,666.666666666667,4,2,1,70,1,0
154742,-83.3333333333333,4,2,1,70,0,0
155075,652.173913043478,4,2,1,70,1,0
155075,-83.3333333333333,4,2,1,70,0,0
155401,640,4,2,1,70,1,0
155401,-83.3333333333333,4,2,1,70,0,0
155721,710.059171597633,4,2,1,70,1,0
156431,695.652173913043,4,2,1,70,1,0
156778,640,4,2,1,70,1,0
156778,-83.3333333333333,4,2,1,70,0,0
157418,687.679083094556,4,2,1,70,1,0
157418,-83.3333333333333,4,2,1,70,0,0
157761,764.331210191083,4,2,1,70,1,0
157952,636.60477453581,4,2,1,70,1,0
157952,-66.6666666666667,4,2,1,70,0,0
158270,714.285714285714,4,2,1,70,1,0
158270,-66.6666666666667,4,2,1,70,0,0
158805,693.64161849711,4,2,1,60,1,0
158805,-200,4,2,1,60,0,0
159498,689.655172413793,4,2,1,60,1,0
159842,-200,4,2,1,60,0,0
160187,641.711229946524,4,2,1,60,1,0
160187,-200,4,2,1,60,0,0
160507,685.714285714286,4,2,1,60,1,0
160507,-111.111111111111,4,2,1,60,0,0
161192,646.900269541779,4,2,1,60,1,0
161515,683.760683760684,4,2,1,60,1,0
161515,-111.111111111111,4,2,1,60,0,0
161856,-100,4,2,1,60,0,0
162540,674.157303370787,4,2,1,70,1,0
162624,-100,4,2,1,5,0,0
162877,-100,4,2,1,70,0,0
162961,-100,4,2,1,5,0,0
163214,710.059171597633,4,2,1,70,1,0
163302,-100,4,2,1,5,0,0
163569,697.674418604651,4,2,1,70,1,0
163569,-83.3333333333333,4,2,1,70,0,0
164266,718.562874251497,4,2,1,70,1,0
164266,-90.9090909090909,4,2,1,70,0,0
164625,679.886685552408,4,2,1,70,1,0
164625,-76.9230769230769,4,2,1,70,0,0
165644,693.64161849711,4,2,1,70,1,0
165644,-90.9090909090909,4,2,1,70,0,0
165990,625,4,2,1,70,1,0
165990,-90.9090909090909,4,2,1,70,0,0
166302,703.812316715542,4,2,1,70,1,0
166653,674.157303370787,4,2,1,70,1,0
166653,-90.9090909090909,4,2,1,70,0,0
166990,693.64161849711,4,2,1,70,1,0
166990,-90.9090909090909,4,2,1,70,0,0
167336,650.40650406504,4,2,1,70,1,0
167661,720.72072072072,4,2,1,70,1,0
168021,638.297872340426,4,2,1,70,1,0
168021,-90.9090909090909,4,2,1,70,0,0
168180,610.687022900764,4,2,1,70,1,0
168332,672.268907563026,4,2,1,70,1,0
168332,-83.3333333333333,4,2,1,70,0,0
168836,661.157024793388,4,2,1,70,1,0
169166,701.754385964912,4,2,1,70,1,0
169692,725.075528700906,4,2,1,70,1,0
170054,659.340659340659,4,2,1,70,1,0
170218,687.679083094556,4,2,1,70,1,0
170218,-125,4,2,1,70,0,0
170561,689.655172413793,4,2,1,70,1,0
170561,-125,4,2,1,70,0,0
171078,750,4,2,1,60,1,0
171453,653.950953678474,4,2,1,60,1,0
171453,-117.647058823529,4,2,1,60,0,0
172433,668.523676880223,4,2,1,60,1,0
172767,-117.647058823529,4,2,1,60,0,0
173101,699.708454810495,4,2,1,60,1,0
173275,-117.647058823529,4,2,1,60,0,0
173450,672.268907563026,4,2,1,60,1,0
173786,687.679083094556,4,2,1,60,1,0
173786,-117.647058823529,4,2,1,60,0,0
174473,750,4,2,1,60,1,0
174473,-153.846153846154,4,2,1,60,0,0
174848,636.604774535809,4,2,1,60,1,0
175166,695.652173913043,4,2,1,60,1,0
175166,-133.333333333333,4,2,1,60,0,0
175774,-133.333333333333,4,2,1,5,0,0
175861,681.818181818182,4,2,1,60,1,0
176542,693.64161849711,4,2,1,60,1,0
176888,661.157024793388,4,2,1,60,1,0
176888,-133.333333333333,4,2,1,60,0,0
177879,695.652173913043,4,2,1,60,1,0
177879,-133.333333333333,4,2,1,60,0,0
178913,699.708454810495,4,2,1,60,1,0
178913,-133.333333333333,4,2,1,60,0,0
179262,666.666666666667,4,2,1,60,1,0
179595,676.056338028169,4,2,1,60,1,0
179933,695.652173913043,4,2,1,60,1,0
179933,-133.333333333333,4,2,1,60,0,0
180628,679.886685552408,4,2,1,60,1,0
180967,693.64161849711,4,2,1,60,1,0
181313,670.391061452514,4,2,1,60,1,0
181648,677.966101694916,4,2,1,60,1,0
182325,689.655172413793,4,2,1,60,1,0
182325,-133.333333333333,4,2,1,60,0,0
183014,646.900269541779,4,2,1,60,1,0
183337,689.655172413793,4,2,1,60,1,0
183681,-133.333333333333,4,2,1,60,0,0
184026,685.714285714286,4,2,1,60,1,0
184026,-133.333333333333,4,2,1,60,0,0
184368,679.886685552408,4,2,1,60,1,0
184368,-133.333333333333,4,2,1,60,0,0
185047,676.056338028169,4,2,1,60,1,0
185385,687.679083094556,4,2,1,60,1,0
185385,-133.333333333333,4,2,1,60,0,0
186072,691.64265129683,4,2,1,60,1,0
186417,676.056338028169,4,2,1,60,1,0
186417,-133.333333333333,4,2,1,60,0,0
186755,687.679083094556,4,2,1,60,1,0
187442,677.966101694915,4,2,1,60,1,0
187780,670.391061452514,4,2,1,60,1,0
187780,-133.333333333333,4,2,1,60,0,0
188450,646.900269541779,4,2,1,60,1,0
188773,699.708454810495,4,2,1,60,1,0
188773,-133.333333333333,4,2,1,60,0,0
189822,638.297872340426,4,2,1,60,1,0
189822,-133.333333333333,4,2,1,60,0,0
190141,695.652173913043,4,2,1,60,1,0
190836,687.679083094556,4,2,1,60,1,0
190836,-153.846153846153,4,2,1,60,0,0
191523,683.760683760684,4,2,1,60,1,0
192206,687.679083094556,4,2,1,60,1,0
192206,-153.846153846153,4,2,1,60,0,0
192807,-153.846153846153,4,2,1,5,0,0
192893,672.268907563026,4,2,1,60,1,0
193565,691.64265129683,4,2,1,65,1,0
193565,-90.9090909090909,4,2,1,65,0,0
194256,707.964601769911,4,2,1,65,1,0
194256,-90.9090909090909,4,2,1,65,0,0
194609,674.157303370787,4,2,1,65,1,0
194609,-90.9090909090909,4,2,1,65,0,0
195283,677.966101694915,4,2,1,65,1,0
195621,699.708454810495,4,2,1,65,1,0
195621,-90.9090909090909,4,2,1,65,0,0
196320,659.340659340659,4,2,1,65,1,0
196320,-90.9090909090909,4,2,1,65,0,0
196979,712.166172106825,4,2,1,65,1,0
197335,676.056338028169,4,2,1,65,1,0
197335,-90.9090909090909,4,2,1,65,0,0
197673,659.340659340659,4,2,1,65,1,0
198002,689.655172413793,4,2,1,65,1,0
198002,-90.9090909090909,4,2,1,65,0,0
198691,693.641618497109,4,2,1,65,1,0
198691,-90.9090909090909,4,2,1,65,0,0
199037,681.818181818182,4,2,1,65,1,0
199037,-90.9090909090909,4,2,1,65,0,0
199718,722.89156626506,4,2,1,65,1,0
199718,-90.9090909090909,4,2,1,65,0,0
200079,659.340659340659,4,2,1,65,1,0
200079,-90.9090909090909,4,2,1,65,0,0
201068,681.818181818182,4,2,1,65,1,0
201068,-90.9090909090909,4,2,1,65,0,0
201749,681.818181818182,4,2,1,65,1,0
201749,-90.9090909090909,4,2,1,65,0,0
202430,722.89156626506,4,2,1,65,1,0
202791,666.666666666667,4,2,1,65,1,0
203791,695.652173913043,4,2,1,65,1,0
204486,679.886685552408,4,2,1,65,1,0
204486,-90.9090909090909,4,2,1,65,0,0
205165,727.272727272727,4,2,1,65,1,0
205165,-90.9090909090909,4,2,1,65,0,0
205528,670.391061452514,4,2,1,65,1,0
205528,-90.9090909090909,4,2,1,65,0,0
206198,672.268907563026,4,2,1,65,1,0
207206,668.523676880223,4,2,1,65,1,0
207874,712.166172106825,4,2,1,65,1,0
208230,666.666666666667,4,2,1,65,1,0
208896,689.655172413793,4,2,1,65,1,0
209240,685.714285714286,4,2,1,65,1,0
209582,710.059171597633,4,2,1,65,1,0
209937,689.655172413793,4,2,1,65,1,0
209937,-90.9090909090909,4,2,1,65,0,0
210626,727.272727272727,4,2,1,65,1,0
210626,-90.9090909090909,4,2,1,65,0,0
210989,657.534246575342,4,2,1,65,1,0
211975,685.714285714286,4,2,1,65,1,0
211975,-90.9090909090909,4,2,1,65,0,0
212660,672.268907563026,4,2,1,65,1,0
212660,-90.9090909090909,4,2,1,65,0,0
213332,685.714285714286,4,2,1,65,1,0
213332,-90.9090909090909,4,2,1,65,0,0
213674,672.268907563026,4,2,1,65,1,0
214682,666.666666666667,4,2,1,65,1,0
215015,687.679083094556,4,2,1,65,1,0
215358,705.882352941176,4,2,1,65,1,0
216063,689.655172413793,4,2,1,65,1,0
216407,668.523676880223,4,2,1,65,1,0
217075,718.562874251497,4,2,1,65,1,0
217434,687.679083094556,4,2,1,65,1,0
217777,666.666666666667,4,2,1,65,1,0
218110,685.714285714286,4,2,1,65,1,0
218795,697.674418604651,4,2,1,65,1,0
219143,679.886685552408,4,2,1,65,1,0
220162,701.754385964912,4,2,1,65,1,0
220512,674.157303370787,4,2,1,65,1,0
220849,676.056338028169,4,2,1,65,1,0
221863,679.886685552408,4,2,1,65,1,0
222882,710.059171597633,4,2,1,65,1,0
223237,681.818181818182,4,2,1,65,1,0
223577,672.268907563026,4,2,1,65,1,0
224249,643.43163538874,4,2,1,65,1,0
224570,695.652173913043,4,2,1,60,1,0
225613,710.059171597633,4,2,1,60,1,0
225968,689.655172413793,4,2,1,50,1,0
225968,-117.647058823529,4,2,1,50,0,0
226312,691.64265129683,4,2,1,50,1,0
226312,-111.111111111111,4,2,1,45,0,0
227003,659.340659340659,4,2,1,50,1,0
227332,676.056338028169,4,2,1,50,1,0
227332,-111.111111111111,4,2,1,50,0,0
228346,722.891566265061,4,2,1,50,1,0
228346,-111.111111111111,4,2,1,50,0,0
228707,662.983425414364,4,2,1,50,1,0
229038,670.391061452514,4,2,1,45,1,0
229038,-111.111111111111,4,2,1,45,0,0
230043,674.157303370787,4,2,1,45,1,0
230043,-111.111111111111,4,2,1,45,0,0
230380,-111.111111111111,4,2,1,40,0,0
231054,727.272727272727,4,2,1,40,1,0
231417,683.760683760684,4,2,1,40,1,0
231758,697.674418604651,4,2,1,35,1,0
231758,-125,4,2,1,35,0,0
232281,674.157303370787,4,2,1,35,1,0
232281,-125,4,2,1,35,0,0
232785,674.157303370787,4,2,1,35,1,0
233122,-125,4,2,1,35,0,0
233796,668.523676880223,4,2,1,35,1,0
233796,-125,4,2,1,35,0,0
234464,664.819944598338,4,2,1,30,1,0
234464,-125,4,2,1,30,0,0
235461,655.737704918032,4,2,1,30,1,0
235461,-125,4,2,1,30,0,0
235788,714.285714285714,4,2,1,30,1,0
235788,-125,4,2,1,30,0,0
236502,699.708454810495,4,2,1,30,1,0
236502,-125,4,2,1,30,0,0
237201,683.760683760684,4,2,1,25,1,0
237201,-142.857142857143,4,2,1,25,0,0
237884,745.341614906832,4,2,1,25,1,0
238256,676.056338028169,4,2,1,25,1,0
238593,-166.666666666667,4,2,1,25,0,0
239270,657.534246575342,4,2,1,25,1,0
239270,-166.666666666667,4,2,1,25,0,0
239927,683.760683760684,4,2,1,20,1,0
239927,-166.666666666667,4,2,1,20,0,0
240952,687.679083094556,4,2,1,20,1,0
240952,-166.666666666667,4,2,1,20,0,0
241983,710.059171597633,4,2,1,20,1,0
242693,672.268907563025,4,2,1,15,1,0
242693,-250,4,2,1,15,0,0
243701,664.819944598338,4,2,1,15,1,0
243701,-250,4,2,1,15,0,0
244698,681.818181818182,4,2,1,15,1,0
244698,-250,4,2,1,15,0,0
245379,652.173913043478,4,2,1,10,1,0
246357,689.655172413793,4,2,1,10,1,0
246701,-250,4,2,1,10,0,0
247391,707.964601769911,4,2,1,10,1,0
247391,-250,4,2,1,10,0,0
248098,681.818181818182,4,2,1,10,1,0
248183,-250,4,2,1,5,0,0

[Colours]
Combo1 : 159,217,200
Combo2 : 105,209,159
Combo3 : 174,180,225
Combo4 : 213,227,215
Combo5 : 162,219,111
Combo6 : 200,253,121

[HitObjects]
6,329,1989,6,0,P|66:315|102:239,1,135
30,216,2673,6,0,B|119:205|97:258|206:230,1,161.999995056153,4|0,1:2|0:0,0:0:0:0:
321,182,3167,1,0,0:0:0:0:
182,120,3332,2,0,P|179:162|170:200,1,80.9999975280763,8|0,0:0|0:0,0:0:0:0:
228,62,3669,1,0,0:0:0:0:
280,113,3837,2,0,P|268:177|258:260,1,121.499996292114,0|0,1:2|0:0,0:0:0:0:
263,239,4177,1,0,1:0:0:0:
353,82,4349,2,0,P|304:79|205:52,1,121.499996292114
159,48,4693,6,0,L|147:9,1,40.4999987640381,10|0,0:0|0:0,0:0:0:0:
353,336,5048,2,0,L|365:375,1,40.4999987640381,2|0,0:0|0:0,0:0:0:0:
232,327,5403,6,0,P|294:305|363:298,1,135.000005149842,0|0,1:0|0:0,0:0:0:0:
443,229,5908,2,0,L|436:297,1,67.5000025749208,0|8,0:0|0:0,0:0:0:0:
512,278,6245,1,0,0:0:0:0:
398,171,6414,1,0,0:0:0:0:
475,214,6582,2,0,L|469:147,1,67.5000025749208,0|0,1:0|0:0,0:0:0:0:
337,280,6909,6,0,B|280:274|280:274|243:301|243:301|172:294,1,168.750006437302,0|0,1:0|0:0,0:0:0:0:
136,326,7433,5,10,0:0:0:0:
369,237,7786,5,2,0:0:0:0:
282,167,7963,1,0,0:0:0:0:
282,167,8052,1,0,0:0:0:0:
282,167,8140,2,0,P|285:209|294:247,1,80.9999975280763,0|0,1:0|0:0,0:0:0:0:
180,336,8478,1,0,0:0:0:0:
85,221,8648,1,0,0:0:0:0:
85,221,8817,2,0,P|145:212|204:201,1,121.499996292114,8|0,0:0|0:0,0:0:0:0:
211,206,9160,1,0,0:0:0:0:
253,369,9332,2,0,P|258:328|264:288,1,80.9999975280763,0|0,1:0|0:0,0:0:0:0:
424,287,9676,1,0,1:0:0:0:
489,253,9838,2,0,P|435:248|354:233,1,121.499996292114
341,308,10163,6,0,L|353:347,1,40.4999987640381,10|0,0:0|0:0,0:0:0:0:
171,76,10507,2,0,L|159:37,1,40.4999987640381,2|0,0:0|0:0,0:0:0:0:
87,99,10852,6,0,B|176:88|154:141|263:113,1,161.999995056153,0|0,1:0|0:0,0:0:0:0:
374,57,11357,1,0,0:0:0:0:
226,0,11526,2,0,P|223:42|214:80,1,80.9999975280763,8|0,0:0|0:0,0:0:0:0:
332,132,11867,1,0,0:0:0:0:
277,186,12038,2,0,P|285:125|296:66,1,121.499996292114,0|0,1:0|0:0,0:0:0:0:
338,28,12380,2,0,B|379:26|379:26|417:43,1,80.9999975280763,0|2,1:0|0:0,0:0:0:0:
512,216,12711,5,2,0:3:0:0:
512,216,12794,1,2,0:3:0:0:
512,216,12877,2,2,B|455:210|455:210|416:238|416:238|347:230,1,161.999995056153,10|0,0:0|0:0,0:1:0:0:
305,216,13216,2,0,P|317:258|327:305,1,85.4999977169037,2|0,0:3|0:0,0:0:0:0:
34,161,13571,6,0,P|43:110|56:63,1,99.0000030212403,6|0,1:0|0:0,0:0:0:0:
13,0,13905,1,2,0:3:0:0:
198,121,14072,1,0,1:0:0:0:
103,207,14239,5,10,0:1:0:0:
2,239,14411,1,0,0:0:0:0:
172,376,14583,5,2,0:3:0:0:
111,330,14791,2,0,B|208:307|191:372|290:358,1,180,2|8,1:0|0:0,0:0:0:0:
396,287,15281,1,2,0:1:0:0:
302,234,15451,1,0,1:0:0:0:
400,378,15622,5,8,0:0:0:0:
512,257,15792,1,2,0:1:0:0:
391,145,15963,1,2,1:0:0:0:
279,266,16129,5,8,0:0:0:0:
279,266,16212,1,8,0:0:0:0:
279,266,16295,2,0,B|216:259|216:259|166:305|90:290,1,198.000000797272,4|2,1:0|0:3,0:0:0:0:
39,69,16824,1,0,1:0:0:0:
135,195,16999,2,0,P|140:146|133:95,1,99.0000003986359,10|0,0:1|0:0,0:0:0:0:
134,97,17352,1,2,1:3:0:0:
3,271,17529,2,0,P|24:359|120:377,1,198.000006042481,2|8,1:0|0:0,0:0:0:0:
232,369,18014,5,2,0:3:0:0:
183,246,18193,1,0,1:0:0:0:
348,96,18361,5,10,0:1:0:0:
299,255,18530,1,2,0:1:0:0:
203,86,18698,5,2,1:3:0:0:
193,14,18861,1,10,0:1:0:0:
387,162,19024,6,0,P|476:176|511:268,1,198.000006042481,6|2,1:0|1:3,0:0:0:0:
436,248,19532,1,0,1:0:0:0:
287,384,19699,2,0,P|282:339|288:294,1,90,10|0,0:1|0:0,0:0:0:0:
423,369,20040,5,2,1:3:0:0:
238,232,20211,2,0,P|153:246|120:325,1,180,2|8,1:0|0:0,0:0:0:0:
170,384,20714,1,2,0:1:0:0:
199,315,20896,1,0,1:0:0:0:
11,151,21065,5,8,0:0:0:0:
89,207,21234,1,2,0:1:0:0:
98,111,21403,1,2,1:0:0:0:
0,246,21571,1,2,0:1:0:0:
20,55,21739,5,4,1:0:0:0:
176,167,21895,2,0,B|243:159|243:159|279:118|279:118|355:110,1,198.000006042481,10|0,0:1|1:0,0:0:0:0:
484,54,22413,1,10,0:1:0:0:
375,11,22586,1,0,0:0:0:0:
512,41,22759,5,2,1:3:0:0:
327,100,22925,2,0,P|327:149|334:200,1,99.0000030212403,2|0,1:0|0:0,0:0:0:0:
432,149,23269,1,8,0:0:0:0:
504,315,23447,2,0,P|511:266|511:217,1,99.0000030212403,2|0,0:1|1:0,0:0:0:0:
279,256,23796,5,10,0:1:0:0:
446,376,23967,1,10,0:1:0:0:
404,162,24129,1,2,1:3:0:0:
220,332,24291,5,8,0:0:0:0:
220,332,24372,1,8,0:0:0:0:
220,332,24453,2,0,B|139:326|81:373|81:373|30:357,1,198.000006042481,6|2,1:0|0:3,0:0:0:0:
33,358,24985,1,0,1:0:0:0:
0,291,25163,1,10,0:1:0:0:
52,232,25342,1,0,0:0:0:0:
179,85,25522,5,2,0:3:0:0:
125,29,25701,2,0,L|138:214,1,180,2|8,1:1|0:0,0:0:0:0:
193,272,26194,1,2,0:1:0:0:
221,191,26367,1,0,1:0:0:0:
35,6,26537,5,10,0:1:0:0:
109,141,26707,1,2,0:1:0:0:
139,36,26878,1,0,1:0:0:0:
4,110,27050,1,10,0:1:0:0:
249,110,27223,6,0,B|356:88|328:150|439:139,1,198.000006042481,6|2,1:0|0:3,0:0:0:0:
500,87,27730,1,0,1:0:0:0:
369,264,27891,2,0,P|360:214|360:165,1,99.0000030212403,10|0,0:1|0:0,0:0:0:0:
361,166,28236,1,2,1:3:0:0:
488,267,28409,2,0,P|465:356|371:382,1,198.000006042481,2|8,1:0|0:0,0:0:0:0:
283,277,28929,5,2,0:3:0:0:
385,350,29100,1,0,1:0:0:0:
202,262,29271,5,10,0:1:0:0:
112,374,29440,1,8,0:0:0:0:
326,206,29609,5,2,1:3:0:0:
169,81,29778,1,10,0:1:0:0:
263,0,29947,6,0,B|288:100|218:80|246:194,1,198.000006042481,6|2,1:0|0:3,0:0:0:0:
453,307,30484,1,0,1:0:0:0:
512,255,30637,2,0,P|512:210|501:166,1,90,10|0,0:1|0:0,0:0:0:0:
255,288,30968,5,2,1:3:0:0:
337,324,31141,2,0,B|273:318|273:318|233:349|233:349|167:343,1,180,2|8,1:1|0:0,0:0:0:0:
66,283,31658,1,2,0:1:0:0:
8,384,31829,1,0,1:0:0:0:
155,264,32000,5,10,0:1:0:0:
29,170,32164,1,10,0:1:0:0:
172,109,32329,1,2,1:1:0:0:
124,176,32495,1,8,0:0:0:0:
74,6,32662,6,0,B|59:48|59:48|74:90,1,90,6|0,1:0|0:0,0:0:0:0:
233,17,32997,1,2,0:3:0:0:
365,187,33164,2,0,B|380:145|380:145|365:103,1,90,10|2,0:1|0:3,0:0:0:0:
299,60,33502,1,2,1:0:0:0:
232,262,33672,6,0,B|123:231|141:312|44:307,1,198.000006042481,10|2,0:1|0:3,0:0:0:0:
0,206,34187,1,10,0:1:0:0:
88,144,34354,1,2,1:0:0:0:
232,262,34521,5,8,0:0:0:0:
230,276,34604,1,8,0:0:0:0:
228,290,34688,1,10,0:1:0:0:
299,369,34854,5,8,3:0:0:0:
407,383,35020,5,4,3:0:0:0:
485,346,35200,5,4,3:0:0:0:
453,310,35379,6,0,B|454:286|454:286|462:265|462:265|464:213,1,72,4|0,1:2|0:0,0:0:0:0:
417,137,35723,1,0,0:0:0:0:
417,137,36068,2,0,P|417:192|425:248,1,107.999996704102,8|0,0:0|0:0,0:0:0:0:
228,290,36585,1,0,1:0:0:0:
262,313,36757,2,0,L|359:302,1,80.9999975280763
342,303,37102,2,0,P|347:271|349:248,1,53.9999983520508,2|0,0:0|0:0,0:0:0:0:
504,167,37447,2,0,P|493:113|492:60,1,107.999996704102,10|0,0:0|0:0,0:0:0:0:
417,137,37956,5,0,0:0:0:0:
417,137,38041,1,0,0:0:0:0:
417,137,38126,2,0,P|363:153|255:96,1,161.999995056153,2|0,1:2|0:0,0:0:0:0:
193,2,38838,2,0,P|191:52|181:101,1,80.9999975280763,8|0,0:0|0:0,0:0:0:0:
182,91,39172,1,0,0:0:0:0:
150,110,39339,2,0,L|73:102,1,53.9999983520508,0|2,1:0|0:0,0:0:0:0:
0,174,39686,2,0,L|53:168,1,53.9999983520508,0|0,1:0|0:0,0:0:0:0:
139,355,40175,6,0,P|149:302|151:249,1,107.999996704102,8|2,0:0|0:0,0:0:0:0:
259,321,40684,1,0,0:0:0:0:
259,321,40769,1,0,0:0:0:0:
259,321,40854,2,0,P|213:326|176:327,1,80.9999975280763,2|0,1:2|0:0,0:0:0:0:
178,327,41196,2,0,L|180:384,1,53.9999983520508
305,256,41539,2,0,P|355:268|426:272,1,107.999996704102,8|0,0:0|0:0,0:0:0:0:
503,154,42054,2,0,P|472:157|426:171,1,53.9999983520508,0|2,1:0|0:0,0:0:0:0:
357,116,42392,2,0,P|383:120|410:123,1,53.9999983520508,0|0,1:0|0:0,0:0:0:0:
462,345,42899,6,0,P|451:291|450:238,1,107.999996704102,8|2,0:0|0:0,0:0:0:0:
261,146,43419,1,0,0:0:0:0:
261,146,43505,1,0,0:0:0:0:
261,146,43592,2,0,P|258:98|262:25,1,107.999996704102,2|0,1:2|0:0,0:0:0:0:
84,3,44103,1,0,0:0:0:0:
107,28,44273,2,0,L|188:20,1,80.9999975280763,8|0,0:0|0:0,0:0:0:0:
187,20,44614,1,0,0:0:0:0:
282,75,44785,2,0,P|258:73|228:68,1,53.9999983520508,0|2,1:0|0:0,0:0:0:0:
147,161,45114,2,0,L|156:91,1,53.9999983520508,0|0,1:0|0:0,0:0:0:0:
405,261,45611,6,0,P|439:269|475:274,1,72,8|0,0:0|0:0,0:0:0:0:
475,274,45871,1,0,0:0:0:0:
475,274,45957,2,0,P|466:308|461:344,1,72,2|0,0:3|0:0,0:0:0:0:
460,344,46330,6,0,B|437:237|395:293|407:176,1,161.999995056153,4|0,1:2|0:0,0:0:0:0:
384,60,46827,1,0,0:0:0:0:
512,107,46992,2,0,P|472:116|432:122,1,80.9999975280763,8|0,0:0|0:0,0:0:0:0:
286,174,47324,1,0,0:0:0:0:
286,174,47490,2,0,P|349:181|418:201,1,121.499996292114,0|0,1:0|0:0,0:0:0:0:
413,200,47831,1,0,1:0:0:0:
359,105,48006,6,0,P|349:65|343:25,1,80.9999975280763,2|0,0:0|0:0,0:0:0:0:
276,94,48358,2,0,P|271:156|250:224,1,121.499996292114,10|0,0:0|0:0,0:0:0:0:
252,219,48699,1,2,0:0:0:0:
54,269,48956,5,0,0:0:0:0:
54,269,49041,2,0,P|111:271|180:322,1,121.499996292114,2|0,1:2|0:0,0:0:0:0:
170,309,49374,1,0,0:0:0:0:
231,263,49541,2,0,P|234:220|219:173,1,80.9999975280763,0|8,0:0|0:0,0:0:0:0:
297,160,49883,1,0,0:0:0:0:
404,264,50060,2,0,P|374:190|373:109,1,161.999995056153,0|2,0:0|0:0,0:0:0:0:
501,25,50571,2,0,P|460:25|424:43,1,80.9999975280763,0|0,1:0|0:0,0:0:0:0:
500,24,51079,6,0,P|464:42|424:43,1,80.9999975280763,8|0,0:0|0:0,0:0:0:0:
353,16,51417,1,2,0:0:0:0:
257,78,51586,1,0,0:0:0:0:
257,78,51670,1,0,0:0:0:0:
257,78,51755,2,0,P|321:88|387:117,1,121.499996292114,2|0,1:2|0:0,0:0:0:0:
382,118,52098,1,0,0:0:0:0:
423,187,52270,2,0,P|419:227|404:264,1,80.9999975280763,0|8,0:0|0:0,0:0:0:0:
403,264,52786,1,0,0:0:0:0:
512,359,52958,2,0,P|496:321|493:281,1,80.9999975280763,0|2,1:0|0:0,0:0:0:0:
266,306,53302,2,0,P|339:338|419:348,1,161.999995056153,0|0,1:0|0:0,0:0:0:0:
206,161,53788,5,8,0:0:0:0:
206,161,54134,2,0,P|167:172|127:179,1,80.9999975280763,2|0,0:0|0:0,0:0:0:0:
65,226,54394,1,0,0:0:0:0:
65,226,54481,2,0,P|58:265|46:304,1,80.9999975280763,2|0,1:2|0:0,0:0:0:0:
47,305,54995,1,0,0:0:0:0:
232,372,55166,2,0,P|216:313|207:253,1,121.499996292114,8|0,0:0|0:0,0:0:0:0:
208,245,55506,1,0,0:0:0:0:
111,372,55677,2,0,P|149:360|189:353,1,80.9999975280763,0|2,1:0|0:0,0:0:0:0:
284,179,56018,2,0,P|244:172|205:160,1,80.9999975280763,0|0,1:0|0:0,0:0:0:0:
133,260,56359,5,2,0:3:0:0:
133,260,56444,1,2,0:3:0:0:
133,260,56529,2,2,B|190:254|190:254|229:282|229:282|298:274,1,161.999995056153,10|0,0:1|0:0,0:1:0:0:
333,351,56879,6,0,B|351:310|351:310|334:252,1,90,2|0,0:3|0:0,0:0:0:0:
398,140,57230,6,0,P|445:137|509:266,1,204.749990627289,4|0,1:0|0:0,0:0:0:0:
476,289,57885,1,10,0:0:0:0:
409,256,58234,1,0,1:0:0:0:
219,51,58565,6,0,L|225:-3,1,29.2499986610413,8|0,0:0|0:0,0:0:0:0:
46,133,58923,2,0,L|-8:127,1,29.2499986610413,8|0,0:0|0:0,0:0:0:0:
4,118,59612,6,0,B|141:75|110:186|231:174,1,233.999989288331,6|0,1:2|1:0,0:0:0:0:
385,26,60623,1,8,0:0:0:0:
474,146,60954,2,0,P|480:84|479:10,1,116.999994644165,0|2,1:3|1:3,0:0:0:0:
480,29,61635,1,2,1:3:0:0:
340,113,61966,2,0,P|340:171|346:229,1,116.999994644165,10|2,0:0|0:3,0:0:0:0:
512,359,62477,5,0,0:0:0:0:
512,359,62562,1,0,0:0:0:0:
512,359,62647,2,0,B|449:317|449:317|380:351,2,153.000002918243,4|0|10,1:2|1:0|0:0,0:0:0:0:
155,251,63667,5,4,3:0:0:0:
113,258,63783,5,8,3:0:0:0:
88,292,63899,5,8,0:0:0:0:
94,333,64015,5,10,0:0:0:0:
168,383,64341,5,8,3:0:0:0:
275,208,64689,5,4,3:0:0:0:
146,46,65038,6,0,P|37:68|-1:173,1,233.999989288331,4|0,1:0|1:0,0:0:0:0:
217,12,66087,1,8,0:0:0:0:
398,167,66416,1,2,0:3:0:0:
461,120,66746,2,0,P|453:66|450:-4,1,116.999994644165,2|2,1:3|1:3,0:0:0:0:
313,139,67426,2,0,P|309:226|295:345,1,204.749990627289,8|0,0:0|0:0,0:0:0:0:
259,367,68092,5,6,1:2:0:0:
259,367,68438,1,0,1:0:0:0:
31,195,68785,2,0,P|33:127|42:60,1,135,10|0,0:0|0:0,0:0:0:0:
13,25,69131,1,2,1:3:0:0:
237,166,69475,5,8,0:0:0:0:
290,138,69590,5,8,0:0:0:0:
348,153,69705,5,8,0:0:0:0:
385,200,69820,5,8,3:0:0:0:
417,233,69935,1,4,3:0:0:0:
460,234,70050,1,4,3:0:0:0:
476,215,70165,1,4,3:0:0:0:
512,233,70506,6,0,B|375:190|406:301|285:289,1,233.999989288331,6|0,1:2|1:0,0:0:0:0:
118,192,71517,2,0,P|50:200|4:311,1,175.499991966248,8|0,0:0|0:0,0:0:0:0:
24,326,72118,1,0,0:0:0:0:
24,326,72204,1,2,1:2:0:0:
124,372,72539,5,2,1:2:0:0:
242,292,72869,5,10,0:0:0:0:
210,121,73227,5,2,1:2:0:0:
360,0,73585,6,0,P|444:19|475:100,1,180,6|2,1:2|0:3,0:0:0:0:
475,100,74982,2,0,B|399:112|425:147|324:155,1,157.5,4|0,1:0|0:0,0:0:0:0:
296,130,75613,5,8,3:0:0:0:
215,72,75785,1,8,0:0:0:0:
215,72,75872,1,8,0:0:0:0:
215,72,75958,1,8,0:0:0:0:
267,219,76127,1,8,0:0:0:0:
7,326,76296,6,0,P|99:335|151:254,1,198.000006042481,6|0,1:2|0:0,0:0:0:0:
267,219,76811,5,0,1:0:0:0:
189,175,76983,2,0,P|179:222|193:269,1,99.0000030212403,8|0,0:0|0:0,0:0:0:0:
322,144,77336,2,0,P|350:184|356:233,1,99.0000030212403,6|0,1:0|0:0,0:0:0:0:
507,97,77670,6,0,P|422:100|341:21,1,198.000006042481,2|0,0:3|1:0,0:0:0:0:
343,26,78177,1,0,0:0:0:0:
433,296,78350,2,0,P|442:247|459:201,1,99.0000030212403,10|0,0:0|0:0,0:0:0:0:
270,132,78691,2,0,P|318:122|365:106,1,99.0000030212403,2|0,0:0|0:0,0:0:0:0:
348,235,79033,6,0,B|255:205|294:261|173:215,1,161.999995056153,2|0,1:2|0:0,0:0:0:0:
189,221,79545,5,0,1:0:0:0:
3,374,79716,2,0,P|25:324|27:232,1,135,8|0,0:0|0:0,0:0:0:0:
29,244,80058,2,0,P|72:260|128:262,1,90,2|0,1:2|0:0,0:0:0:0:
347,235,80392,5,2,0:3:0:0:
197,311,80559,1,0,0:0:0:0:
281,286,80726,2,0,P|278:331|262:373,1,90,0|0,1:0|0:0,0:0:0:0:
115,263,81071,2,0,P|119:307|112:352,1,90,8|0,0:0|0:0,0:0:0:0:
332,159,81410,5,2,1:3:0:0:
477,296,81580,1,8,0:0:0:0:
477,296,81665,1,8,0:0:0:0:
477,296,81750,2,0,P|382:300|366:225,1,180,6|0,1:2|0:0,0:0:0:0:
216,94,82267,5,0,1:0:0:0:
363,0,82439,2,0,P|315:15|259:19,1,90,10|0,0:0|0:0,0:0:0:0:
125,132,82800,2,0,P|128:87|144:45,1,90,4|0,1:0|0:0,0:0:0:0:
312,111,83126,2,0,P|309:156|293:198,1,90,2|0,0:3|0:0,0:0:0:0:
97,274,83452,5,2,1:2:0:0:
259,354,83621,1,2,0:0:0:0:
25,321,83790,2,0,B|118:291|79:347|200:301,1,161.999995056153,10|0,0:0|0:0,0:0:0:0:
387,159,84301,5,2,0:0:0:0:
265,270,84471,2,0,P|242:201|240:109,1,135,0|0,1:0|0:0,0:0:0:0:
237,139,84811,2,0,P|195:154|150:161,1,90,2|0,0:3|1:0,0:0:0:0:
338,331,85152,6,0,P|425:328|485:264,1,180,8|2,0:0|0:3,0:0:0:0:
387,159,85692,1,0,1:0:0:0:
492,131,85864,2,0,P|478:173|467:226,1,90
402,48,86210,2,0,P|359:62|315:70,1,90,2|0,1:3|0:0,0:0:0:0:
54,158,86553,6,0,P|108:154|161:228,1,135,8|0,0:0|0:0,0:0:0:0:
197,248,86885,1,2,1:3:0:0:
36,318,87051,1,0,0:0:0:0:
108,377,87217,6,0,P|126:299|120:219,1,161.999995056153,6|0,1:2|0:0,0:0:0:0:
119,217,87729,1,0,1:0:0:0:
317,326,87900,2,2,P|294:286|281:243,1,90,8|0,0:0|0:0,0:0:0:0:
55,55,88252,6,0,P|129:45|195:9,1,148.500000597954,6|0,1:0|0:0,0:0:0:0:
193,11,88580,2,0,P|206:62|232:99,1,90,2|0,0:3|0:0,0:0:0:0:
3,113,88909,2,0,P|25:160|58:192,1,90,2|0,1:2|0:0,0:0:0:0:
24,279,89250,6,0,P|72:208|158:209,1,180,10|0,0:0|0:0,0:0:0:0:
347,73,89764,5,2,0:0:0:0:
347,73,89850,1,2,0:0:0:0:
347,73,89935,2,0,P|433:70|484:140,1,180,2|0,1:2|0:0,0:0:0:0:
360,182,90437,1,2,1:2:0:0:
426,240,90605,2,0,P|442:185|437:82,1,135,8|0,0:0|0:0,0:0:0:0:
422,80,90954,2,0,P|468:74|512:56,1,90,2|0,1:2|0:0,0:0:0:0:
400,319,91294,5,2,0:3:0:0:
329,342,91464,1,0,0:0:0:0:
281,284,91634,1,0,1:0:0:0:
357,268,91805,1,0,0:0:0:0:
239,295,91975,6,0,P|262:226|264:134,1,135,8|0,0:0|0:0,0:0:0:0:
266,164,92316,2,0,P|307:180|352:185,1,90,2|0,1:3|0:0,0:0:0:0:
504,313,92657,6,0,P|423:301|322:351,1,198.000000797272,6|0,1:2|0:0,0:0:0:0:
321,352,93169,1,0,1:0:0:0:
435,223,93339,2,0,B|442:181|442:181|431:134,1,90,8|0,0:0|0:0,0:0:0:0:
337,53,93696,6,0,L|237:71,1,90,4|0,1:0|0:0,0:0:0:0:
173,18,94031,2,0,L|273:36,1,90,2|0,0:3|0:0,0:0:0:0:
100,109,94366,2,0,B|89:156|89:156|96:197,1,90,2|0,1:2|0:0,0:0:0:0:
259,358,94705,5,10,0:0:0:0:
259,358,95045,2,0,B|265:325|265:325|255:302|255:302|262:269,1,90,2|0,0:0|0:0,0:0:0:0:
172,269,95385,6,0,L|165:228,1,40.4999987640381,0|0,1:0|0:0,0:0:0:0:
372,146,95730,2,0,L|363:185,1,40.4999987640381,2|0,0:3|1:0,0:0:0:0:
498,314,96076,5,8,0:0:0:0:
498,314,96424,2,0,L|447:303,1,40.4999987640381,2|0,1:3|0:0,0:0:0:0:
256,64,96773,5,2,0:0:0:0:
391,5,96948,1,8,0:0:0:0:
141,70,97109,5,2,1:3:0:0:
293,148,97270,1,0,0:0:0:0:
215,209,97431,5,8,0:0:0:0:
164,199,97542,5,8,3:0:0:0:
117,227,97654,5,4,3:0:0:0:
91,276,97766,5,4,3:0:0:0:
46,303,97877,1,4,3:0:0:0:
0,285,97989,1,4,3:0:0:0:
11,274,98101,6,0,P|12:237|23:190,1,58.4999973220826,4|0,1:2|0:0,0:0:0:0:
72,160,98444,2,0,P|70:100|52:24,1,116.999994644165,0|8,0:0|0:0,0:0:0:0:
0,0,98966,1,0,0:0:0:0:
155,116,99322,5,0,1:0:0:0:
186,135,99500,2,0,L|247:128,1,58.4999973220826,0|0,0:0|1:0,0:0:0:0:
337,69,99837,2,0,P|318:39|234:27,2,116.999994644165,0|10|2,0:0|0:0|0:0,0:0:0:0:
349,178,100679,5,0,0:0:0:0:
349,178,100764,1,0,0:0:0:0:
349,178,100848,2,0,B|440:184|418:239|518:230,1,175.499991966248,0|0,1:0|0:0,0:0:0:0:
358,265,101539,2,0,L|299:271,1,58.4999973220826,8|0,0:0|0:0,0:0:0:0:
452,379,101885,1,0,0:0:0:0:
427,352,102058,2,0,L|433:293,1,58.4999973220826,0|0,1:0|0:0,0:0:0:0:
483,236,102401,1,0,1:0:0:0:
483,236,102573,2,0,L|477:177,1,58.4999973220826
403,29,102919,2,0,P|393:89|403:144,1,116.999991544724,10|2,0:0|0:0,0:0:0:0:
476,97,103434,5,0,0:0:0:0:
476,97,103520,1,0,0:0:0:0:
476,97,103606,2,0,P|439:93|330:194,1,175.499991966248,0|0,1:0|0:0,0:0:0:0:
344,249,104261,1,8,0:0:0:0:
264,212,104434,2,0,P|269:267|282:313,1,87.749995983124
276,298,104782,1,0,1:0:0:0:
346,382,104952,2,0,P|352:351|354:310,1,58.4999973220826,0|0,0:0|1:0,0:0:0:0:
207,266,105286,2,0,P|201:294|198:323,1,58.4999973220826
84,378,105615,2,0,P|32:354|15:299,1,116.999994644165,10|2,0:0|0:0,0:0:0:0:
75,246,106136,5,0,0:0:0:0:
75,246,106223,1,0,0:0:0:0:
75,246,106310,2,0,P|82:191|74:130,1,116.999991544724,0|0,1:2|0:0,0:0:0:0:
133,81,106819,1,0,0:0:0:0:
9,12,106989,2,0,P|5:42|7:71,1,58.499995772362,8|0,0:0|0:0,0:0:0:0:
162,159,107496,5,0,1:0:0:0:
196,140,107673,2,0,P|225:146|259:145,1,58.4999973220826,0|0,0:0|1:0,0:0:0:0:
375,192,108020,2,0,P|430:174|488:176,1,116.999994644165,0|10,0:0|0:0,0:0:0:0:
489,177,108697,2,0,P|493:132|482:70,1,87.749995983124,2|0,0:3|0:0,0:0:0:0:
512,17,109037,6,0,P|428:26|394:103,1,175.499991966248,2|0,1:2|0:0,0:0:0:0:
393,101,109720,1,8,0:0:0:0:
489,177,109891,2,0,P|495:236|488:305,1,116.999994644165,0|0,0:0|1:0,0:0:0:0:
438,350,110405,1,0,0:0:0:0:
438,350,110578,1,0,1:0:0:0:
438,350,110741,2,0,P|417:326|412:297,1,58.4999973220826,2|0,0:0|0:0,0:0:0:0:
281,256,111067,2,0,P|291:200|338:169,1,116.999994644165,10|2,0:0|0:0,0:0:0:0:
338,330,111582,5,0,0:0:0:0:
338,330,111668,1,0,0:0:0:0:
338,330,111754,2,0,P|302:364|166:366,1,175.499991966248,2|0,1:2|0:0,0:0:0:0:
134,314,112431,2,0,P|138:270|131:201,1,87.749995983124,8|0,0:0|0:0,0:0:0:0:
141,219,112774,1,0,0:0:0:0:
78,170,112946,2,0,P|49:171|20:176,1,58.4999973220826,0|2,1:0|0:0,0:0:0:0:
64,246,113287,2,0,P|35:251|6:252,1,58.4999973220826,0|0,1:0|0:0,0:0:0:0:
230,101,113799,6,0,P|225:52|115:4,1,175.499991966248,8|0,0:0|0:0,0:0:0:0:
91,27,114405,1,0,0:0:0:0:
91,27,114492,2,0,P|87:85|93:144,1,116.999994644165,2|0,1:2|0:0,0:0:0:0:
29,190,115006,1,0,0:0:0:0:
148,239,115177,1,8,0:0:0:0:
148,239,115349,2,0,P|191:234|288:241,1,116.999994644165,0|0,0:0|1:0,0:0:0:0:
337,200,115864,6,0,P|320:178|285:163,1,58.4999973220826,2|0,0:0|1:0,0:0:0:0:
242,265,116199,2,0,P|266:319|325:336,1,116.999994644165,0|8,0:0|0:0,0:0:0:0:
512,311,116871,2,0,L|443:306,1,58.4999973220826,2|0,0:0|0:0,0:0:0:0:
415,372,117219,6,0,L|427:196,1,175.499991966248,2|0,1:2|0:0,0:0:0:0:
496,140,117893,2,0,P|505:167|512:196,1,58.4999973220826,8|0,0:0|0:0,0:0:0:0:
401,112,118227,1,0,0:0:0:0:
492,6,118394,2,0,P|482:33|475:62,1,58.4999973220826,0|2,1:0|0:0,0:0:0:0:
401,112,118754,2,0,P|391:84|384:55,1,58.4999973220826,0|0,1:0|0:0,0:0:0:0:
203,206,119251,6,0,P|168:208|132:214,1,72,10|0,0:0|0:0,0:0:0:0:
94,195,119514,1,0,0:0:0:0:
94,195,119602,2,0,P|104:142|108:88,1,108,2|0,0:3|0:0,0:0:0:0:
116,17,119954,5,4,1:0:0:0:
186,36,120122,1,0,0:0:0:0:
256,52,120291,1,2,0:3:0:0:
186,84,120459,5,0,0:0:0:0:
246,129,120628,2,0,P|318:123|395:112,1,144,8|2,0:0|0:3,0:0:0:0:
478,201,121132,2,0,P|443:193|409:182,1,72,0|0,1:0|0:0,0:0:0:0:
349,283,121462,2,0,P|345:243|336:201,1,72,0|2,1:0|0:0,0:0:0:0:
382,313,121971,6,0,P|306:326|241:343,1,144,10|0,0:0|0:0,0:0:0:0:
168,367,122480,1,0,0:0:0:0:
168,367,122565,1,0,0:0:0:0:
168,367,122650,1,2,1:2:0:0:
223,309,122819,1,0,0:0:0:0:
122,330,122989,1,2,0:3:0:0:
163,265,123159,1,0,0:0:0:0:
63,308,123329,5,8,0:0:0:0:
85,233,123499,1,0,0:0:0:0:
164,313,123669,1,2,0:3:0:0:
22,379,123840,2,0,P|10:297|-13:216,1,144,0|0,1:0|1:0,0:0:0:0:
151,186,124357,5,0,0:0:0:0:
132,114,124525,1,0,0:0:0:0:
67,151,124693,2,0,P|57:185|47:220,1,72,8|0,0:0|0:0,0:0:0:0:
274,105,125050,2,0,P|239:114|204:124,1,72,2|0,0:0|0:0,0:0:0:0:
119,160,125318,1,0,0:0:0:0:
153,192,125407,2,0,P|170:122|180:50,1,144,2|2,1:2|0:3,0:0:0:0:
347,84,125896,1,0,0:0:0:0:
325,13,126059,1,8,0:0:0:0:
305,70,126408,5,2,0:3:0:0:
305,70,126496,1,0,0:0:0:0:
305,70,126583,1,0,1:0:0:0:
365,17,126749,1,2,0:0:0:0:
339,117,126916,1,0,1:0:0:0:
409,87,127083,1,0,0:0:0:0:
508,271,127417,6,0,B|438:259|452:306|344:279,1,135,8|0,0:0|0:0,0:0:0:0:
372,290,127773,2,0,L|359:213,1,72,2|0,0:0|0:0,0:0:0:0:
309,204,128040,1,0,0:0:0:0:
267,230,128129,2,0,L|280:153,1,72,2|0,1:2|0:0,0:0:0:0:
103,53,128458,1,2,0:3:0:0:
175,57,128623,1,0,0:0:0:0:
82,147,128788,6,0,P|74:95|50:-3,1,144,8|2,0:0|0:3,0:0:0:0:
192,98,129320,1,0,1:0:0:0:
192,98,129404,1,0,0:0:0:0:
192,98,129489,1,2,0:0:0:0:
177,169,129659,1,8,0:0:0:0:
287,67,129825,1,2,0:3:0:0:
139,20,129991,1,0,1:0:0:0:
205,71,130157,5,10,0:0:0:0:
82,147,130323,1,0,1:0:0:0:
181,247,130494,1,14,0:0:0:0:
454,293,130838,6,0,P|379:294|324:242,1,155.250002961159,6|0,1:0|0:0,0:0:0:0:
323,241,131189,1,2,0:3:0:0:
353,100,131365,1,0,1:0:0:0:
198,168,131541,2,0,P|239:158|287:141,1,90,10|0,0:1|0:0,0:0:0:0:
507,232,131884,1,2,1:3:0:0:
507,232,132055,2,0,P|492:189|482:145,1,90,2|0,1:0|0:0,0:0:0:0:
369,223,132399,2,0,P|359:266|344:309,1,90,10|0,0:1|0:0,0:0:0:0:
175,343,132726,5,0,1:0:0:0:
175,343,132811,1,0,1:0:0:0:
175,343,132896,2,0,L|117:328,1,45,10|0,0:1|0:0,0:0:0:0:
0,225,133066,1,2,0:1:0:0:
43,286,133237,6,0,L|101:271,1,45,0|0,1:0|0:0,0:0:0:0:
186,125,133407,2,0,L|198:168,1,45,10|0,0:1|0:0,0:0:0:0:
85,195,133571,6,0,P|99:153|108:95,1,90,6|0,1:0|0:0,0:0:0:0:
65,74,133823,1,0,0:0:0:0:
65,74,133908,2,0,L|128:48,1,45,2|0,0:3|0:0,0:0:0:0:
211,0,134076,2,0,L|228:41,1,45,2|0,1:0|0:0,0:0:0:0:
122,339,134245,6,0,B|197:331|245:377|245:377|312:363,1,198.000006042481,10|2,0:1|1:3,0:0:0:0:
493,243,134769,5,0,1:0:0:0:
493,243,134851,1,0,0:0:0:0:
493,243,134934,2,0,L|435:228,1,45,2|0,0:1|0:0,0:0:0:0:
371,317,135100,2,0,L|383:273,1,45,10|0,0:1|0:0,0:0:0:0:
470,114,135274,6,0,L|482:157,1,45,2|0,0:3|0:0,0:0:0:0:
297,69,135448,2,0,L|341:57,1,45,2|0,1:1|0:0,0:0:0:0:
429,14,135614,6,0,L|418:57,2,45,10|0|10,0:1|0:0|0:1,0:0:0:0:
287,175,135943,2,0,P|274:109|253:41,1,135,2|0,1:3|0:0,0:0:0:0:
257,38,136268,5,6,1:0:0:0:
94,21,136442,1,0,0:0:0:0:
47,169,136616,1,2,1:3:0:0:
164,104,136791,5,0,1:0:0:0:
292,179,136963,1,10,0:1:0:0:
153,264,137135,1,0,0:0:0:0:
289,359,137308,1,2,1:3:0:0:
289,359,137480,2,0,P|245:345|203:328,1,90,2|0,1:0|0:0,0:0:0:0:
117,195,137829,6,0,L|179:176,1,45,10|0,0:1|0:0,0:0:0:0:
299,59,137992,2,0,L|280:121,1,45,2|0,0:1|0:0,0:0:0:0:
251,266,138156,6,0,L|237:222,1,45,2|0,1:0|0:0,0:0:0:0:
121,92,138324,2,0,L|163:104,1,45,10|0,0:1|0:0,0:0:0:0:
228,150,138492,5,8,0:1:0:0:
116,276,138660,1,2,1:0:0:0:
0,166,138829,1,10,0:1:0:0:
117,195,138998,6,0,B|114:276|66:339|66:339|78:380,1,198.000000797272,6|2,1:0|0:3,0:0:0:0:
179,380,139518,1,0,1:0:0:0:
235,296,139691,2,0,L|215:225,1,45,10|0,0:1|0:0,0:0:0:0:
1,166,139863,2,0,L|45:154,1,45,2|0,0:1|0:0,0:0:0:0:
165,104,140036,6,0,L|122:91,1,45,10|0,0:1|0:0,0:0:0:0:
50,71,140209,1,0,1:0:0:0:
145,182,140382,2,0,L|125:253,2,45,2|0|8,0:1|0:0|0:0,0:0:0:0:
352,298,140723,6,0,L|372:369,1,45,2|0,0:3|0:0,0:0:0:0:
164,384,140891,2,0,L|184:313,1,45,2|0,1:1|0:0,0:0:0:0:
240,179,141059,1,10,0:1:0:0:
352,298,141227,1,10,0:1:0:0:
337,199,141395,1,2,1:3:0:0:
212,267,141563,2,0,L|265:254,1,49.5000015106202,8|8,0:0|0:0,0:0:0:0:
462,138,141739,6,0,P|459:89|337:35,1,198.000006042481,6|2,1:0|0:3,0:0:0:0:
153,57,142267,1,0,1:0:0:0:
227,123,142428,2,0,P|242:73|243:18,1,90,10|0,0:1|0:0,0:0:0:0:
30,226,142774,2,0,P|16:183|12:138,1,90,2|2,0:3|1:0,0:0:0:0:
142,209,143126,5,0,0:0:0:0:
7,360,143304,1,10,0:1:0:0:
146,376,143478,6,0,L|137:325,1,45,2|0,0:1|0:0,0:0:0:0:
8,208,143652,2,0,L|0:252,1,45,2|0,1:0|0:0,0:0:0:0:
223,270,143813,6,0,P|286:263|363:202,1,135,10|0,0:1|0:0,0:0:0:0:
346,216,144137,1,2,1:0:0:0:
268,121,144298,2,0,L|275:165,1,45,8|0,0:0|0:0,0:0:0:0:
512,374,144475,6,0,P|498:286|428:206,1,198.000006042481,6|2,1:0|0:3,0:0:0:0:
399,281,145007,1,2,1:0:0:0:
499,105,145169,2,0,L|492:149,1,45,10|0,0:1|0:0,0:0:0:0:
377,23,145341,2,0,L|384:67,1,45,2|0,0:1|0:0,0:0:0:0:
492,12,145513,5,2,1:3:0:0:
299,152,145686,2,0,B|243:142|243:142|195:185|117:173,1,179.999995231629,2|8,1:0|0:0,0:0:0:0:
11,64,146195,1,2,0:3:0:0:
155,23,146365,1,0,1:0:0:0:
87,194,146535,6,0,L|94:145,1,45,10|0,0:1|0:0,0:0:0:0:
221,289,146705,2,0,L|213:244,1,45,10|0,0:1|0:0,0:0:0:0:
0,368,146875,5,2,1:3:0:0:
131,280,147040,2,0,L|87:287,1,45,10|0,0:1|0:0,0:0:0:0:
222,379,147206,6,0,B|341:373|287:327|410:321,1,198.000006042481,6|2,1:0|0:3,0:0:0:0:
512,375,147746,1,0,1:0:0:0:
376,301,147902,1,10,0:1:0:0:
497,173,148068,2,0,P|498:217|492:262,1,90,0|2,0:0|1:3,0:0:0:0:
356,121,148404,6,0,P|386:40|471:24,1,180,2|10,1:0|0:1,0:0:0:0:
512,87,148912,1,2,0:1:0:0:
394,0,149082,1,0,1:0:0:0:
194,135,149251,5,10,0:1:0:0:
340,97,149421,1,8,0:0:0:0:
260,11,149590,6,0,L|253:55,1,45,2|0,1:0|0:0,0:0:0:0:
307,181,149753,6,0,L|300:225,1,45,10|0,0:1|0:0,0:0:0:0:
351,350,149916,6,0,B|275:334|275:334|222:370|222:370|148:355,1,215.999987686158,6|2,1:0|1:3,0:0:0:0:
0,230,150443,5,10,0:1:0:0:
133,278,150618,1,2,0:3:0:0:
22,369,150794,1,2,1:0:0:0:
157,258,150950,6,0,L|148:205,1,53.9999983520508,10|0,0:1|0:0,0:0:0:0:
50,17,151120,2,0,B|10:87|10:87|49:158,1,161.999995056153,2|0,0:1|0:0,0:0:0:0:
45,168,151461,5,10,0:1:0:0:
225,35,151631,1,2,1:0:0:0:
320,161,151796,5,2,1:0:0:0:
170,107,151961,1,10,0:1:0:0:
357,30,152126,5,8,0:0:0:0:
406,9,152211,1,8,0:0:0:0:
458,16,152297,1,8,0:0:0:0:
500,49,152383,1,8,0:0:0:0:
512,99,152468,1,8,0:0:0:0:
509,152,152554,1,8,0:0:0:0:
495,165,152640,6,0,P|419:174|385:248,1,161.999995056153,6|0,1:2|0:0,0:0:0:0:
405,289,152992,2,0,L|516:279,1,107.999996704102,2|0,0:1|1:0,0:0:0:0:
341,384,153345,5,10,0:0:0:0:
297,205,153522,1,2,0:0:0:0:
165,332,153698,1,2,1:0:0:0:
267,307,153866,1,2,1:2:0:0:
71,168,154034,5,2,0:0:0:0:
94,267,154202,1,10,0:1:0:0:
167,201,154382,1,2,0:0:0:0:
1,239,154562,1,2,1:0:0:0:
236,151,154742,6,0,B|256:98|256:98|232:47,1,107.999996704102,10|0,0:1|0:0,0:0:0:0:
24,1,155075,2,0,B|4:53|4:53|26:100,1,107.999996704102,2|0,1:0|0:0,0:0:0:0:
125,48,155401,6,0,B|241:16|217:106|335:91,1,215.999993408203,6|2,1:2|1:0,0:0:0:0:
512,1,155898,1,2,1:2:0:0:
363,24,156076,5,10,0:0:0:0:
512,107,156253,1,2,0:0:0:0:
308,213,156431,5,2,1:0:0:0:
392,155,156604,1,2,1:2:0:0:
504,384,156778,6,0,P|519:304|503:225,1,161.999995056153,2|0,0:0|0:0,0:0:0:0:
503,225,157098,2,0,P|451:240|390:237,1,107.999996704102,2|0,0:1|1:0,0:0:0:0:
168,369,157418,2,2,P|94:347|8:352,1,161.999995056153,10|0,0:1|0:0,0:1:0:0:
2,360,157761,1,10,0:0:0:0:
304,374,157952,6,0,L|308:307,1,67.5000025749208,2|0,1:3|0:0,0:0:0:0:
207,9,158270,6,0,L|204:77,1,67.5000025749208,2|0,1:3|0:0,0:0:0:0:
295,172,158805,6,0,P|257:194|213:201,2,90,2|2|2,0:0|0:0|0:0,0:0:0:0:
144,163,159842,2,0,L|94:169,1,45,2|0,0:0|0:0,0:0:0:0:
47,221,160187,2,0,L|2:215,1,45,2|0,0:0|0:0,0:0:0:0:
2,215,160507,6,0,B|106:167|78:293|210:227,1,202.499993820191,6|0,1:0|0:0,0:0:0:0:
211,201,161021,1,0,0:0:0:0:
411,351,161192,6,0,P|479:358|506:282,1,135,0|0,1:0|0:0,0:0:0:0:
470,274,161515,2,0,L|382:259,1,80.9999975280763,8|0,0:0|0:0,0:0:0:0:
267,313,161856,2,0,P|284:258|292:147,1,135,2|0,0:3|0:0,0:0:0:0:
331,148,162198,1,0,1:0:0:0:
251,77,162369,1,8,0:0:0:0:
377,60,162540,6,0,L|312:75,1,45,10|0,0:1|0:0,0:0:0:0:
411,351,162877,6,0,L|346:336,1,45,10|0,0:1|0:0,0:0:0:0:
500,184,163214,6,0,L|436:194,1,45,10|0,0:1|0:0,0:0:0:0:
2,215,163569,6,0,B|97:192|52:242|169:208,1,161.999995056153,6|0,1:2|0:0,0:0:0:0:
213,230,163917,1,2,1:0:0:0:
72,122,164092,1,2,1:2:0:0:
243,115,164266,2,0,P|193:109|148:134,1,99.0000030212403,10|0,0:0|0:0,0:0:0:0:
334,195,164625,6,0,P|417:188|457:260,1,175.499991966248,2|0,1:0|0:0,0:0:0:0:
493,296,164964,1,2,1:2:0:0:
336,358,165134,1,10,0:0:0:0:
218,233,165304,1,2,0:1:0:0:
354,279,165474,1,2,1:2:0:0:
199,311,165644,2,0,P|153:303|79:293,1,99.0000030212403,10|0,0:1|0:0,0:0:0:0:
41,99,165990,2,0,P|34:148|25:196,1,99.0000030212403,2|8,1:0|0:0,0:0:0:0:
192,135,166302,5,6,1:2:0:0:
345,52,166477,1,10,0:0:0:0:
278,172,166653,2,0,P|270:107|267:1,1,148.50000453186,2|0,1:1|0:0,0:0:0:0:
266,24,166990,2,0,P|218:32|154:37,1,99.0000030212403,10|0,0:0|0:0,0:0:0:0:
24,196,167336,1,2,1:0:0:0:
152,263,167498,1,10,0:0:0:0:
113,175,167661,1,2,1:2:0:0:
58,289,167841,1,10,0:0:0:0:
231,199,168021,2,0,P|279:207|343:212,1,99.0000030212403,2|0,1:0|1:0,0:0:0:0:
502,259,168332,6,2,B|440:265|440:265|417:292|417:292|323:299,1,161.999995056153,10|0,0:1|0:0,0:1:0:0:
322,340,168668,1,10,0:1:0:0:
138,265,168836,2,0,B|127:219|127:219|147:155,1,90,2|0,1:3|0:0,0:0:0:0:
222,229,169166,1,2,1:3:0:0:
222,229,169692,6,0,P|217:291|201:375,1,135,10|0,0:1|0:0,0:0:0:0:
204,362,170054,1,8,0:0:0:0:
382,184,170218,2,0,L|437:173,1,36,2|0,1:3|0:0,0:0:0:0:
228,95,170561,2,0,L|217:40,1,36,2|0,1:3|0:0,0:0:0:0:
391,289,171078,5,10,0:0:0:0:
512,225,171453,6,0,B|473:224|446:201|446:201|394:272|308:256,1,229.500004377365,4|0,1:0|0:0,0:0:0:0:
133,340,172106,6,0,B|76:352|76:352|20:306,1,114.750002188683,0|0,1:0|0:0,0:0:0:0:
14,268,172433,1,8,0:0:0:0:
183,199,172767,6,0,P|177:122|178:68,1,114.750002188683
135,61,173101,1,0,1:0:0:0:
92,177,173275,2,0,P|52:179|-1:185,1,76.5000014591217,8|2,0:0|1:2,0:0:0:0:
266,184,173786,6,0,P|256:262|254:334,1,114.750002188683,10|0,0:0|0:0,0:0:0:0:
254,298,174129,2,0,L|354:309,1,76.5000014591217,2|0,1:2|0:0,0:0:0:0:
498,242,174473,2,0,L|394:249,1,87.749995983124,4|0,1:0|0:0,0:0:0:0:
375,214,174848,1,0,1:0:0:0:
45,51,175166,6,0,P|79:155|188:143,1,236.250009012223,10|0,0:0|0:0,0:0:0:0:
219,101,175861,5,10,0:0:0:0:
200,35,176201,5,10,0:0:0:0:
122,23,176542,5,0,0:0:0:0:
96,125,176888,6,0,P|92:212|78:328,1,202.500007724762,6|0,1:2|0:0,0:0:0:0:
128,360,177549,1,0,1:0:0:0:
359,269,177879,6,0,L|449:279,1,67.5000025749208,8|0,0:0|0:0,0:0:0:0:
358,224,178226,2,0,L|268:234,1,67.5000025749208
166,195,178574,1,0,1:0:0:0:
143,273,178748,1,8,0:0:0:0:
224,293,178913,2,0,P|213:235|210:141,1,135.000005149842,0|10,1:0|0:0,0:0:0:0:
81,92,179595,1,2,1:2:0:0:
19,148,179933,2,0,P|31:80|37:2,2,135.000005149842,6|0|10,1:2|1:0|0:0,0:0:0:0:
231,87,180967,5,4,3:0:0:0:
279,68,181082,5,8,3:0:0:0:
327,90,181198,5,8,0:0:0:0:
345,140,181313,5,10,0:0:0:0:
254,195,181648,5,8,3:0:0:0:
149,122,181986,5,4,3:0:0:0:
23,208,182325,6,0,P|47:334|171:360,1,270.000010299683,4|0,1:0|1:0,0:0:0:0:
328,229,183337,1,8,0:0:0:0:
264,336,183681,2,0,P|255:303|252:269,1,67.5000025749208
226,241,183940,1,0,0:0:0:0:
226,241,184026,2,0,P|234:208|237:174,1,67.5000025749208,0|8,1:0|0:0,0:0:0:0:
378,321,184368,2,0,P|445:314|510:298,2,135.000005149842,0|8|0,1:0|0:0|1:0,0:0:0:0:
169,112,185385,6,0,P|101:105|36:89,1,135.000005149842,4|0,1:0|1:0,0:0:0:0:
312,18,186072,1,10,0:0:0:0:
36,89,186417,2,0,P|69:81|103:78,1,67.5000025749208,2|0,1:3|0:0,0:0:0:0:
282,112,186755,5,8,0:0:0:0:
326,150,186869,5,8,0:0:0:0:
384,157,186984,5,8,0:0:0:0:
438,138,187098,5,8,3:0:0:0:
464,99,187213,1,4,3:0:0:0:
456,58,187328,1,4,3:0:0:0:
473,36,187442,1,4,3:0:0:0:
490,14,187780,6,0,P|484:82|477:283,1,270.000010299683,6|0,1:2|1:0,0:0:0:0:
252,380,188773,2,0,P|258:313|258:238,1,135.000005149842,8|0,0:0|0:0,0:0:0:0:
383,345,189297,5,0,0:0:0:0:
391,352,189385,1,0,0:0:0:0:
391,352,189472,2,0,P|442:360|467:363,1,67.5000025749208,2|8,1:2|0:0,0:0:0:0:
343,322,189822,2,0,P|376:316|409:312,1,67.5000025749208,2|0,1:2|0:0,0:0:0:0:
276,372,190141,5,10,0:0:0:0:
464,234,190488,5,10,0:0:0:0:
222,136,190836,6,0,B|93:97|107:198|-27:176,1,233.999989288331,6|2,1:2|0:3,0:0:0:0:
0,179,192206,2,0,P|24:84|117:53,1,204.749990627289,4|0,1:0|0:0,0:0:0:0:
182,9,192893,5,8,0:0:0:0:
205,53,193005,5,8,0:0:0:0:
182,98,193117,5,8,0:0:0:0:
226,134,193229,5,8,0:0:0:0:
194,187,193341,5,8,0:0:0:0:
238,230,193453,5,8,0:0:0:0:
214,287,193565,6,0,P|278:293|420:313,1,198.000006042481,6|0,1:2|0:0,0:0:0:0:
500,244,194083,1,0,1:0:0:0:
353,376,194256,2,0,P|330:332|332:283,1,99.0000030212403,8|0,0:0|0:0,0:0:0:0:
400,130,194609,2,0,P|422:173|420:222,1,99.0000030212403,6|0,1:0|0:0,0:0:0:0:
231,136,194946,6,0,P|234:42|319:2,1,198.000006042481,2|0,0:3|1:0,0:0:0:0:
406,53,195452,1,0,0:0:0:0:
505,0,195621,2,0,P|501:49|496:98,1,99.0000030212403,10|0,0:0|0:0,0:0:0:0:
328,118,195970,2,0,P|377:153|413:177,1,99.0000030212403,2|0,0:0|0:0,0:0:0:0:
512,263,196320,6,0,B|405:239|421:310|298:287,1,198.000006042481,2|0,1:2|0:0,0:0:0:0:
233,242,196814,1,2,1:2:0:0:
243,324,196979,1,8,0:0:0:0:
310,204,197157,1,0,0:0:0:0:
143,367,197335,6,0,P|53:335|33:242,1,198.000006042481,2|2,1:2|0:3,0:0:0:0:
33,242,197837,1,0,0:0:0:0:
117,148,198002,2,0,P|134:194|139:243,1,99.0000030212403,0|0,1:0|0:0,0:0:0:0:
23,59,198346,2,0,P|5:105|0:154,1,99.0000030212403,8|0,0:0|0:0,0:0:0:0:
206,81,198691,2,0,P|170:49|119:34,1,99.0000030212403,2|8,1:3|0:0,0:0:0:0:
384,176,199037,6,0,P|454:162|483:15,1,198.000006042481,6|0,1:2|0:0,0:0:0:0:
307,50,199548,1,0,1:0:0:0:
380,0,199718,2,0,P|388:49|382:112,1,99.0000030212403,8|0,0:0|0:0,0:0:0:0:
278,246,200079,2,0,P|274:196|282:147,1,99.0000030212403,4|0,1:0|0:0,0:0:0:0:
495,314,200408,2,0,P|453:341|407:358,1,99.0000030212403,2|0,0:3|0:0,0:0:0:0:
371,175,200738,5,2,1:2:0:0:
447,240,200903,1,2,0:0:0:0:
313,340,201068,2,0,B|206:315|226:369|101:343,1,198.000006042481,10|0,0:0|0:0,0:0:0:0:
0,290,201579,5,2,0:0:0:0:
0,290,201664,1,2,0:0:0:0:
0,290,201749,2,0,P|18:335|24:384,1,99.0000030212403,0|0,1:0|0:0,0:0:0:0:
148,241,202089,2,0,P|99:234|53:215,1,99.0000030212403,2|0,0:3|1:0,0:0:0:0:
117,346,202430,1,8,0:0:0:0:
117,346,202610,1,0,0:0:0:0:
32,188,202791,6,0,P|57:105|141:85,1,180,2|0,1:3|0:0,0:0:0:0:
209,127,203291,1,8,0:0:0:0:
314,13,203457,5,2,0:3:0:0:
211,47,203624,1,0,1:0:0:0:
238,250,203791,5,8,0:0:0:0:
291,96,203964,1,8,0:0:0:0:
490,185,204138,5,10,3:0:0:0:
422,94,204312,1,4,3:0:0:0:
506,270,204486,6,0,B|469:275|438:252|438:252|391:296|317:270,1,198.000006042481,6|0,1:2|0:0,0:0:0:0:
320,270,204995,1,0,1:0:0:0:
193,377,205165,2,0,P|235:360|299:347,1,99.0000030212403,8|0,0:0|0:0,0:0:0:0:
355,194,205528,2,0,P|338:142|333:96,1,99.0000030212403,6|0,1:0|0:0,0:0:0:0:
125,209,205863,6,0,P|173:221|223:225,1,99.0000030212403,2|0,0:3|0:0,0:0:0:0:
387,15,206198,2,0,P|277:21|238:72,2,179.999995231629,2|10|0,1:2|0:0|0:0,0:0:0:0:
333,97,207038,1,0,0:0:0:0:
479,239,207206,2,0,P|413:226|343:186,1,135,2|0,1:2|0:0,0:0:0:0:
353,194,207540,2,0,P|321:258|290:286,1,90,0|0,0:0|1:0,0:0:0:0:
54,279,207874,5,8,0:0:0:0:
233,361,208052,1,2,0:0:0:0:
36,358,208230,2,0,P|96:293|184:297,1,180,2|2,1:2|0:3,0:0:0:0:
182,296,208730,1,8,0:0:0:0:
280,166,208896,2,0,P|239:181|170:191,1,90,0|0,1:0|0:0,0:0:0:0:
42,40,209240,2,0,P|50:84|65:126,1,90,8|0,0:0|0:0,0:0:0:0:
184,71,209582,5,2,1:3:0:0:
6,216,209759,1,2,0:0:0:0:
6,216,209848,1,2,0:0:0:0:
6,216,209937,2,0,P|62:151|169:158,1,198.000006042481,6|0,1:2|0:0,0:0:0:0:
350,297,210454,1,0,1:0:0:0:
229,365,210626,2,0,P|238:316|255:269,1,99.0000030212403,8|0,0:0|0:0,0:0:0:0:
107,229,210989,6,0,P|116:272|131:315,1,90,4|0,1:0|0:0,0:0:0:0:
401,157,211317,2,0,P|335:143|274:114,1,135,2|0,0:3|0:0,0:0:0:0:
193,190,211646,2,0,P|236:175|280:166,1,90,2|0,1:2|0:0,0:0:0:0:
430,253,211975,6,0,P|442:337|350:382,1,198.000006042481,10|0,0:0|0:0,0:0:0:0:
352,382,212489,1,2,0:0:0:0:
233,283,212660,2,0,P|281:293|329:309,1,99.0000030212403,0|0,1:0|0:0,0:0:0:0:
484,217,212996,2,0,P|467:170|456:122,1,99.0000030212403,0|0,0:0|1:0,0:0:0:0:
456,122,213248,1,0,0:0:0:0:
456,122,213332,2,0,P|438:204|402:280,1,148.50000453186,8|0,0:0|0:0,0:0:0:0:
375,329,213674,6,0,L|303:343,1,45,2|0,1:2|0:0,0:0:0:0:
182,367,213842,1,2,1:2:0:0:
95,251,214010,5,2,0:0:0:0:
243,315,214178,1,8,0:0:0:0:
356,210,214346,5,2,0:3:0:0:
186,257,214514,1,0,1:0:0:0:
47,181,214682,2,0,P|72:108|93:16,1,135,8|0,0:0|0:0,0:0:0:0:
86,51,215015,6,0,L|100:123,1,45,10|0,0:0|0:0,0:0:0:0:
157,144,215186,2,0,L|229:130,1,45,2|0,0:0|0:0,0:0:0:0:
398,146,215358,5,6,1:2:0:0:
279,118,215534,1,0,0:0:0:0:
205,210,215710,1,0,0:0:0:0:
330,241,215887,1,0,1:0:0:0:
277,190,216063,1,8,0:0:0:0:
285,305,216407,5,6,1:0:0:0:
404,257,216574,1,0,1:0:0:0:
330,241,216741,1,2,0:3:0:0:
388,351,216908,1,8,0:0:0:0:
486,263,217075,2,0,P|475:186|467:104,1,135,2|0,0:0|0:0,0:0:0:0:
396,113,217434,2,0,P|407:69|414:20,1,90,10|0,0:0|0:0,0:0:0:0:
274,167,217777,2,0,P|266:122|254:79,1,90,2|0,1:2|0:0,0:0:0:0:
202,16,218110,5,4,1:0:0:0:
329,58,218281,1,0,0:0:0:0:
195,156,218452,1,0,0:0:0:0:
80,88,218624,1,0,1:0:0:0:
167,86,218795,6,0,P|153:152|133:216,1,135,8|0,0:0|0:0,0:0:0:0:
67,253,219143,2,0,P|89:297|104:343,1,90,12|0,0:0|1:0,0:0:0:0:
252,368,219482,1,0,0:0:0:0:
345,257,219652,1,8,0:0:0:0:
214,211,219822,1,2,0:0:0:0:
319,330,219992,5,0,1:0:0:0:
437,237,220162,1,10,0:0:0:0:
292,192,220337,1,0,0:0:0:0:
191,298,220512,1,2,1:2:0:0:
357,255,220849,5,4,1:2:0:0:
489,310,221018,1,8,0:0:0:0:
462,162,221187,1,0,0:0:0:0:
437,237,221356,1,0,1:0:0:0:
401,114,221525,1,8,0:0:0:0:
401,114,221863,5,4,1:0:0:0:
512,46,222032,1,0,1:0:0:0:
417,22,222202,1,2,0:3:0:0:
494,133,222372,1,8,0:0:0:0:
364,185,222542,6,0,P|349:83|345:32,1,135,2|0,0:0|0:0,0:0:0:0:
298,88,222882,2,0,P|310:27|317:-31,1,90,10|0,0:0|0:0,0:0:0:0:
192,147,223237,2,0,P|242:154|291:163,1,90,2|0,1:2|0:0,0:0:0:0:
164,222,223577,1,4,1:0:0:0:
63,133,223745,1,8,0:0:0:0:
27,267,223913,1,0,0:0:0:0:
83,211,224081,1,0,1:0:0:0:
4,190,224249,1,8,0:0:0:0:
4,190,224570,5,12,0:0:0:0:
76,262,224743,1,0,1:0:0:0:
133,186,224917,1,0,0:0:0:0:
56,165,225091,5,8,0:0:0:0:
28,234,225265,1,2,0:0:0:0:
101,226,225439,1,0,1:0:0:0:
181,291,225613,1,10,0:0:0:0:
181,291,225968,2,0,P|174:335|165:379,1,76.5000014591217,2|8,1:2|0:0,0:0:0:0:
323,233,226312,6,0,P|402:248|482:261,1,161.999995056153,6|0,1:2|0:0,0:0:0:0:
512,156,226830,1,0,1:0:0:0:
441,179,227003,1,8,0:0:0:0:
410,294,227332,6,0,P|412:332|423:392,1,80.9999975280763,4|0,1:0|1:0,0:0:0:0:
320,217,227670,2,0,P|302:250|282:308,1,80.9999975280763,2|8,0:3|0:0,0:0:0:0:
281,103,228008,2,0,P|249:123|202:163,1,80.9999975280763,2|0,0:0|1:0,0:0:0:0:
101,236,228346,6,0,P|27:207|2:133,1,161.999995056153,10|2,0:0|1:2,0:0:0:0:
2,133,228872,1,0,0:0:0:0:
74,7,229038,2,0,P|84:59|97:97,1,80.9999975280763,4|0,1:0|0:0,0:0:0:0:
92,85,229373,1,0,0:0:0:0:
177,24,229540,1,8,0:0:0:0:
262,89,229708,2,0,P|273:50|280:10,1,80.9999975280763,0|0,0:0|1:0,0:0:0:0:
178,182,230043,6,0,P|163:261|177:340,2,161.999995056153,12|0|2,0:0|0:0|0:0,0:0:0:0:
247,224,230885,1,0,1:0:0:0:
363,193,231054,1,10,0:0:0:0:
287,150,231235,1,0,0:0:0:0:
319,260,231417,1,2,1:2:0:0:
485,353,231758,6,0,B|475:276|519:293|504:213,1,144,4|0,1:2|0:0,0:0:0:0:
487,110,232281,2,0,P|420:128|402:195,1,144,10|0,0:0|0:0,0:0:0:0:
488,199,232785,1,12,0:1:0:0:
334,99,233122,6,0,P|328:63|327:27,1,72,2|8,0:3|0:0,0:0:0:0:
208,121,233459,2,0,P|241:134|273:151,1,72,2|0,0:0|1:0,0:0:0:0:
251,0,233796,2,0,P|222:22|192:41,1,72,10|8,0:0|0:0,0:0:0:0:
38,87,234130,2,0,P|32:51|31:15,1,72,2|8,1:2|0:0,0:0:0:0:
110,138,234464,6,0,P|99:207|27:230,1,144,4|0,1:0|1:0,0:0:0:0:
35,231,234962,1,8,0:0:0:0:
148,308,235128,1,0,0:0:0:0:
148,308,235461,6,0,P|156:353|158:391,1,72,12|0,0:0|0:0,0:0:0:0:
190,220,235788,2,0,P|219:254|240:286,1,72,0|0,1:0|0:0,0:0:0:0:
50,290,236145,2,0,P|70:260|94:233,1,72,10|0,0:0|0:0,0:0:0:0:
251,366,236502,6,0,B|334:359|310:335|390:331,1,144,2|8,1:2|3:0,0:0:0:0:
467,348,237026,1,4,3:0:0:0:
377,243,237201,2,0,P|371:180|377:118,1,125.999996154785,6|0,1:2|0:0,0:0:0:0:
441,78,237713,1,0,1:0:0:0:
503,123,237884,1,8,0:0:0:0:
256,192,238256,5,4,1:0:0:0:
222,161,238594,6,0,P|168:168|100:167,1,107.999996704102,2|2,0:3|0:0,0:0:0:0:
24,244,239101,1,0,1:0:0:0:
24,244,239270,2,0,L|35:188,1,53.9999983520508,10|0,0:0|0:0,0:0:0:0:
111,217,239598,2,0,L|117:277,1,53.9999983520508,2|8,0:0|0:0,0:0:0:0:
231,347,239927,6,0,P|276:357|343:328,1,107.999996704102,4|0,1:0|0:0,0:0:0:0:
415,306,240439,1,8,0:0:0:0:
424,282,240610,2,0,P|418:237|412:224,1,53.9999983520508,0|0,0:0|1:0,0:0:0:0:
338,186,240952,2,0,P|311:187|285:195,1,53.9999983520508,12|0,0:0|0:0,0:0:0:0:
211,245,241295,1,0,0:0:0:0:
147,272,241639,1,2,0:0:0:0:
73,262,241983,1,10,0:0:0:0:
24,204,242338,1,8,3:0:0:0:
24,204,242693,6,0,P|29:163|31:120,1,72,4|0,1:2|0:0,0:0:0:0:
101,110,243197,1,8,0:0:0:0:
101,110,243365,2,0,L|93:72,1,36,0|0,0:0|1:0,0:0:0:0:
146,23,243701,2,0,L|138:58,1,36,12|0,0:1|0:0,0:0:0:0:
196,117,244033,6,0,P|249:127|302:126,1,108
400,78,244698,2,0,L|365:85,1,36,8|0,0:0|0:0,0:0:0:0:
438,128,245038,2,0,L|480:134,1,36,0|8,1:0|0:0,0:0:0:0:
509,198,245379,1,4,1:0:0:0:
473,211,245705,1,0,0:0:0:0:
434,210,246031,1,0,0:0:0:0:
397,199,246357,1,12,0:0:0:0:
397,199,246701,6,0,L|362:194,1,36,0|8,0:0|0:0,0:0:0:0:
317,164,247046,2,0,L|309:202,1,36,0|0,0:0|1:0,0:0:0:0:
265,239,247391,2,0,P|230:242|190:253,1,72,8|8,0:0|3:0,0:0:0:0:
144,272,248098,1,4,1:0:0:0:
256,192,248183,12,0,259007,0:0:0:0:
