osu file format v14

[General]
AudioFilename: audio.mp3
AudioLeadIn: 0
PreviewTime: 21140
Countdown: 0
SampleSet: Soft
StackLeniency: 0.7
Mode: 0
LetterboxInBreaks: 0
WidescreenStoryboard: 0

[Editor]
Bookmarks: 175439
DistanceSpacing: 1.3
BeatDivisor: 4
GridSize: 4
TimelineZoom: 1.6

[Metadata]
Title:Kyuuen no Hana
TitleUnicode:久遠の花
Artist:556t
ArtistUnicode:556t
Creator:Kyubey
Version:Lunatic
Source:東方花映塚 ~ Phantasmagoria of Flower View.
Tags:ryuu kite neonat 東方project 今昔幻想郷 ~ Flower Land Touhou project 9 Phantasmagoria of Flower View Kazami Yuuka 回路-kairo- kairo reitasai 7 例大祭7 comiket 81 c81 風見 幽香
BeatmapID:1033514
BeatmapSetID:484497

[Difficulty]
HPDrainRate:7
CircleSize:4
OverallDifficulty:8
ApproachRate:8
SliderMultiplier:1.8
SliderTickRate:1

[Events]
//Background and Video events
0,0,"png.jpg",0,0
//Break Periods
//Storyboard Layer 0 (Background)
//Storyboard Layer 1 (Fail)
//Storyboard Layer 2 (Pass)
//Storyboard Layer 3 (Foreground)
//Storyboard Layer 4 (Overlay)
//Storyboard Sound Samples

[TimingPoints]
21776.2023473773,365.853658536585,3,1,1,60,1,0
39337,-166.666666666667,3,2,1,40,0,0
56898,-133.333333333333,3,2,1,45,0,0
72629,-117.647058823529,3,2,1,50,0,0
72995,-105.263157894737,3,2,1,60,0,0
74459,-90.9090909090909,3,1,1,60,0,1
81044,-90.9090909090909,3,1,1,60,0,0
83239,-90.9090909090909,3,1,1,60,0,1
89824,-90.9090909090909,3,2,1,50,0,0
94215,-125,3,2,1,50,0,0
98605,-111.111111111111,3,2,1,50,0,0
102995,-100,3,2,1,50,0,0
124581,-133.333333333333,3,2,1,50,0,0
124946,-90.9090909090909,3,1,1,50,0,0
140312,-100,3,2,1,30,0,0
142507,-90.9090909090909,3,1,1,60,0,1
149093,-90.9090909090909,3,1,1,60,0,0
151288,-90.9090909090909,3,1,1,60,0,1
157873,-90.9090909090909,3,1,1,60,0,0
158971,-90.9090909090909,3,1,1,60,0,1
159062,-90.9090909090909,3,1,1,60,0,0
160068,-80,3,1,1,67,0,1
166654,-80,3,1,1,67,0,0
167751,-80,3,1,1,67,0,1
167843,-80,3,1,1,67,0,0
168849,-80,3,1,1,67,0,1
175526,-80,3,2,1,20,0,0

[Colours]
Combo1 : 17,254,176
Combo2 : 173,255,95
Combo3 : 255,88,100
Combo4 : 255,94,55

[HitObjects]
188,104,21776,5,4,0:0:0:0:
244,240,21959,1,0,1:0:0:0:
392,140,22142,2,0,P|338:146|280:164,1,90,4|0,0:2|2:0,0:0:0:0:
155,224,22507,2,0,P|208:230|267:248,1,90,4|0,0:2|2:0,0:0:0:0:
388,288,22873,5,4,0:0:0:0:
456,176,23056,1,0,1:0:0:0:
392,50,23239,2,0,P|388:94|400:174,1,90,2|0,0:3|2:0,0:0:0:0:
316,336,23605,2,0,P|312:291|324:212,1,90,2|0,0:3|2:0,0:0:0:0:
428,284,23971,5,4,0:0:0:0:
128,348,24154,1,0,0:0:0:0:
128,348,24520,1,8,0:0:0:0:
172,264,24703,1,0,0:0:0:0:
220,348,24885,1,8,0:0:0:0:
68,264,25068,5,4,0:0:0:0:
160,44,25251,1,0,0:0:0:0:
160,44,25617,1,8,0:0:0:0:
160,44,25709,1,8,0:0:0:0:
160,44,25800,1,8,0:0:0:0:
136,224,25983,1,8,0:0:0:0:
136,224,26074,1,8,0:0:0:0:
136,224,26166,5,12,0:0:0:0:
272,280,26349,1,0,1:0:0:0:
432,228,26532,2,0,P|432:180|424:128,1,90,4|0,0:2|2:0,0:0:0:0:
316,40,26898,2,0,P|316:88|324:140,1,90,4|0,0:2|2:0,0:0:0:0:
432,228,27264,5,4,0:0:0:0:
484,348,27446,1,0,1:0:0:0:
308,328,27629,2,0,L|204:312,1,90,2|0,0:3|2:0,0:0:0:0:
152,204,27995,2,0,L|48:188,1,90,2|0,0:3|2:0,0:0:0:0:
28,92,28361,5,4,0:0:0:0:
304,44,28544,1,0,0:0:0:0:
304,44,28910,1,8,0:0:0:0:
388,72,29093,1,0,0:0:0:0:
472,100,29276,1,8,0:0:0:0:
304,44,29459,5,4,0:0:0:0:
344,296,29642,1,0,0:0:0:0:
344,296,30007,1,8,0:0:0:0:
308,284,30099,1,8,0:0:0:0:
272,272,30190,1,8,0:0:0:0:
144,352,30373,1,8,0:0:0:0:
117,324,30465,1,8,0:0:0:0:
91,297,30556,5,12,0:0:0:0:
64,160,30739,1,0,1:0:0:0:
168,52,30922,2,0,L|192:168,1,90,4|0,0:2|2:0,0:0:0:0:
288,0,31288,2,0,L|268:128,1,90,4|0,0:2|2:1,0:0:0:0:
224,252,31654,5,4,0:0:0:0:
380,288,31837,1,0,0:0:0:0:
448,172,32020,2,0,L|344:204,1,90,2|0,0:3|2:1,0:0:0:0:
376,372,32385,2,0,L|272:340,1,90,2|0,0:3|2:1,0:0:0:0:
200,368,32751,5,0,0:0:0:0:
200,68,32934,1,0,0:0:0:0:
200,68,33300,1,8,0:0:0:0:
200,168,33483,1,0,0:0:0:0:
200,268,33666,1,8,0:0:0:0:
308,224,33849,5,0,0:0:0:0:
24,224,34032,1,0,0:0:0:0:
24,224,34398,1,8,0:0:0:0:
128,328,34581,1,8,0:0:0:0:
156,289,34672,1,8,0:0:0:0:
160,240,34764,1,8,0:0:0:0:
136,198,34855,1,8,0:0:0:0:
89,180,34946,5,12,0:0:0:0:
40,64,35129,1,0,0:0:0:0:
208,120,35312,2,0,P|163:113|104:112,1,90,4|0,1:2|2:0,0:0:0:0:
280,76,35678,2,0,P|324:69|384:68,1,90,4|0,0:2|2:0,0:0:0:0:
208,36,36044,5,4,0:0:0:0:
284,164,36227,1,0,0:0:0:0:
176,260,36410,2,0,P|218:254|308:252,1,90,2|0,0:3|2:0,0:0:0:0:
373,172,36776,2,0,P|330:166|241:164,1,90,2|0,0:3|2:0,0:0:0:0:
176,260,37142,5,4,0:0:0:0:
441,336,37324,1,0,0:0:0:0:
405,256,37507,1,0,0:0:0:0:
353,324,37690,1,8,2:1:0:0:
493,264,37873,1,0,0:0:0:0:
373,172,38056,1,8,2:1:0:0:
512,144,38239,5,4,0:0:0:0:
353,324,38422,1,0,0:0:0:0:
284,252,38605,1,8,0:0:0:0:
288,152,38788,1,0,0:0:0:0:
352,80,38971,2,0,P|401:72|460:76,1,90,8|0,0:0|2:0,0:0:0:0:
224,44,39337,5,4,3:2:0:0:
204,56,39885,1,0,3:0:0:0:
184,68,40434,2,0,L|172:192,1,107.999996704102,0|0,3:0|0:0,0:0:0:0:
72,252,41166,1,0,1:0:0:0:
216,264,41532,1,0,3:0:0:0:
284,304,41715,1,0,0:0:0:0:
360,292,41898,2,0,P|384:284|436:276,1,53.9999983520508,0|0,0:0|3:0,0:0:0:0:
484,312,42264,2,0,P|488:281|496:244,1,53.9999983520508
432,204,42629,2,0,P|430:151|432:96,2,107.999996704102,0|0|0,1:0|0:0|0:0,0:0:0:0:
492,258,43544,1,0,3:0:0:0:
416,360,43727,6,2,P|362:354|296:348,1,107.999996704102,0|0,3:3|0:0,0:0:0:0:
248,304,44276,1,0,3:0:0:0:
248,304,44459,2,0,P|218:311|188:328,1,53.9999983520508,0|0,0:0|3:0,0:0:0:0:
88,368,44824,2,0,P|96:304|88:240,1,107.999996704102,0|0,1:0|0:0,0:0:0:0:
20,152,45373,1,0,0:0:0:0:
100,172,45556,1,0,0:0:0:0:
176,140,45739,1,0,3:0:0:0:
280,80,45922,2,0,L|220:72,1,53.9999983520508,0|0,3:0|0:0,0:0:0:0:
384,44,46288,1,0,0:0:0:0:
384,44,46471,2,0,L|332:24,1,53.9999983520508,0|0,3:0|0:0,0:0:0:0:
360,156,46837,1,0,3:0:0:0:
408,264,47020,6,0,P|432:284|468:304,1,53.9999983520508,0|0,1:0|0:0,0:0:0:0:
272,240,47385,2,0,P|272:271|279:311,1,53.9999983520508
232,112,47751,2,2,P|191:113|120:140,1,107.999996704102,0|0,0:0|3:0,0:0:0:0:
108,128,48666,5,4,3:0:0:0:
88,124,49215,2,0,L|104:248,1,107.999996704102,4|0,3:0|0:0,0:0:0:0:
20,348,49946,1,0,1:0:0:0:
101,231,50312,1,0,3:0:0:0:
172,272,50495,1,0,0:0:0:0:
168,188,50678,2,0,P|165:157|160:120,1,53.9999983520508,0|0,0:0|3:0,0:0:0:0:
204,64,51044,2,0,P|174:58|136:54,1,53.9999983520508
260,152,51410,2,0,P|316:147|376:140,2,107.999996704102,0|0|0,1:0|0:0|0:0,0:0:0:0:
244,76,52324,1,0,3:0:0:0:
316,228,52507,6,2,P|316:280|312:340,1,107.999996704102,0|0,3:0|0:0,0:0:0:0:
400,312,53056,1,0,3:0:0:0:
400,312,53239,2,0,P|424:305|472:300,1,53.9999983520508,0|0,0:0|3:0,0:0:0:0:
396,204,53605,2,0,P|389:152|388:88,1,107.999996704102,0|0,1:0|0:0,0:0:0:0:
468,60,54154,1,0,0:0:0:0:
387,96,54337,1,0,0:0:0:0:
308,80,54520,1,0,3:0:0:0:
184,24,54703,2,0,P|189:75|200:136,1,107.999996704102,0|0,3:0|0:0,0:0:0:0:
108,100,55251,1,0,3:0:0:0:
108,200,55434,1,0,0:0:0:0:
192,256,55617,1,0,3:0:0:0:
288,228,55800,5,0,1:0:0:0:
192,256,55983,1,0,0:0:0:0:
140,340,56166,1,0,0:0:0:0:
288,380,56349,5,8,3:1:0:0:
288,228,56532,1,8,3:1:0:0:
180,120,56715,1,8,3:1:0:0:
28,108,56898,6,2,P|70:103|144:48,1,135.000005149842,0|0,3:0|0:0,0:0:0:0:
244,8,57446,1,0,0:0:0:0:
244,8,57629,2,0,P|237:50|240:88,1,67.5000025749208,0|8,0:0|0:1,0:0:0:0:
320,172,57995,1,0,3:0:0:0:
352,8,58361,1,0,0:0:0:0:
396,92,58544,1,0,3:0:0:0:
488,116,58727,1,0,0:0:0:0:
460,24,58910,1,8,0:1:0:0:
424,184,59093,6,0,P|427:219|433:259,1,67.5000025749208,0|0,3:0|0:0,0:0:0:0:
420,364,59459,2,0,P|388:361|324:360,1,67.5000025749208,0|0,0:0|3:0,0:0:0:0:
264,288,59824,1,0,0:0:0:0:
220,376,60007,1,8,0:1:0:0:
352,360,60190,2,0,P|352:292|340:212,2,135.000005149842,0|0|0,3:0|0:0|0:0,0:0:0:0:
220,376,61105,1,8,0:1:0:0:
80,324,61288,6,2,P|76:260|76:182,1,135.000005149842,0|0,3:0|0:0,0:0:0:0:
148,96,61837,1,0,3:0:0:0:
148,96,62020,2,0,P|150:134|148:192,1,67.5000025749208,0|8,0:0|0:1,0:0:0:0:
220,272,62385,2,0,P|298:266|376:264,1,135.000005149842,0|0,3:0|0:0,0:0:0:0:
440,156,62934,1,0,3:0:0:0:
348,184,63117,1,0,0:0:0:0:
256,164,63300,1,8,0:1:0:0:
440,156,63483,6,0,P|456:210|464:240,1,67.5000025749208,0|0,3:0|0:0,0:0:0:0:
368,92,63849,1,0,0:0:0:0:
368,92,64032,2,0,P|369:59|376:20,1,67.5000025749208,0|0,3:0|0:0,0:0:0:0:
440,156,64398,1,8,0:1:0:0:
308,180,64581,5,0,3:0:0:0:
260,92,64764,1,0,3:0:0:0:
292,4,64946,1,0,3:0:0:0:
368,92,65129,5,8,3:1:0:0:
416,220,65312,1,8,3:1:0:0:
396,356,65495,1,8,3:1:0:0:
232,320,65678,6,2,P|184:316|104:360,1,135.000005149842,0|0,3:0|0:0,0:0:0:0:
104,212,66227,1,0,3:0:0:0:
104,212,66410,2,0,P|91:245|80:284,1,67.5000025749208,0|8,0:0|0:1,0:0:0:0:
224,208,66776,2,0,P|222:176|216:136,1,67.5000025749208,0|0,3:0|3:0,0:0:0:0:
168,68,67142,1,0,0:0:0:0:
364,84,67507,1,0,0:0:0:0:
448,36,67690,1,8,0:1:0:0:
424,156,67873,6,0,P|420:196|420:248,1,67.5000025749208,0|0,3:0|0:0,0:0:0:0:
480,312,68239,1,0,0:0:0:0:
388,296,68422,1,0,3:0:0:0:
296,316,68605,2,0,P|264:330|232:352,1,67.5000025749208,0|8,0:0|0:1,0:0:0:0:
112,368,68971,2,0,P|120:308|124:224,2,135.000005149842,0|0|0,3:0|0:0|0:0,0:0:0:0:
40,264,69885,1,8,0:1:0:0:
64,124,70068,6,2,P|126:117|200:116,1,135.000005149842,0|0,3:0|0:0,0:0:0:0:
296,176,70617,1,0,3:0:0:0:
396,148,70800,1,0,0:0:0:0:
320,80,70983,1,8,0:1:0:0:
376,240,71166,2,0,P|412:248|448:248,1,67.5000025749208,0|0,3:0|3:0,3:0:0:0:
276,292,71532,2,0,P|299:320|327:342,1,67.5000025749208,0|0,0:0|3:0,0:0:0:0:
184,236,71898,1,0,0:0:0:0:
164,344,72081,1,8,0:1:0:0:
68,252,72264,6,0,L|52:160,1,67.5000025749208,0|0,3:0|0:0,0:0:0:0:
184,236,72629,2,0,L|168:138,1,76.5000014591217,0|0,0:0|3:0,0:0:0:0:
312,212,72995,2,0,L|298:117,1,85.4999977169037,0|8,0:0|0:1,0:0:0:0:
408,20,73361,6,0,L|435:192,1,170.999995433807,8|8,0:1|0:1,0:0:0:0:
164,56,74459,5,4,0:0:0:0:
116,204,74642,1,0,0:0:0:0:
48,48,74824,2,0,P|58:96|64:160,1,99.0000030212403,4|0,0:2|2:0,0:0:0:0:
164,304,75190,2,0,P|186:260|222:206,1,99.0000030212403,4|0,0:2|2:0,0:0:0:0:
336,120,75556,6,0,P|346:200|376:320,1,198.000006042481,4|2,0:0|0:3,0:0:0:0:
440,204,76105,1,0,2:0:0:0:
284,284,76288,1,2,0:3:0:0:
336,120,76471,1,0,2:0:0:0:
120,144,76654,6,0,P|166:134|216:120,1,99.0000030212403,4|0,0:0|2:0,0:0:0:0:
112,48,77020,1,4,0:2:0:0:
132,224,77203,1,8,0:0:0:0:
196,44,77385,1,0,0:0:0:0:
48,232,77568,1,8,0:0:0:0:
28,56,77751,1,4,0:0:0:0:
212,212,77934,1,0,2:0:0:0:
360,56,78117,1,0,0:2:0:0:
296,160,78300,1,8,0:0:0:0:
300,200,78392,1,8,0:0:0:0:
320,232,78483,1,8,0:0:0:0:
464,324,78666,1,8,0:0:0:0:
424,316,78757,1,8,0:0:0:0:
384,320,78849,5,12,0:0:0:0:
204,352,79032,1,0,2:0:0:0:
84,240,79215,2,0,P|136:250|184:268,1,99.0000030212403,4|0,0:2|2:0,0:0:0:0:
344,180,79581,2,0,P|291:190|244:208,1,99.0000030212403,4|0,0:2|2:0,0:0:0:0:
48,80,79946,6,0,P|128:96|260:88,1,198.000006042481,4|2,0:0|0:3,0:0:0:0:
304,12,80495,1,0,2:0:0:0:
344,180,80678,2,0,P|344:232|348:280,1,99.0000030212403,2|0,0:3|2:0,0:0:0:0:
432,332,81044,5,4,0:0:0:0:
480,80,81227,1,0,0:0:0:0:
480,80,81593,1,8,0:0:0:0:
376,124,81776,1,0,0:0:0:0:
284,64,81959,1,8,0:0:0:0:
388,24,82142,5,4,0:0:0:0:
252,260,82324,1,0,0:0:0:0:
252,260,82690,1,8,0:0:0:0:
252,260,82782,1,8,0:0:0:0:
252,260,82873,1,8,0:0:0:0:
112,316,83056,1,8,0:0:0:0:
112,316,83148,1,8,0:0:0:0:
112,316,83239,5,12,0:0:0:0:
40,172,83422,1,0,2:0:0:0:
200,336,83605,2,0,P|255:339|316:332,1,99.0000030212403,4|0,0:2|2:0,0:0:0:0:
392,200,83971,2,0,P|384:249|384:316,1,99.0000030212403,4|0,0:2|2:0,0:0:0:0:
512,188,84337,6,0,P|488:104|444:0,1,198.000006042481,4|2,0:0|0:3,0:0:0:0:
316,88,84885,1,0,2:0:0:0:
228,124,85068,1,2,0:3:0:0:
104,64,85251,1,0,2:0:0:0:
316,88,85434,6,0,P|320:132|316:200,1,99.0000030212403,4|0,0:0|2:0,0:0:0:0:
216,252,85800,1,4,0:2:0:0:
356,336,85983,1,8,0:0:0:0:
317,186,86166,1,0,0:0:0:0:
264,368,86349,1,8,0:0:0:0:
408,232,86532,1,4,0:0:0:0:
228,152,86715,1,0,2:0:0:0:
172,332,86898,1,0,0:2:0:0:
317,186,87081,1,0,0:0:0:0:
180,32,87264,1,8,0:0:0:0:
164,68,87355,1,8,0:0:0:0:
164,108,87446,1,8,0:0:0:0:
188,140,87538,1,8,0:0:0:0:
228,152,87629,5,12,0:0:0:0:
352,92,87812,1,0,2:0:0:0:
408,280,87995,2,0,P|358:271|296:268,1,99.0000030212403,4|0,0:2|2:0,0:0:0:0:
129,163,88361,2,0,P|177:154|227:151,1,99.0000030212403,4|0,0:2|2:0,0:0:0:0:
72,224,88727,6,0,P|49:141|172:88,1,198.000006042481,4|2,0:0|0:3,0:0:0:0:
227,151,89276,1,0,2:0:0:0:
320,40,89459,2,0,P|270:45|216:60,1,99.0000030212403,2|0,0:3|2:0,0:0:0:0:
180,248,89824,5,4,1:0:0:0:
200,252,90922,1,0,0:0:0:0:
220,256,92020,1,0,0:0:0:0:
240,260,93117,1,0,0:0:0:0:
260,264,93483,5,2,0:3:0:0:
280,268,93666,1,2,0:3:0:0:
300,272,93849,1,4,0:3:0:0:
400,324,94215,6,0,P|400:256|408:168,1,144,0|0,3:0|3:0,0:0:0:0:
484,80,94764,1,8,0:1:0:0:
484,80,94946,2,0,L|400:96,1,72,0|0,3:0|0:0,0:0:0:0:
268,96,95312,1,0,3:0:0:0:
208,20,95495,1,0,0:0:0:0:
340,48,95678,1,0,3:0:0:0:
304,176,95861,1,8,0:1:0:0:
296,216,95953,1,8,0:1:0:0:
300,256,96044,1,8,0:1:0:0:
196,256,96227,1,0,3:0:0:0:
215,291,96318,1,0,3:0:0:0:
224,330,96410,6,0,P|151:326|68:328,1,144,0|0,3:0|3:0,0:0:0:0:
16,220,96959,1,0,0:0:0:0:
16,220,97142,2,0,L|12:136,1,72,0|0,3:0|0:0,0:0:0:0:
100,44,97507,1,8,0:3:0:0:
92,84,97599,1,8,0:3:0:0:
96,124,97690,1,8,0:3:0:0:
116,160,97782,1,8,0:3:0:0:
152,180,97873,2,0,L|208:184,3,36,8|8|8|8,3:0|3:0|3:0|3:0,0:0:0:0:
176,264,98239,1,0,1:1:0:0:
216,264,98331,1,0,1:1:0:0:
252,280,98422,1,0,1:1:0:0:
276,312,98514,1,0,1:1:0:0:
284,356,98605,6,0,P|281:256|284:180,1,161.999995056153,4|0,3:2|3:0,0:0:0:0:
372,48,99154,1,8,1:0:0:0:
352,160,99337,1,0,3:0:0:0:
372,48,99520,1,8,1:0:0:0:
192,148,99703,6,0,P|197:215|204:256,2,80.9999975280763,0|0|0,3:0|0:0|3:0,0:0:0:0:
80,320,100251,1,8,1:0:0:0:
96,180,100434,1,0,3:0:0:0:
80,320,100617,1,8,1:0:0:0:
272,296,100800,6,0,P|280:212|272:120,1,161.999995056153,0|0,3:0|3:0,0:0:0:0:
108,48,101349,1,8,1:0:0:0:
144,204,101532,1,0,3:0:0:0:
108,48,101715,1,8,1:0:0:0:
72,256,101898,6,0,P|72:300|76:352,2,80.9999975280763,0|0|0,3:0|0:0|3:0,0:0:0:0:
268,352,102446,1,8,1:0:0:0:
208,172,102629,1,8,1:0:0:0:
219,169,102721,1,8,1:0:0:0:
231,168,102812,1,8,1:0:0:0:
243,168,102904,1,8,1:0:0:0:
256,169,102995,6,0,L|240:53,1,90,0|0,1:0|0:0,0:0:0:0:
328,16,103361,1,0,1:0:0:0:
424,164,103544,1,8,1:0:0:0:
484,256,103727,1,0,1:0:0:0:
332,208,103910,1,8,1:0:0:0:
200,328,104093,6,0,L|320:304,1,90,0|0,1:0|2:0,0:0:0:0:
332,208,104459,1,0,1:0:0:0:
200,100,104642,1,8,1:0:0:0:
124,232,104824,1,0,1:0:0:0:
108,80,105007,1,8,1:0:0:0:
264,192,105190,6,0,L|160:172,1,90,0|0,1:0|0:0,0:0:0:0:
108,80,105556,1,0,1:0:0:0:
276,36,105739,1,8,1:0:0:0:
384,88,105922,1,0,1:0:0:0:
336,248,106105,1,8,1:0:0:0:
512,232,106288,6,0,L|400:216,1,90,0|8,1:0|1:0,0:0:0:0:
422,219,106562,1,0,1:0:0:0:
422,219,106654,1,8,1:0:0:0:
236,324,106837,1,0,1:0:0:0:
236,324,106928,1,0,1:0:0:0:
236,324,107020,1,8,1:0:0:0:
256,112,107203,1,0,1:0:0:0:
256,112,107294,1,0,1:0:0:0:
256,112,107385,6,0,L|272:16,1,90,0|0,3:0|0:0,0:0:0:0:
376,204,107751,2,0,L|360:108,1,90,0|0,3:0|0:0,0:0:0:0:
260,304,108117,2,0,L|276:208,1,90,0|2,3:0|3:2,0:0:0:0:
465,213,108483,2,0,P|417:205|357:205,1,90,0|0,3:0|0:0,0:0:0:0:
170,313,108849,2,0,P|218:305|278:305,1,90,0|0,3:0|0:0,0:0:0:0:
484,352,109215,2,0,P|436:344|376:344,1,90,0|2,3:0|3:2,0:2:0:0:
170,313,109581,6,0,P|166:269|170:213,1,90,4|0,3:0|0:0,0:0:0:0:
337,162,109946,1,0,3:2:0:0:
373,262,110129,1,0,0:0:0:0:
237,142,110312,1,2,3:2:0:0:
305,60,110495,1,0,3:0:0:0:
273,242,110678,1,2,3:2:0:0:
168,223,110861,1,2,0:2:0:0:
337,162,111044,2,0,P|383:171|429:186,1,90,2|0,3:2|0:0,0:0:0:0:
456,44,111410,1,0,3:0:0:0:
508,176,111593,1,0,3:0:0:0:
352,268,111776,6,0,P|305:277|260:292,1,90,4|0,3:0|0:0,0:0:0:0:
268,140,112142,2,0,P|238:177|212:217,1,90,0|0,3:0|0:0,3:0:0:0:
128,92,112507,2,0,P|129:139|135:186,1,90,0|2,3:0|3:2,0:0:0:0:
144,356,112873,2,0,L|152:260,1,90,0|0,3:0|0:0,0:0:0:0:
297,174,113239,2,0,L|209:215,1,90,0|0,3:0|0:0,0:0:0:0:
60,130,113605,2,0,L|139:184,1,90,0|2,3:0|3:2,0:0:0:0:
320,272,113971,5,4,3:0:0:0:
360,172,114154,1,0,0:0:0:0:
332,288,114337,1,0,3:0:0:0:
376,168,114520,1,0,0:0:0:0:
344,304,114703,1,0,3:0:0:0:
392,164,114885,1,2,3:2:0:0:
484,276,115068,5,0,1:0:0:0:
344,304,115251,1,0,1:0:0:0:
340,292,115343,1,0,1:0:0:0:
336,280,115434,1,8,1:0:0:0:
392,164,115617,1,0,1:0:0:0:
396,144,115709,1,0,1:0:0:0:
400,124,115800,1,8,1:0:0:0:
276,76,115983,1,0,1:0:0:0:
272,48,116074,1,0,1:0:0:0:
268,20,116166,5,4,1:0:0:0:
292,156,116349,1,0,1:0:0:0:
164,216,116532,1,0,1:0:0:0:
200,68,116715,2,0,L|216:160,1,90,8|0,1:1|0:0,0:0:0:0:
215,156,117081,1,8,1:1:0:0:
252,320,117264,5,0,1:0:0:0:
148,288,117446,1,0,1:0:0:0:
48,328,117629,1,0,1:0:0:0:
88,196,117812,2,0,L|108:84,1,90,8|0,1:0|0:0,0:0:0:0:
103,107,118178,1,8,1:0:0:0:
208,16,118361,6,0,P|216:60|232:108,1,90,0|0,1:0|1:0,0:0:0:0:
360,200,118727,1,0,1:0:0:0:
380,64,118910,1,8,1:0:0:0:
260,176,119093,1,0,0:0:0:0:
280,312,119276,1,8,1:0:0:0:
452,272,119459,1,0,1:0:0:0:
472,136,119642,1,0,1:0:0:0:
380,64,119824,2,0,P|382:109|392:168,1,90,0|8,1:0|1:0,0:0:0:0:
452,272,120190,1,8,1:0:0:0:
412,260,120282,1,8,1:0:0:0:
372,260,120373,1,8,1:0:0:0:
332,272,120465,1,8,1:0:0:0:
300,296,120556,5,12,1:0:0:0:
196,224,120739,1,0,1:0:0:0:
208,372,120922,1,0,1:0:0:0:
280,204,121105,2,0,L|288:104,1,90,8|0,1:0|0:0,0:0:0:0:
287,114,121471,1,8,1:0:0:0:
428,40,121654,5,0,1:0:0:0:
384,136,121837,1,0,1:0:0:0:
308,16,122020,1,0,1:0:0:0:
484,136,122203,2,0,L|504:240,1,90,8|0,1:0|0:0,0:0:0:0:
500,224,122568,1,8,1:0:0:0:
368,320,122751,5,0,1:0:0:0:
264,288,122934,1,0,1:0:0:0:
160,316,123117,1,0,1:0:0:0:
356,352,123300,5,8,1:0:0:0:
220,324,123483,1,0,0:0:0:0:
88,376,123666,1,8,1:0:0:0:
184,244,123849,6,0,P|192:200|196:148,1,90,8|0,1:0|1:0,0:0:0:0:
195,154,124123,1,0,1:0:0:0:
195,154,124215,1,0,1:0:0:0:
28,16,124398,1,0,1:0:0:0:
28,16,124489,1,0,1:0:0:0:
28,16,124581,2,0,P|40:68|16:116,1,101.250003862381,8|0,1:0|0:0,0:0:0:0:
28,110,124946,6,0,P|96:97|232:88,1,198.000006042481
324,16,125495,2,0,P|316:64|316:124,1,99.0000030212403,8|0,0:0|2:0,0:0:0:0:
232,4,125861,1,8,0:0:0:0:
264,192,126044,1,0,0:0:0:0:
400,152,126227,1,0,0:0:0:0:
488,192,126410,1,0,0:0:0:0:
420,340,126593,2,0,P|412:288|416:220,1,99.0000030212403,8|0,0:0|2:0,0:0:0:0:
480,96,126959,1,8,0:0:0:0:
324,196,127142,6,0,P|260:193|184:200,1,99.0000030212403
132,116,127507,1,0,0:0:0:0:
164,240,127690,1,8,0:0:0:0:
224,56,127873,1,0,2:0:0:0:
225,195,128056,1,8,0:0:0:0:
320,20,128239,1,0,0:0:0:0:
300,188,128422,1,0,0:0:0:0:
388,288,128605,2,0,P|436:292|500:288,1,99.0000030212403,0|8,0:0|0:0,0:0:0:0:
332,364,128971,1,8,0:0:0:0:
300,332,129062,1,8,0:0:0:0:
260,312,129154,1,8,0:0:0:0:
216,312,129245,1,8,0:0:0:0:
176,328,129337,6,0,P|164:240|136:120,1,198.000006042481,4|0,0:0|0:0,0:0:0:0:
40,48,129885,2,0,P|92:52|160:48,1,99.0000030212403,8|0,0:0|2:0,0:0:0:0:
268,4,130251,1,8,0:0:0:0:
256,168,130434,1,0,0:0:0:0:
312,304,130617,1,0,0:0:0:0:
232,260,130800,1,0,0:0:0:0:
396,256,130983,2,0,P|400:304|396:376,1,99.0000030212403,8|0,0:0|2:0,0:0:0:0:
232,260,131349,1,8,0:0:0:0:
293,34,131532,5,0,0:0:0:0:
204,168,131715,1,0,0:0:0:0:
355,112,131898,1,0,0:0:0:0:
200,68,132081,1,8,0:0:0:0:
299,194,132264,1,0,2:0:0:0:
293,34,132446,1,8,0:0:0:0:
204,168,132629,5,0,0:0:0:0:
355,112,132812,1,0,0:0:0:0:
355,112,132904,1,0,0:0:0:0:
355,112,132995,1,8,0:0:0:0:
200,68,133178,1,0,0:0:0:0:
200,68,133270,1,0,0:0:0:0:
200,68,133361,1,8,0:0:0:0:
299,194,133544,1,0,0:0:0:0:
299,194,133635,1,0,0:0:0:0:
299,194,133727,6,0,P|400:184|504:184,1,198.000006042481,4|4,0:0|0:3,0:0:0:0:
448,320,134276,2,0,P|396:312|328:312,1,99.0000030212403,8|0,0:0|2:0,0:0:0:0:
236,360,134642,1,8,0:0:0:0:
144,220,134824,1,0,0:0:0:0:
212,108,135007,1,0,0:0:0:0:
324,176,135190,1,4,0:3:0:0:
256,288,135373,1,8,0:0:0:0:
212,108,135556,2,0,P|256:99|320:96,1,99.0000030212403,0|8,2:0|0:0,0:0:0:0:
124,40,135922,6,0,P|78:33|18:14,1,99.0000030212403
68,144,136288,1,4,0:3:0:0:
112,244,136471,1,8,0:0:0:0:
56,336,136654,1,0,2:0:0:0:
12,236,136837,1,8,0:0:0:0:
68,144,137020,1,0,0:0:0:0:
176,160,137203,1,0,0:0:0:0:
216,260,137385,2,0,P|264:268|336:268,1,99.0000030212403,4|8,0:3|0:0,0:0:0:0:
396,116,137751,2,0,P|345:133|304:160,1,99.0000030212403,0|8,2:0|0:0,0:0:0:0:
484,232,138117,6,0,P|488:136|488:24,1,198.000006042481,0|4,0:0|0:3,0:0:0:0:
400,192,138666,2,0,P|402:240|412:304,1,99.0000030212403,8|0,0:0|2:0,0:0:0:0:
504,368,139032,1,8,0:0:0:0:
344,352,139215,1,0,0:0:0:0:
116,324,139581,1,4,0:3:0:0:
4,256,139764,1,8,0:0:0:0:
24,120,139946,1,0,2:0:0:0:
116,324,140129,1,8,0:0:0:0:
264,312,140312,6,0,L|376:340,1,90,0|0,3:0|3:0,3:0:0:0:
240,76,140861,1,8,1:1:0:0:
240,76,141044,2,0,L|284:172,1,90,0|0,3:0|3:0,3:0:0:0:
368,4,141410,2,0,L|364:124,1,90,8|0,1:1|3:0,0:0:0:0:
512,0,141776,2,0,L|472:92,1,90,8|0,1:0|0:0,0:0:0:0:
224,368,142507,5,4,0:0:0:0:
224,208,142690,1,0,0:0:0:0:
68,296,142873,2,0,P|122:287|172:272,1,99.0000030212403,4|0,0:2|2:0,0:0:0:0:
320,229,143239,2,0,P|266:220|216:205,1,99.0000030212403,4|0,0:2|2:0,0:0:0:0:
348,140,143605,6,0,P|404:204|352:320,1,198.000006042481,4|2,0:0|0:3,0:0:0:0:
272,352,144154,1,0,2:0:0:0:
264,180,144337,2,0,P|260:132|268:64,1,99.0000030212403,2|0,0:3|2:0,0:0:0:0:
432,0,144703,6,0,P|436:48|428:116,1,99.0000030212403,4|0,0:0|2:0,0:0:0:0:
340,64,145068,1,4,0:2:0:0:
440,192,145251,1,8,0:0:0:0:
431,98,145434,1,0,0:0:0:0:
360,244,145617,1,8,0:0:0:0:
268,116,145800,1,4,0:0:0:0:
440,192,145983,1,0,2:0:0:0:
296,300,146166,1,0,0:0:0:0:
136,216,146349,1,8,0:0:0:0:
124,180,146440,1,8,0:0:0:0:
128,140,146532,1,8,0:0:0:0:
20,20,146715,1,8,0:0:0:0:
36,56,146806,1,8,0:0:0:0:
36,96,146898,5,12,0:0:0:0:
24,232,147081,1,0,0:0:0:0:
176,208,147264,2,0,P|132:188|84:172,1,99.0000030212403,4|0,0:2|2:0,0:0:0:0:
12,328,147629,2,0,P|60:324|120:312,1,99.0000030212403,4|0,0:2|2:0,0:0:0:0:
264,240,147995,6,0,P|335:281|408:372,1,198.000006042481,4|2,0:0|0:3,0:0:0:0:
372,160,148544,1,0,2:0:0:0:
472,232,148727,2,0,P|484:279|488:360,1,99.0000030212403,2|0,0:3|2:0,0:0:0:0:
407,370,149093,5,4,0:0:0:0:
124,312,149276,1,0,0:0:0:0:
124,312,149642,1,8,0:0:0:0:
176,216,149824,1,0,0:0:0:0:
232,312,150007,1,8,0:0:0:0:
68,216,150190,5,4,0:0:0:0:
256,24,150373,1,0,0:0:0:0:
256,24,150739,1,8,0:0:0:0:
256,24,150831,1,8,0:0:0:0:
256,24,150922,1,8,0:0:0:0:
424,96,151105,1,8,0:0:0:0:
424,96,151196,1,8,0:0:0:0:
424,96,151288,5,4,0:0:0:0:
508,8,151471,1,0,0:0:0:0:
496,152,151654,2,0,P|494:201|496:252,1,99.0000030212403,4|0,0:2|2:0,0:0:0:0:
396,372,152020,2,0,P|397:322|396:272,1,99.0000030212403,4|0,0:2|2:0,0:0:0:0:
288,48,152385,6,0,P|285:138|292:256,1,198.000006042481,4|2,0:0|1:3,0:0:0:0:
384,148,152934,1,0,2:0:0:0:
200,200,153117,2,0,P|200:257|208:328,1,99.0000030212403,2|0,0:3|2:0,0:0:0:0:
32,148,153483,6,0,P|80:135|152:128,1,99.0000030212403,4|0,0:0|2:0,0:0:0:0:
256,80,153849,1,4,0:2:0:0:
144,48,154032,1,8,0:0:0:0:
92,204,154215,1,0,0:0:0:0:
204,172,154398,1,8,0:0:0:0:
304,292,154581,1,4,0:0:0:0:
192,260,154764,1,0,2:0:0:0:
340,364,154946,1,0,0:0:0:0:
372,252,155129,1,8,0:0:0:0:
292,80,155312,1,8,0:0:0:0:
284,120,155404,1,8,0:0:0:0:
304,156,155495,1,8,0:0:0:0:
340,172,155587,1,8,0:0:0:0:
380,164,155678,5,0,0:0:0:0:
440,56,155861,1,0,0:0:0:0:
266,23,156044,2,0,P|271:74|286:127,1,99.0000030212403,4|0,0:2|2:0,0:0:0:0:
351,258,156410,2,0,P|369:210|380:156,1,99.0000030212403,4|0,0:2|2:0,0:0:0:0:
448,352,156776,6,0,P|360:348|244:352,1,198.000006042481,4|2,0:0|0:3,0:0:0:0:
144,240,157324,1,0,2:0:0:0:
68,352,157507,2,0,L|176:324,1,99.0000030212403,2|0,0:3|2:0,0:0:0:0:
296,360,157873,5,4,0:0:0:0:
232,100,158056,1,0,0:0:0:0:
232,100,158422,1,8,0:0:0:0:
328,168,158605,1,0,0:0:0:0:
160,192,158788,1,8,0:0:0:0:
328,88,158971,5,4,0:0:0:0:
368,96,159062,1,0,0:0:0:0:
396,124,159154,1,0,0:0:0:0:
408,160,159245,1,0,0:0:0:0:
400,200,159337,2,0,P|391:226|388:256,3,49.5000015106202
460,336,159703,1,8,0:0:0:0:
412,320,159794,1,8,0:0:0:0:
364,316,159885,1,8,0:0:0:0:
316,332,159977,1,8,0:0:0:0:
280,364,160068,5,4,0:0:0:0:
172,224,160251,1,0,0:0:0:0:
248,372,160434,1,8,0:0:0:0:
216,164,160617,1,0,0:0:0:0:
216,368,160800,1,8,0:0:0:0:
288,136,160983,1,0,0:0:0:0:
436,264,161166,6,0,L|316:236,1,112.5,4|0,0:0|0:0,0:0:0:0:
106,189,161532,2,0,L|226:161,1,112.5,8|0,0:0|0:0,0:0:0:0:
456,120,161898,2,0,L|336:92,1,112.5,8|0,0:0|0:0,0:0:0:0:
180,72,162264,5,4,0:0:0:0:
220,248,162446,1,0,0:0:0:0:
100,88,162629,1,8,0:0:0:0:
220,248,162812,1,0,0:0:0:0:
68,160,162995,1,8,0:0:0:0:
220,248,163178,1,0,0:0:0:0:
392,208,163361,6,0,P|392:152|388:88,1,112.5,4|0,0:0|0:0,0:0:0:0:
220,248,163727,2,0,P|219:303|224:368,1,112.5,8|0,0:0|0:0,0:0:0:0:
68,204,164093,2,0,P|68:148|64:84,1,112.5,8|0,0:0|0:0,0:0:0:0:
56,292,164459,5,4,0:0:0:0:
220,248,164642,1,0,0:0:0:0:
136,164,164824,1,8,0:0:0:0:
292,308,165007,1,0,0:0:0:0:
184,376,165190,1,8,0:0:0:0:
368,256,165373,1,0,0:0:0:0:
316,84,165556,6,0,P|283:123|236:196,1,112.5,4|0,0:0|0:0,0:0:0:0:
156,28,165922,2,0,P|156:79|166:165,1,112.5,8|0,0:0|0:0,0:0:0:0:
4,88,166288,2,0,P|37:126|100:186,1,112.5,8|0,0:0|0:0,0:0:0:0:
288,260,166654,5,4,0:0:0:0:
288,260,166837,1,0,0:0:0:0:
188,220,167020,1,8,0:0:0:0:
188,220,167203,1,0,0:0:0:0:
84,256,167385,1,8,0:0:0:0:
84,256,167568,1,0,0:0:0:0:
196,344,167751,5,4,0:0:0:0:
196,344,167934,1,0,0:0:0:0:
384,228,168117,1,8,0:0:0:0:
384,228,168300,1,0,0:0:0:0:
320,24,168483,1,8,0:0:0:0:
320,24,168666,1,0,0:0:0:0:
132,72,168849,6,0,P|133:128|148:216,1,112.5,4|0,0:0|0:0,0:0:0:0:
360,176,169215,2,0,P|309:149|227:117,1,112.5,8|0,0:0|0:0,0:0:0:0:
155,321,169581,2,0,P|203:290|271:235,1,112.5,8|0,0:0|0:0,0:0:0:0:
304,32,169946,5,4,0:0:0:0:
247,257,170129,1,0,0:0:0:0:
395,290,170312,5,8,0:0:0:0:
228,128,170495,1,0,0:0:0:0:
126,240,170678,5,8,0:0:0:0:
349,176,170861,1,0,0:0:0:0:
252,260,171044,6,0,P|261:323|273:383,1,112.5,4|0,0:0|0:0,0:0:0:0:
395,290,171410,2,0,P|412:228|425:169,1,112.5,8|0,0:0|0:0,0:0:0:0:
244,64,171776,2,0,P|274:120|305:172,1,112.5,8|0,0:0|0:0,0:0:0:0:
444,48,172142,5,4,0:0:0:0:
312,24,172324,1,0,0:0:0:0:
167,185,172507,1,8,0:0:0:0:
299,161,172690,1,0,0:0:0:0:
448,320,172873,1,8,0:0:0:0:
260,300,173056,1,0,0:0:0:0:
88,372,173239,6,0,P|86:320|72:244,1,112.5,4|0,0:0|0:0,0:0:0:0:
180,64,173605,2,0,P|225:88|298:114,1,112.5,8|0,0:0|0:0,0:0:0:0:
476,216,173971,2,0,P|432:242|373:293,1,112.5,8|0,0:0|0:0,0:0:0:0:
136,252,174337,5,4,0:0:0:0:
136,252,174520,1,0,0:0:0:0:
264,58,174703,1,0,0:0:0:0:
308,148,174885,1,0,0:0:0:0:
308,148,174977,1,0,0:0:0:0:
308,148,175068,1,8,0:0:0:0:
248,232,175251,1,0,0:0:0:0:
424,368,175434,5,4,0:0:0:0:
256,192,175526,12,0,179824,0:0:0:0:
