osu file format v14

[General]
AudioFilename: audio.mp3
AudioLeadIn: 0
PreviewTime: 105131
Countdown: 1
SampleSet: Soft
StackLeniency: 0.7
Mode: 0
LetterboxInBreaks: 0
WidescreenStoryboard: 0

[Editor]
Bookmarks: 2731,15531,28331,41131,53931,66731,79531,92331,105131,117931,130731,143531,156331,169131,181931,194731,207531,220331,233131,245931,249131
DistanceSpacing: 1.6
BeatDivisor: 4
GridSize: 16
TimelineZoom: 2.599999

[Metadata]
Title:Innocent Affection
TitleUnicode:Innocent Affection
Artist:556mm
ArtistUnicode:556mm
Creator:mjozog3
Version:Affection
Source:東方Project
Tags:東方 11 Subterranean Animism Koishi Komeiji Team Shanghai Alice ZUN Touhou
BeatmapID:1210070
BeatmapSetID:570926

[Difficulty]
HPDrainRate:5
CircleSize:5
OverallDifficulty:8
ApproachRate:8
SliderMultiplier:1.7
SliderTickRate:1

[Events]
//Background and Video events
0,0,"Koishi.jpg",0,0
//Break Periods
//Storyboard Layer 0 (Background)
//Storyboard Layer 1 (Fail)
//Storyboard Layer 2 (Pass)
//Storyboard Layer 3 (Foreground)
//Storyboard Sound Samples

[TimingPoints]
2731,400,4,2,0,100,1,0
105131,-76.9230769230769,4,2,0,100,0,1
117931,-100,4,2,0,100,0,0
194731,-76.9230769230769,4,2,0,100,0,1
207531,-100,4,2,0,100,0,0

[Colours]
Combo1 : 170,0,200
Combo2 : 100,250,200
Combo3 : 250,240,50
Combo4 : 70,220,170

[HitObjects]
80,48,2731,53,8,0:0:0:0:
160,80,2931,1,0,0:0:0:0:
64,128,3131,2,0,L|144:160,1,85,2|0,0:0|0:0,0:0:0:0:
240,208,3531,1,8,0:0:0:0:
288,224,3631,1,0,0:0:0:0:
336,240,3731,1,0,0:0:0:0:
384,256,3831,1,0,0:0:0:0:
432,272,3931,1,2,0:0:0:0:
384,272,4031,1,0,0:0:0:0:
336,272,4131,1,0,0:0:0:0:
288,272,4231,1,0,0:0:0:0:
240,272,4331,5,8,0:0:0:0:
240,144,4531,1,0,0:0:0:0:
112,144,4731,1,2,0:0:0:0:
112,272,4931,1,0,0:0:0:0:
112,272,5131,5,8,0:0:0:0:
176,161,5331,1,0,0:0:0:0:
286,225,5531,1,2,0:0:0:0:
222,336,5731,1,0,0:0:0:0:
352,304,5931,6,0,L|432:224,1,85
272,224,6331,2,0,L|352:144,1,85
432,64,6731,1,0,0:0:0:0:
304,64,6931,1,0,0:0:0:0:
256,64,7031,1,0,0:0:0:0:
208,64,7131,1,0,0:0:0:0:
128,176,7331,1,0,0:0:0:0:
48,288,7531,5,0,0:0:0:0:
176,304,7731,1,0,0:0:0:0:
304,320,7931,1,0,0:0:0:0:
320,272,8031,1,0,0:0:0:0:
336,224,8131,1,0,0:0:0:0:
352,176,8231,1,0,0:0:0:0:
368,128,8331,1,0,0:0:0:0:
480,208,8531,1,0,0:0:0:0:
368,128,8731,1,0,0:0:0:0:
256,48,8931,1,0,0:0:0:0:
176,208,9131,5,0,0:0:0:0:
192,256,9231,1,0,0:0:0:0:
240,272,9331,1,0,0:0:0:0:
368,288,9531,1,0,0:0:0:0:
496,304,9731,1,0,0:0:0:0:
400,208,9931,1,0,0:0:0:0:
272,192,10131,1,0,0:0:0:0:
368,288,10331,1,0,0:0:0:0:
496,304,10531,1,0,0:0:0:0:
480,128,10731,5,0,0:0:0:0:
448,96,10831,1,0,0:0:0:0:
400,96,10931,1,0,0:0:0:0:
272,112,11131,1,0,0:0:0:0:
144,128,11331,1,0,0:0:0:0:
288,208,11531,1,0,0:0:0:0:
288,208,11731,5,0,0:0:0:0:
240,240,11831,1,0,0:0:0:0:
192,272,11931,1,0,0:0:0:0:
144,240,12031,1,0,0:0:0:0:
96,208,12131,1,0,0:0:0:0:
192,112,12331,5,0,0:0:0:0:
288,208,12531,1,0,0:0:0:0:
384,304,12731,2,0,L|464:224,1,85
416,80,13131,5,0,0:0:0:0:
288,112,13331,1,0,0:0:0:0:
416,160,13531,1,0,0:0:0:0:
288,192,13731,1,0,0:0:0:0:
240,160,13831,1,0,0:0:0:0:
192,160,13931,1,0,0:0:0:0:
208,288,14131,1,0,0:0:0:0:
336,336,14331,1,0,0:0:0:0:
208,288,14531,1,0,0:0:0:0:
80,240,14731,5,0,0:0:0:0:
96,192,14831,1,0,0:0:0:0:
112,144,14931,1,0,0:0:0:0:
128,96,15031,1,0,0:0:0:0:
144,48,15131,2,0,L|256:80,1,85
352,112,15531,5,0,0:0:0:0:
240,192,15731,1,0,0:0:0:0:
368,192,15931,1,0,0:0:0:0:
256,272,16131,1,0,0:0:0:0:
144,192,16331,1,0,0:0:0:0:
256,272,16531,1,0,0:0:0:0:
288,320,16631,1,0,0:0:0:0:
336,320,16731,1,0,0:0:0:0:
352,192,16931,1,0,0:0:0:0:
416,64,17131,5,0,0:0:0:0:
288,64,17331,1,0,0:0:0:0:
160,64,17531,1,0,0:0:0:0:
272,128,17731,1,0,0:0:0:0:
144,128,17931,1,0,0:0:0:0:
112,256,18131,1,0,0:0:0:0:
144,304,18231,1,0,0:0:0:0:
192,304,18331,1,0,0:0:0:0:
192,176,18531,1,0,0:0:0:0:
352,240,18731,5,0,0:0:0:0:
352,112,18931,1,0,0:0:0:0:
352,288,19131,1,0,0:0:0:0:
352,160,19331,1,0,0:0:0:0:
256,256,19531,1,0,0:0:0:0:
160,160,19731,1,0,0:0:0:0:
208,144,19831,1,0,0:0:0:0:
224,96,19931,1,0,0:0:0:0:
96,48,20131,1,0,0:0:0:0:
80,224,20331,5,0,0:0:0:0:
208,192,20531,1,0,0:0:0:0:
160,320,20731,1,0,0:0:0:0:
224,160,20931,1,0,0:0:0:0:
176,288,21131,1,0,0:0:0:0:
304,256,21331,1,0,0:0:0:0:
336,224,21431,1,0,0:0:0:0:
384,224,21531,1,0,0:0:0:0:
384,352,21731,1,0,0:0:0:0:
480,256,21931,5,0,0:0:0:0:
416,128,22131,1,0,0:0:0:0:
496,288,22331,1,0,0:0:0:0:
432,160,22531,1,0,0:0:0:0:
304,128,22731,1,0,0:0:0:0:
176,96,22931,1,0,0:0:0:0:
128,64,23031,1,0,0:0:0:0:
80,64,23131,1,0,0:0:0:0:
96,192,23331,1,0,0:0:0:0:
240,288,23531,5,0,0:0:0:0:
304,160,23731,1,0,0:0:0:0:
352,288,23931,1,0,0:0:0:0:
288,128,24131,1,0,0:0:0:0:
336,256,24331,1,0,0:0:0:0:
224,192,24531,1,0,0:0:0:0:
176,160,24631,1,0,0:0:0:0:
128,160,24731,1,0,0:0:0:0:
144,288,24931,1,0,0:0:0:0:
304,320,25131,5,0,0:0:0:0:
432,272,25331,1,0,0:0:0:0:
320,208,25531,1,0,0:0:0:0:
464,288,25731,1,0,0:0:0:0:
448,160,25931,1,0,0:0:0:0:
432,32,26131,1,0,0:0:0:0:
384,32,26231,1,0,0:0:0:0:
352,64,26331,1,0,0:0:0:0:
256,160,26531,1,0,0:0:0:0:
96,224,26731,5,0,0:0:0:0:
224,288,26931,1,0,0:0:0:0:
352,224,27131,1,0,0:0:0:0:
192,304,27331,1,0,0:0:0:0:
256,192,27531,1,0,0:0:0:0:
208,64,27731,1,0,0:0:0:0:
160,64,27831,1,0,0:0:0:0:
128,96,27931,1,0,0:0:0:0:
224,192,28131,1,0,0:0:0:0:
352,304,28331,5,0,0:0:0:0:
480,304,28531,1,0,0:0:0:0:
304,304,28731,1,0,0:0:0:0:
176,304,28931,1,0,0:0:0:0:
240,192,29131,1,0,0:0:0:0:
400,112,29331,1,0,0:0:0:0:
448,144,29431,1,0,0:0:0:0:
448,192,29531,1,0,0:0:0:0:
320,224,29731,1,0,0:0:0:0:
224,80,29931,5,0,0:0:0:0:
112,160,30131,1,0,0:0:0:0:
256,64,30331,1,0,0:0:0:0:
144,144,30531,1,0,0:0:0:0:
256,224,30731,1,0,0:0:0:0:
368,304,30931,1,0,0:0:0:0:
416,304,31031,1,0,0:0:0:0:
448,256,31131,1,0,0:0:0:0:
352,160,31331,1,0,0:0:0:0:
256,304,31531,5,0,0:0:0:0:
128,256,31731,1,0,0:0:0:0:
288,320,31931,1,0,0:0:0:0:
320,160,32131,1,0,0:0:0:0:
352,32,32331,1,0,0:0:0:0:
224,64,32531,1,0,0:0:0:0:
176,64,32631,1,0,0:0:0:0:
144,96,32731,1,0,0:0:0:0:
224,208,32931,1,0,0:0:0:0:
304,320,33131,5,0,0:0:0:0:
384,208,33331,1,0,0:0:0:0:
384,336,33531,1,0,0:0:0:0:
464,224,33731,1,0,0:0:0:0:
416,96,33931,1,0,0:0:0:0:
288,48,34131,1,0,0:0:0:0:
336,80,34231,1,0,0:0:0:0:
336,128,34331,1,0,0:0:0:0:
208,128,34531,1,0,0:0:0:0:
208,256,34731,5,0,0:0:0:0:
336,256,34931,1,0,0:0:0:0:
336,128,35131,1,0,0:0:0:0:
464,128,35331,1,0,0:0:0:0:
464,304,35531,1,0,0:0:0:0:
336,304,35731,1,0,0:0:0:0:
288,304,35831,1,0,0:0:0:0:
256,272,35931,1,0,0:0:0:0:
336,160,36131,1,0,0:0:0:0:
400,48,36331,5,0,0:0:0:0:
272,80,36531,1,0,0:0:0:0:
144,32,36731,1,0,0:0:0:0:
304,96,36931,1,0,0:0:0:0:
432,144,37131,1,0,0:0:0:0:
464,272,37331,1,0,0:0:0:0:
448,320,37431,1,0,0:0:0:0:
400,320,37531,1,0,0:0:0:0:
352,192,37731,1,0,0:0:0:0:
208,272,37931,5,0,0:0:0:0:
144,144,38131,1,0,0:0:0:0:
144,272,38331,1,0,0:0:0:0:
208,144,38531,1,0,0:0:0:0:
288,32,38731,1,0,0:0:0:0:
416,32,38931,1,0,0:0:0:0:
464,32,39031,1,0,0:0:0:0:
496,80,39131,1,0,0:0:0:0:
384,160,39331,1,0,0:0:0:0:
176,144,39531,5,0,0:0:0:0:
288,224,39731,1,0,0:0:0:0:
112,224,39931,1,0,0:0:0:0:
224,304,40131,1,0,0:0:0:0:
288,304,40331,5,0,0:0:0:0:
400,224,40531,1,0,0:0:0:0:
224,224,40731,1,0,0:0:0:0:
336,144,40931,1,0,0:0:0:0:
208,96,41131,5,0,0:0:0:0:
80,128,41331,1,0,0:0:0:0:
176,224,41531,1,0,0:0:0:0:
208,96,41731,1,0,0:0:0:0:
336,112,41931,2,0,L|352:176,1,42.5
352,224,42131,1,0,0:0:0:0:
288,240,42231,1,0,0:0:0:0:
224,256,42331,1,0,0:0:0:0:
96,288,42531,1,0,0:0:0:0:
208,224,42731,5,0,0:0:0:0:
160,96,42931,1,0,0:0:0:0:
224,256,43131,1,0,0:0:0:0:
352,208,43331,1,0,0:0:0:0:
416,336,43531,2,0,L|352:336,1,42.5
304,336,43731,1,0,0:0:0:0:
240,336,43831,1,0,0:0:0:0:
176,336,43931,1,0,0:0:0:0:
64,256,44131,1,0,0:0:0:0:
176,176,44331,5,0,0:0:0:0:
288,96,44531,1,0,0:0:0:0:
144,192,44731,1,0,0:0:0:0:
224,304,44931,1,0,0:0:0:0:
352,320,45131,2,0,L|368:256,1,42.5
384,208,45331,1,0,0:0:0:0:
400,144,45431,1,0,0:0:0:0:
416,80,45531,1,0,0:0:0:0:
288,128,45731,1,0,0:0:0:0:
128,192,45931,5,0,0:0:0:0:
256,240,46131,1,0,0:0:0:0:
128,288,46331,1,0,0:0:0:0:
256,336,46531,1,0,0:0:0:0:
384,288,46731,2,0,L|400:224,1,42.5
416,176,46931,1,0,0:0:0:0:
432,112,47031,1,0,0:0:0:0:
448,48,47131,1,0,0:0:0:0:
320,96,47331,1,0,0:0:0:0:
192,128,47531,5,0,0:0:0:0:
128,240,47731,1,0,0:0:0:0:
208,96,47931,1,0,0:0:0:0:
144,208,48131,1,0,0:0:0:0:
256,272,48331,2,0,L|320:288,1,42.5
368,304,48531,1,0,0:0:0:0:
432,320,48631,1,0,0:0:0:0:
496,336,48731,1,0,0:0:0:0:
432,208,48931,1,0,0:0:0:0:
384,80,49131,5,0,0:0:0:0:
256,112,49331,1,0,0:0:0:0:
128,144,49531,1,0,0:0:0:0:
0,176,49731,1,0,0:0:0:0:
48,304,49931,2,0,L|80:240,1,42.5
96,208,50131,1,0,0:0:0:0:
128,144,50231,1,0,0:0:0:0:
160,80,50331,1,0,0:0:0:0:
288,128,50531,1,0,0:0:0:0:
416,176,50731,5,0,0:0:0:0:
288,176,50931,1,0,0:0:0:0:
464,176,51131,1,0,0:0:0:0:
464,304,51331,1,0,0:0:0:0:
336,352,51531,2,0,L|272:336,1,42.5
224,320,51731,1,0,0:0:0:0:
160,304,51831,1,0,0:0:0:0:
96,288,51931,1,0,0:0:0:0:
64,160,52131,1,0,0:0:0:0:
32,32,52331,5,0,0:0:0:0:
160,80,52531,1,0,0:0:0:0:
208,208,52731,1,0,0:0:0:0:
336,256,52931,1,0,0:0:0:0:
416,96,53131,2,0,L|384:160,1,42.5
368,192,53331,1,0,0:0:0:0:
336,256,53431,1,0,0:0:0:0:
304,320,53531,1,0,0:0:0:0:
176,352,53731,1,0,0:0:0:0:
128,224,53931,5,0,0:0:0:0:
176,96,54131,1,0,0:0:0:0:
64,176,54331,1,0,0:0:0:0:
192,176,54531,1,0,0:0:0:0:
80,96,54731,2,0,L|144:96,1,42.5
192,96,54931,1,0,0:0:0:0:
256,96,55031,1,0,0:0:0:0:
320,128,55131,1,0,0:0:0:0:
400,240,55331,1,0,0:0:0:0:
496,336,55531,5,0,0:0:0:0:
480,208,55731,1,0,0:0:0:0:
464,80,55931,1,0,0:0:0:0:
416,208,56131,1,0,0:0:0:0:
368,336,56331,2,0,L|320:320,1,42.5
256,304,56531,1,0,0:0:0:0:
192,288,56631,1,0,0:0:0:0:
128,272,56731,1,0,0:0:0:0:
32,176,56931,1,0,0:0:0:0:
160,128,57131,5,0,0:0:0:0:
336,128,57331,1,0,0:0:0:0:
176,208,57531,1,0,0:0:0:0:
352,208,57731,1,0,0:0:0:0:
192,288,57931,2,0,L|240:288,1,42.5
304,288,58131,1,0,0:0:0:0:
368,288,58231,1,0,0:0:0:0:
432,256,58331,1,0,0:0:0:0:
464,128,58531,1,0,0:0:0:0:
336,96,58731,5,0,0:0:0:0:
256,208,58931,1,0,0:0:0:0:
144,128,59131,1,0,0:0:0:0:
288,224,59331,1,0,0:0:0:0:
160,272,59531,2,0,L|224:288,1,42.5
272,304,59731,1,0,0:0:0:0:
336,320,59831,1,0,0:0:0:0:
400,336,59931,1,0,0:0:0:0:
368,208,60131,1,0,0:0:0:0:
336,80,60331,5,0,0:0:0:0:
208,112,60531,1,0,0:0:0:0:
160,224,60731,1,0,0:0:0:0:
224,64,60931,1,0,0:0:0:0:
352,112,61131,2,0,L|368:176,1,42.5
384,224,61331,1,0,0:0:0:0:
400,288,61431,1,0,0:0:0:0:
416,352,61531,1,0,0:0:0:0:
288,288,61731,1,0,0:0:0:0:
160,224,61931,5,0,0:0:0:0:
128,96,62131,1,0,0:0:0:0:
32,192,62331,1,0,0:0:0:0:
64,320,62531,1,0,0:0:0:0:
160,224,62731,2,0,L|224:256,1,42.5
256,272,62931,1,0,0:0:0:0:
320,304,63031,1,0,0:0:0:0:
384,336,63131,1,0,0:0:0:0:
368,208,63331,1,0,0:0:0:0:
352,80,63531,5,0,0:0:0:0:
224,144,63731,1,0,0:0:0:0:
96,208,63931,1,0,0:0:0:0:
256,128,64131,1,0,0:0:0:0:
336,240,64331,2,0,L|272:272,1,42.5
240,288,64531,1,0,0:0:0:0:
176,320,64631,1,0,0:0:0:0:
112,352,64731,1,0,0:0:0:0:
48,240,64931,1,0,0:0:0:0:
144,144,65131,5,0,0:0:0:0:
240,48,65331,1,0,0:0:0:0:
112,160,65531,1,0,0:0:0:0:
208,256,65731,1,0,0:0:0:0:
304,352,65931,2,0,L|320:288,1,42.5
336,240,66131,1,0,0:0:0:0:
352,176,66231,1,0,0:0:0:0:
368,112,66331,1,0,0:0:0:0:
448,224,66531,1,0,0:0:0:0:
416,352,66731,5,0,0:0:0:0:
288,352,66931,1,0,0:0:0:0:
160,352,67131,1,0,0:0:0:0:
288,240,67331,1,0,0:0:0:0:
160,240,67531,1,0,0:0:0:0:
304,32,67831,1,0,0:0:0:0:
448,240,68131,1,0,0:0:0:0:
304,176,68531,5,0,0:0:0:0:
400,272,68731,1,0,0:0:0:0:
272,256,68931,1,0,0:0:0:0:
368,352,69131,1,0,0:0:0:0:
112,352,69431,1,0,0:0:0:0:
256,128,69731,1,0,0:0:0:0:
256,272,69931,5,0,0:0:0:0:
128,240,70131,1,0,0:0:0:0:
160,112,70331,1,0,0:0:0:0:
288,144,70531,1,0,0:0:0:0:
256,272,70731,1,0,0:0:0:0:
384,304,70931,2,0,L|416:208,1,85
448,96,71331,1,0,0:0:0:0:
320,80,71531,5,0,0:0:0:0:
192,64,71731,1,0,0:0:0:0:
64,48,71931,1,0,0:0:0:0:
160,144,72131,1,0,0:0:0:0:
256,240,72331,1,0,0:0:0:0:
352,336,72531,2,0,L|256:336,1,85
128,336,72931,1,0,0:0:0:0:
64,224,73131,5,0,0:0:0:0:
176,160,73331,1,0,0:0:0:0:
192,288,73531,1,0,0:0:0:0:
304,224,73731,1,0,0:0:0:0:
288,96,73931,1,0,0:0:0:0:
176,160,74131,1,0,0:0:0:0:
416,160,74331,1,0,0:0:0:0:
304,224,74531,1,0,0:0:0:0:
192,288,74731,5,0,0:0:0:0:
80,224,74931,1,0,0:0:0:0:
208,224,75131,1,0,0:0:0:0:
80,288,75331,1,0,0:0:0:0:
144,176,75531,1,0,0:0:0:0:
272,112,75731,1,0,0:0:0:0:
144,112,75931,1,0,0:0:0:0:
256,176,76131,1,0,0:0:0:0:
384,240,76331,5,0,0:0:0:0:
256,288,76531,1,0,0:0:0:0:
128,336,76731,1,0,0:0:0:0:
256,336,76931,1,0,0:0:0:0:
384,336,77131,1,0,0:0:0:0:
384,240,77331,1,0,0:0:0:0:
384,144,77531,1,0,0:0:0:0:
384,48,77731,1,0,0:0:0:0:
256,96,77931,5,0,0:0:0:0:
128,128,78131,1,0,0:0:0:0:
0,160,78331,1,0,0:0:0:0:
128,208,78531,1,0,0:0:0:0:
256,256,78731,1,0,0:0:0:0:
352,288,78931,1,0,0:0:0:0:
384,192,79131,1,0,0:0:0:0:
288,160,79331,1,0,0:0:0:0:
416,128,79531,5,0,0:0:0:0:
288,80,79731,1,0,0:0:0:0:
448,144,79931,1,0,0:0:0:0:
336,224,80131,1,0,0:0:0:0:
416,336,80331,1,0,0:0:0:0:
288,320,80531,1,0,0:0:0:0:
240,304,80631,1,0,0:0:0:0:
192,288,80731,1,0,0:0:0:0:
96,192,80931,1,0,0:0:0:0:
224,144,81131,5,0,0:0:0:0:
352,80,81331,1,0,0:0:0:0:
352,208,81531,1,0,0:0:0:0:
224,144,81731,1,0,0:0:0:0:
240,272,81931,1,0,0:0:0:0:
352,208,82131,1,0,0:0:0:0:
400,224,82231,1,0,0:0:0:0:
448,240,82331,1,0,0:0:0:0:
432,112,82531,1,0,0:0:0:0:
304,48,82731,5,0,0:0:0:0:
176,64,82931,1,0,0:0:0:0:
352,48,83131,1,0,0:0:0:0:
224,64,83331,1,0,0:0:0:0:
240,192,83531,1,0,0:0:0:0:
256,320,83731,1,0,0:0:0:0:
208,336,83831,1,0,0:0:0:0:
160,352,83931,1,0,0:0:0:0:
48,272,84131,1,0,0:0:0:0:
128,160,84331,5,0,0:0:0:0:
192,160,84531,1,0,0:0:0:0:
256,160,84731,1,0,0:0:0:0:
320,160,84931,1,0,0:0:0:0:
320,288,85131,1,0,0:0:0:0:
256,288,85231,1,0,0:0:0:0:
192,288,85331,1,0,0:0:0:0:
128,288,85431,1,0,0:0:0:0:
64,288,85531,1,0,0:0:0:0:
192,288,85731,1,0,0:0:0:0:
192,160,85931,5,0,0:0:0:0:
64,160,86131,1,0,0:0:0:0:
128,48,86331,1,0,0:0:0:0:
192,160,86531,1,0,0:0:0:0:
256,272,86731,1,0,0:0:0:0:
384,272,86931,1,0,0:0:0:0:
320,272,87031,1,0,0:0:0:0:
256,272,87131,1,0,0:0:0:0:
160,192,87331,1,0,0:0:0:0:
272,112,87531,5,0,0:0:0:0:
400,160,87731,1,0,0:0:0:0:
240,96,87931,1,0,0:0:0:0:
368,144,88131,1,0,0:0:0:0:
304,272,88331,1,0,0:0:0:0:
256,288,88431,1,0,0:0:0:0:
208,304,88531,1,0,0:0:0:0:
160,320,88631,1,0,0:0:0:0:
112,336,88731,1,0,0:0:0:0:
144,208,88931,1,0,0:0:0:0:
176,80,89131,5,0,0:0:0:0:
304,128,89331,1,0,0:0:0:0:
432,176,89531,1,0,0:0:0:0:
320,256,89731,1,0,0:0:0:0:
192,208,89931,1,0,0:0:0:0:
144,224,90031,1,0,0:0:0:0:
176,272,90131,1,0,0:0:0:0:
224,256,90231,1,0,0:0:0:0:
272,240,90331,1,0,0:0:0:0:
400,192,90531,1,0,0:0:0:0:
448,320,90731,5,0,0:0:0:0:
400,192,90931,1,0,0:0:0:0:
352,64,91131,1,0,0:0:0:0:
320,192,91331,1,0,0:0:0:0:
288,320,91531,1,0,0:0:0:0:
240,192,91731,1,0,0:0:0:0:
192,64,91931,1,0,0:0:0:0:
144,192,92131,1,0,0:0:0:0:
160,320,92331,5,0,0:0:0:0:
288,320,92531,1,0,0:0:0:0:
416,320,92731,1,0,0:0:0:0:
288,272,92931,2,0,L|336:272,2,42.5
416,272,93331,2,0,L|464:272,2,42.5
288,272,93731,1,0,0:0:0:0:
256,208,93931,5,0,0:0:0:0:
224,192,94031,1,0,0:0:0:0:
240,160,94131,1,0,0:0:0:0:
208,144,94231,1,0,0:0:0:0:
224,112,94331,1,0,0:0:0:0:
224,112,94531,1,0,0:0:0:0:
194,131,94631,1,0,0:0:0:0:
174,101,94731,1,0,0:0:0:0:
144,121,94831,1,0,0:0:0:0:
124,91,94931,1,0,0:0:0:0:
124,91,95131,2,0,L|80:128,2,42.5
128,224,95531,5,0,0:0:0:0:
192,336,95731,1,0,0:0:0:0:
304,272,95931,1,0,0:0:0:0:
240,160,96131,2,0,L|208:128,2,42.5
320,304,96531,1,0,0:0:0:0:
480,240,96731,1,0,0:0:0:0:
448,80,96931,1,0,0:0:0:0:
320,96,97131,6,0,L|256:112,1,42.5
240,112,97331,1,0,0:0:0:0:
208,128,97431,1,0,0:0:0:0:
240,144,97531,1,0,0:0:0:0:
208,160,97631,1,0,0:0:0:0:
240,176,97731,1,0,0:0:0:0:
238,180,97931,1,0,0:0:0:0:
208,160,98031,1,0,0:0:0:0:
210,196,98131,1,0,0:0:0:0:
180,176,98231,1,0,0:0:0:0:
182,212,98331,2,0,P|192:256|240:304,1,85
352,320,98731,5,0,0:0:0:0:
368,272,98831,1,0,0:0:0:0:
384,224,98931,1,0,0:0:0:0:
400,176,99031,1,0,0:0:0:0:
384,128,99131,1,0,0:0:0:0:
368,80,99231,1,0,0:0:0:0:
352,32,99331,1,0,0:0:0:0:
272,80,99531,1,0,0:0:0:0:
160,144,99731,1,0,0:0:0:0:
304,64,99931,1,0,0:0:0:0:
128,160,100131,1,0,0:0:0:0:
160,288,100331,5,0,0:0:0:0:
192,272,100431,1,0,0:0:0:0:
224,288,100531,1,0,0:0:0:0:
256,272,100631,1,0,0:0:0:0:
288,256,100731,1,0,0:0:0:0:
320,240,100831,1,0,0:0:0:0:
352,224,100931,1,0,0:0:0:0:
352,224,101131,5,0,0:0:0:0:
320,240,101231,1,0,0:0:0:0:
288,224,101331,1,0,0:0:0:0:
256,240,101431,1,0,0:0:0:0:
224,256,101531,1,0,0:0:0:0:
192,272,101631,1,0,0:0:0:0:
160,288,101731,1,0,0:0:0:0:
80,176,101931,5,0,0:0:0:0:
160,64,102131,1,0,0:0:0:0:
192,192,102331,2,0,L|240:160,2,42.5
304,112,102731,1,0,0:0:0:0:
256,240,102931,1,0,0:0:0:0:
336,176,103131,2,0,L|384:144,2,42.5
416,288,103531,1,0,0:0:0:0:
288,288,103731,1,0,0:0:0:0:
288,160,103931,1,0,0:0:0:0:
416,160,104131,1,0,0:0:0:0:
352,48,104331,5,0,0:0:0:0:
304,80,104431,1,0,0:0:0:0:
256,112,104531,1,0,0:0:0:0:
208,144,104631,1,0,0:0:0:0:
160,112,104731,1,0,0:0:0:0:
112,80,104831,1,0,0:0:0:0:
64,48,104931,1,0,0:0:0:0:
64,176,105131,5,0,0:0:0:0:
144,336,105331,1,0,0:0:0:0:
128,160,105531,1,0,0:0:0:0:
208,320,105731,2,0,L|256:384,2,55.2499974708558
272,208,106131,1,0,0:0:0:0:
384,128,106331,1,0,0:0:0:0:
480,48,106531,1,0,0:0:0:0:
256,96,106731,5,0,0:0:0:0:
48,144,106931,1,0,0:0:0:0:
192,304,107131,1,0,0:0:0:0:
416,304,107331,1,0,0:0:0:0:
368,304,107431,1,0,0:0:0:0:
320,304,107531,1,0,0:0:0:0:
320,176,107731,1,0,0:0:0:0:
448,176,107931,1,0,0:0:0:0:
352,96,108131,1,0,0:0:0:0:
224,96,108331,5,0,0:0:0:0:
96,144,108531,1,0,0:0:0:0:
144,192,108631,1,0,0:0:0:0:
192,240,108731,1,0,0:0:0:0:
212,192,108931,1,0,0:0:0:0:
144,192,109031,1,0,0:0:0:0:
77,192,109131,1,0,0:0:0:0:
96,239,109331,1,0,0:0:0:0:
143,192,109431,1,0,0:0:0:0:
192,144,109531,1,0,0:0:0:0:
256,304,109731,1,0,0:0:0:0:
432,336,109931,5,0,0:0:0:0:
400,304,110031,1,0,0:0:0:0:
432,272,110131,1,0,0:0:0:0:
400,240,110231,1,0,0:0:0:0:
432,208,110331,1,0,0:0:0:0:
400,176,110431,1,0,0:0:0:0:
432,144,110531,1,0,0:0:0:0:
433,145,110731,5,0,0:0:0:0:
400,176,110831,1,0,0:0:0:0:
368,145,110931,1,0,0:0:0:0:
335,176,111031,1,0,0:0:0:0:
304,145,111131,1,0,0:0:0:0:
272,176,111231,1,0,0:0:0:0:
240,145,111331,1,0,0:0:0:0:
128,288,111531,5,0,0:0:0:0:
256,224,111731,1,0,0:0:0:0:
384,160,111931,1,0,0:0:0:0:
304,272,112131,1,0,0:0:0:0:
432,208,112331,1,0,0:0:0:0:
336,112,112531,1,0,0:0:0:0:
224,48,112731,1,0,0:0:0:0:
224,176,112931,1,0,0:0:0:0:
224,304,113131,5,0,0:0:0:0:
352,304,113331,1,0,0:0:0:0:
368,272,113431,1,0,0:0:0:0:
384,240,113531,1,0,0:0:0:0:
352,304,113731,1,0,0:0:0:0:
368,272,113831,1,0,0:0:0:0:
384,240,113931,1,0,0:0:0:0:
352,304,114131,1,0,0:0:0:0:
368,272,114231,1,0,0:0:0:0:
384,240,114331,1,0,0:0:0:0:
400,208,114431,1,0,0:0:0:0:
416,176,114531,1,0,0:0:0:0:
320,96,114731,5,0,0:0:0:0:
192,96,114931,2,0,L|192:160,2,55.2499974708558
320,96,115331,1,0,0:0:0:0:
320,96,115531,1,0,0:0:0:0:
448,96,115731,2,0,L|448:160,2,55.2499974708558
320,144,116131,1,0,0:0:0:0:
208,208,116331,1,0,0:0:0:0:
336,208,116531,1,0,0:0:0:0:
224,272,116731,1,0,0:0:0:0:
352,272,116931,1,0,0:0:0:0:
480,272,117131,5,0,0:0:0:0:
464,208,117231,1,0,0:0:0:0:
448,144,117331,1,0,0:0:0:0:
432,80,117431,1,0,0:0:0:0:
384,128,117531,1,0,0:0:0:0:
336,176,117631,1,0,0:0:0:0:
288,224,117731,1,0,0:0:0:0:
208,160,117931,5,0,0:0:0:0:
80,160,118131,1,0,0:0:0:0:
190,115,118331,1,0,0:0:0:0:
99,205,118531,1,0,0:0:0:0:
144,96,118731,1,0,0:0:0:0:
144,224,118931,1,0,0:0:0:0:
99,114,119131,1,0,0:0:0:0:
189,205,119331,1,0,0:0:0:0:
336,304,119531,5,8,0:0:0:0:
464,304,119731,1,0,0:0:0:0:
288,304,119931,1,0,0:0:0:0:
288,176,120131,1,0,0:0:0:0:
288,48,120331,1,0,0:0:0:0:
288,48,120531,1,0,0:0:0:0:
336,48,120631,1,0,0:0:0:0:
352,96,120731,1,0,0:0:0:0:
224,144,120931,1,0,0:0:0:0:
304,256,121131,5,8,0:0:0:0:
176,256,121331,1,0,0:0:0:0:
352,256,121531,1,0,0:0:0:0:
224,256,121731,1,0,0:0:0:0:
256,128,121931,1,0,0:0:0:0:
256,128,122131,1,0,0:0:0:0:
256,80,122231,1,0,0:0:0:0:
304,64,122331,1,0,0:0:0:0:
368,176,122531,1,0,0:0:0:0:
432,288,122731,5,0,0:0:0:0:
304,288,122931,1,0,0:0:0:0:
416,224,123131,1,0,0:0:0:0:
288,224,123331,1,0,0:0:0:0:
400,160,123531,1,0,0:0:0:0:
400,160,123731,1,0,0:0:0:0:
400,112,123831,1,0,0:0:0:0:
352,96,123931,1,0,0:0:0:0:
256,192,124131,1,0,0:0:0:0:
160,96,124331,5,0,0:0:0:0:
160,224,124531,1,0,0:0:0:0:
160,48,124731,1,0,0:0:0:0:
160,176,124931,1,0,0:0:0:0:
160,304,125131,1,0,0:0:0:0:
160,304,125331,1,0,0:0:0:0:
160,352,125431,1,0,0:0:0:0:
208,368,125531,1,0,0:0:0:0:
288,256,125731,1,0,0:0:0:0:
368,144,125931,5,0,0:0:0:0:
464,240,126131,1,0,0:0:0:0:
368,144,126331,1,0,0:0:0:0:
272,48,126531,1,0,0:0:0:0:
176,144,126731,1,0,0:0:0:0:
176,144,126931,1,0,0:0:0:0:
224,144,127031,1,0,0:0:0:0:
240,192,127131,1,0,0:0:0:0:
128,272,127331,1,0,0:0:0:0:
256,336,127531,5,0,0:0:0:0:
384,304,127731,1,0,0:0:0:0:
256,272,127931,1,0,0:0:0:0:
384,240,128131,1,0,0:0:0:0:
384,112,128331,1,0,0:0:0:0:
384,112,128531,1,0,0:0:0:0:
368,160,128631,1,0,0:0:0:0:
320,176,128731,1,0,0:0:0:0:
256,48,128931,1,0,0:0:0:0:
128,32,129131,5,0,0:0:0:0:
48,144,129331,1,0,0:0:0:0:
176,96,129531,1,0,0:0:0:0:
112,208,129731,1,0,0:0:0:0:
208,304,129931,1,0,0:0:0:0:
208,304,130131,1,0,0:0:0:0:
160,304,130231,1,0,0:0:0:0:
144,256,130331,1,0,0:0:0:0:
256,192,130531,1,0,0:0:0:0:
352,288,130731,5,0,0:0:0:0:
352,288,130931,1,0,0:0:0:0:
352,288,131131,1,0,0:0:0:0:
352,288,131331,1,0,0:0:0:0:
352,288,131531,1,0,0:0:0:0:
352,288,131731,1,0,0:0:0:0:
352,288,131831,1,0,0:0:0:0:
352,288,131931,1,0,0:0:0:0:
352,288,132131,1,0,0:0:0:0:
352,160,132331,5,0,0:0:0:0:
352,160,132531,1,0,0:0:0:0:
352,160,132731,1,0,0:0:0:0:
352,160,132931,1,0,0:0:0:0:
352,160,133131,1,0,0:0:0:0:
352,160,133331,1,0,0:0:0:0:
352,160,133431,1,0,0:0:0:0:
352,160,133531,1,0,0:0:0:0:
352,160,133731,1,0,0:0:0:0:
352,32,133931,5,0,0:0:0:0:
352,32,134131,1,0,0:0:0:0:
352,32,134331,1,0,0:0:0:0:
352,32,134531,1,0,0:0:0:0:
352,32,134731,1,0,0:0:0:0:
352,32,134931,1,0,0:0:0:0:
352,32,135031,1,0,0:0:0:0:
352,32,135131,1,0,0:0:0:0:
352,32,135331,1,0,0:0:0:0:
224,32,135531,5,0,0:0:0:0:
224,32,135731,1,0,0:0:0:0:
224,32,135931,1,0,0:0:0:0:
224,32,136131,1,0,0:0:0:0:
224,32,136331,1,0,0:0:0:0:
224,32,136531,1,0,0:0:0:0:
224,32,136631,1,0,0:0:0:0:
224,32,136731,1,0,0:0:0:0:
224,32,136931,1,0,0:0:0:0:
96,32,137131,5,0,0:0:0:0:
96,32,137331,1,0,0:0:0:0:
96,32,137531,1,0,0:0:0:0:
96,32,137731,1,0,0:0:0:0:
96,32,137931,1,0,0:0:0:0:
96,32,138131,1,0,0:0:0:0:
96,32,138231,1,0,0:0:0:0:
96,32,138331,1,0,0:0:0:0:
96,32,138531,1,0,0:0:0:0:
96,160,138731,5,0,0:0:0:0:
96,160,138931,1,0,0:0:0:0:
96,160,139131,1,0,0:0:0:0:
96,160,139331,1,0,0:0:0:0:
96,160,139531,1,0,0:0:0:0:
96,160,139731,1,0,0:0:0:0:
96,160,139831,1,0,0:0:0:0:
96,160,139931,1,0,0:0:0:0:
96,160,140131,1,0,0:0:0:0:
96,288,140331,5,0,0:0:0:0:
96,288,140531,1,0,0:0:0:0:
96,288,140731,1,0,0:0:0:0:
96,288,140931,1,0,0:0:0:0:
96,288,141131,1,0,0:0:0:0:
96,288,141331,1,0,0:0:0:0:
96,288,141431,1,0,0:0:0:0:
96,288,141531,1,0,0:0:0:0:
96,288,141731,1,0,0:0:0:0:
224,288,141931,5,0,0:0:0:0:
224,288,142131,1,0,0:0:0:0:
224,288,142331,1,0,0:0:0:0:
224,288,142531,1,0,0:0:0:0:
224,288,142731,1,0,0:0:0:0:
224,288,142931,1,0,0:0:0:0:
224,288,143031,1,0,0:0:0:0:
224,288,143131,1,0,0:0:0:0:
224,288,143331,1,0,0:0:0:0:
352,288,143531,5,0,0:0:0:0:
352,160,143731,1,0,0:0:0:0:
352,336,143931,1,0,0:0:0:0:
352,128,144131,1,0,0:0:0:0:
288,128,144331,5,0,0:0:0:0:
288,336,144531,1,0,0:0:0:0:
288,160,144731,1,0,0:0:0:0:
288,288,144931,1,0,0:0:0:0:
192,192,145131,5,0,0:0:0:0:
64,192,145331,1,0,0:0:0:0:
128,80,145531,1,0,0:0:0:0:
192,192,145731,1,0,0:0:0:0:
272,304,145931,2,0,L|320:256,1,42.5
352,224,146131,1,0,0:0:0:0:
400,176,146231,1,0,0:0:0:0:
448,128,146331,1,0,0:0:0:0:
496,256,146531,1,0,0:0:0:0:
400,336,146731,5,0,0:0:0:0:
272,336,146931,1,0,0:0:0:0:
448,336,147131,1,0,0:0:0:0:
448,208,147331,1,0,0:0:0:0:
448,80,147531,2,0,L|400:80,1,42.5
336,80,147731,1,0,0:0:0:0:
272,80,147831,1,0,0:0:0:0:
208,80,147931,1,0,0:0:0:0:
80,80,148131,1,0,0:0:0:0:
176,176,148331,5,0,0:0:0:0:
80,272,148531,1,0,0:0:0:0:
192,144,148731,1,0,0:0:0:0:
304,208,148931,1,0,0:0:0:0:
416,272,149131,2,0,L|432:208,1,42.5
448,160,149331,1,0,0:0:0:0:
464,96,149431,1,0,0:0:0:0:
480,32,149531,1,0,0:0:0:0:
448,160,149731,1,0,0:0:0:0:
320,192,149931,5,0,0:0:0:0:
192,240,150131,1,0,0:0:0:0:
64,288,150331,1,0,0:0:0:0:
224,224,150531,1,0,0:0:0:0:
96,272,150731,2,0,L|80:224,1,42.5
64,160,150931,1,0,0:0:0:0:
48,96,151031,1,0,0:0:0:0:
32,32,151131,1,0,0:0:0:0:
160,96,151331,1,0,0:0:0:0:
288,160,151531,5,0,0:0:0:0:
416,208,151731,1,0,0:0:0:0:
288,256,151931,1,0,0:0:0:0:
416,304,152131,1,0,0:0:0:0:
288,352,152331,2,0,L|224:336,1,42.5
176,320,152531,1,0,0:0:0:0:
112,304,152631,1,0,0:0:0:0:
48,288,152731,1,0,0:0:0:0:
176,256,152931,1,0,0:0:0:0:
304,224,153131,5,0,0:0:0:0:
368,112,153331,1,0,0:0:0:0:
288,256,153531,1,0,0:0:0:0:
416,304,153731,1,0,0:0:0:0:
288,336,153931,2,0,L|208:336,1,42.5
176,336,154131,1,0,0:0:0:0:
112,336,154231,1,0,0:0:0:0:
64,288,154331,1,0,0:0:0:0:
176,208,154531,1,0,0:0:0:0:
176,336,154731,5,0,0:0:0:0:
272,240,154931,1,0,0:0:0:0:
400,240,155131,1,0,0:0:0:0:
288,160,155331,1,0,0:0:0:0:
176,80,155531,2,0,L|144:128,1,42.5
112,176,155731,1,0,0:0:0:0:
64,224,155831,1,0,0:0:0:0:
16,272,155931,1,0,0:0:0:0:
144,272,156131,1,0,0:0:0:0:
272,272,156331,5,0,0:0:0:0:
160,352,156531,1,0,0:0:0:0:
288,352,156731,1,0,0:0:0:0:
416,352,156931,1,0,0:0:0:0:
304,272,157131,2,0,L|320:224,1,42.5
336,160,157331,1,0,0:0:0:0:
352,96,157431,1,0,0:0:0:0:
368,32,157531,1,0,0:0:0:0:
464,128,157731,1,0,0:0:0:0:
464,256,157931,5,0,0:0:0:0:
336,256,158131,1,0,0:0:0:0:
208,256,158331,1,0,0:0:0:0:
336,256,158531,1,0,0:0:0:0:
336,128,158731,1,0,0:0:0:0:
336,256,158931,1,0,0:0:0:0:
336,192,159031,1,0,0:0:0:0:
336,128,159131,1,0,0:0:0:0:
336,256,159331,1,0,0:0:0:0:
352,128,159531,5,0,0:0:0:0:
224,128,159731,1,0,0:0:0:0:
96,128,159931,1,0,0:0:0:0:
224,128,160131,1,0,0:0:0:0:
224,256,160331,1,0,0:0:0:0:
224,128,160531,1,0,0:0:0:0:
224,192,160631,1,0,0:0:0:0:
224,256,160731,1,0,0:0:0:0:
224,128,160931,1,0,0:0:0:0:
352,128,161131,5,0,0:0:0:0:
480,128,161331,1,0,0:0:0:0:
352,128,161531,1,0,0:0:0:0:
224,128,161731,1,0,0:0:0:0:
224,256,161931,1,0,0:0:0:0:
224,128,162131,1,0,0:0:0:0:
224,192,162231,1,0,0:0:0:0:
224,256,162331,1,0,0:0:0:0:
224,128,162531,1,0,0:0:0:0:
352,128,162731,5,0,0:0:0:0:
480,128,162931,1,0,0:0:0:0:
352,128,163131,1,0,0:0:0:0:
352,256,163331,1,0,0:0:0:0:
224,256,163531,1,0,0:0:0:0:
352,256,163731,1,0,0:0:0:0:
288,256,163831,1,0,0:0:0:0:
224,256,163931,1,0,0:0:0:0:
352,256,164131,1,0,0:0:0:0:
224,256,164331,5,0,0:0:0:0:
96,256,164531,1,0,0:0:0:0:
96,128,164731,1,0,0:0:0:0:
224,128,164931,1,0,0:0:0:0:
224,256,165131,1,0,0:0:0:0:
224,128,165331,1,0,0:0:0:0:
224,192,165431,1,0,0:0:0:0:
224,256,165531,1,0,0:0:0:0:
224,128,165731,1,0,0:0:0:0:
352,128,165931,5,0,0:0:0:0:
352,256,166131,1,0,0:0:0:0:
224,256,166331,1,0,0:0:0:0:
96,256,166531,1,0,0:0:0:0:
96,128,166731,1,0,0:0:0:0:
96,256,166931,1,0,0:0:0:0:
96,192,167031,1,0,0:0:0:0:
96,128,167131,1,0,0:0:0:0:
96,256,167331,1,0,0:0:0:0:
224,256,167531,5,0,0:0:0:0:
352,256,167731,1,0,0:0:0:0:
224,256,167931,1,0,0:0:0:0:
96,256,168131,1,0,0:0:0:0:
96,128,168331,1,0,0:0:0:0:
96,256,168531,1,0,0:0:0:0:
96,192,168631,1,0,0:0:0:0:
96,128,168731,1,0,0:0:0:0:
96,256,168931,1,0,0:0:0:0:
240,144,169131,5,0,0:0:0:0:
240,320,169331,1,0,0:0:0:0:
240,96,169531,1,0,0:0:0:0:
240,272,169731,1,0,0:0:0:0:
416,272,169931,1,0,0:0:0:0:
240,272,170131,1,0,0:0:0:0:
304,272,170231,1,0,0:0:0:0:
368,272,170331,1,0,0:0:0:0:
240,272,170531,1,0,0:0:0:0:
240,144,170731,5,0,0:0:0:0:
112,160,170931,1,0,0:0:0:0:
128,288,171131,1,0,0:0:0:0:
256,272,171331,1,0,0:0:0:0:
240,144,171531,1,0,0:0:0:0:
368,192,171731,2,0,L|384:144,2,42.5
256,272,172131,1,0,0:0:0:0:
384,320,172331,5,0,0:0:0:0:
368,192,172531,1,0,0:0:0:0:
352,64,172731,1,0,0:0:0:0:
224,80,172931,1,0,0:0:0:0:
240,208,173131,1,0,0:0:0:0:
256,336,173331,2,0,L|192:336,2,42.5
128,336,173731,1,0,0:0:0:0:
112,208,173931,5,0,0:0:0:0:
112,80,174131,1,0,0:0:0:0:
176,208,174331,1,0,0:0:0:0:
176,80,174531,1,0,0:0:0:0:
240,208,174731,1,0,0:0:0:0:
240,80,174931,2,0,L|240:16,2,42.5
304,208,175331,1,0,0:0:0:0:
368,320,175531,5,0,0:0:0:0:
432,208,175731,1,0,0:0:0:0:
368,96,175931,1,0,0:0:0:0:
240,96,176131,1,0,0:0:0:0:
160,208,176331,1,0,0:0:0:0:
240,320,176531,2,0,L|192:384,2,42.5
368,320,176931,1,0,0:0:0:0:
288,208,177131,5,0,0:0:0:0:
208,96,177331,1,0,0:0:0:0:
144,208,177531,1,0,0:0:0:0:
64,320,177731,1,0,0:0:0:0:
192,320,177931,1,0,0:0:0:0:
320,320,178131,2,0,L|320:256,2,42.5
448,320,178531,1,0,0:0:0:0:
448,192,178731,5,0,0:0:0:0:
320,192,178931,1,0,0:0:0:0:
192,192,179131,1,0,0:0:0:0:
320,192,179331,1,0,0:0:0:0:
192,192,179531,2,0,L|112:192,2,42.5
192,144,179831,1,0,0:0:0:0:
192,96,179931,1,0,0:0:0:0:
320,96,180131,1,0,0:0:0:0:
320,224,180331,5,0,0:0:0:0:
320,352,180531,1,0,0:0:0:0:
192,352,180731,1,0,0:0:0:0:
64,352,180931,1,0,0:0:0:0:
64,224,181131,1,0,0:0:0:0:
192,224,181331,2,0,L|192:160,2,42.5
192,96,181731,1,0,0:0:0:0:
320,96,181931,5,0,0:0:0:0:
384,96,182131,1,0,0:0:0:0:
448,96,182331,1,0,0:0:0:0:
448,160,182431,1,0,0:0:0:0:
448,224,182531,1,0,0:0:0:0:
448,288,182631,1,0,0:0:0:0:
448,352,182731,1,0,0:0:0:0:
384,352,182931,1,0,0:0:0:0:
320,352,183131,1,0,0:0:0:0:
256,352,183331,1,0,0:0:0:0:
192,352,183531,5,0,0:0:0:0:
192,288,183731,1,0,0:0:0:0:
192,224,183931,1,0,0:0:0:0:
192,160,184131,1,0,0:0:0:0:
192,96,184331,1,0,0:0:0:0:
192,32,184531,1,0,0:0:0:0:
256,32,184631,1,0,0:0:0:0:
320,32,184731,1,0,0:0:0:0:
384,32,184931,1,0,0:0:0:0:
384,96,185131,5,0,0:0:0:0:
384,160,185331,1,0,0:0:0:0:
384,224,185531,1,0,0:0:0:0:
384,288,185731,1,0,0:0:0:0:
384,352,185931,1,0,0:0:0:0:
320,352,186131,1,0,0:0:0:0:
256,352,186231,1,0,0:0:0:0:
192,352,186331,1,0,0:0:0:0:
128,352,186531,1,0,0:0:0:0:
128,288,186731,5,0,0:0:0:0:
128,224,186931,1,0,0:0:0:0:
128,160,187131,1,0,0:0:0:0:
128,96,187331,1,0,0:0:0:0:
128,32,187531,1,0,0:0:0:0:
192,32,187731,1,0,0:0:0:0:
256,32,187831,1,0,0:0:0:0:
320,32,187931,1,0,0:0:0:0:
384,32,188131,1,0,0:0:0:0:
384,96,188331,5,0,0:0:0:0:
320,96,188531,1,0,0:0:0:0:
256,96,188731,1,0,0:0:0:0:
192,96,188931,1,0,0:0:0:0:
128,96,189131,1,0,0:0:0:0:
128,160,189231,1,0,0:0:0:0:
128,224,189331,1,0,0:0:0:0:
128,288,189431,1,0,0:0:0:0:
128,352,189531,1,0,0:0:0:0:
192,352,189731,1,0,0:0:0:0:
256,352,189931,5,0,0:0:0:0:
320,352,190131,1,0,0:0:0:0:
384,352,190331,1,0,0:0:0:0:
448,352,190531,1,0,0:0:0:0:
512,352,190731,1,0,0:0:0:0:
512,288,190931,1,0,0:0:0:0:
512,224,191031,1,0,0:0:0:0:
512,160,191131,1,0,0:0:0:0:
448,160,191331,1,0,0:0:0:0:
384,160,191531,5,0,0:0:0:0:
320,160,191731,1,0,0:0:0:0:
256,160,191931,1,0,0:0:0:0:
192,160,192131,1,0,0:0:0:0:
128,160,192331,1,0,0:0:0:0:
128,224,192431,1,0,0:0:0:0:
128,288,192531,1,0,0:0:0:0:
192,288,192631,1,0,0:0:0:0:
256,288,192731,1,0,0:0:0:0:
320,288,192931,1,0,0:0:0:0:
384,288,193131,5,0,0:0:0:0:
384,224,193331,1,0,0:0:0:0:
448,256,193531,1,0,0:0:0:0:
448,192,193731,1,0,0:0:0:0:
384,160,193931,1,0,0:0:0:0:
448,128,194131,1,0,0:0:0:0:
384,128,194231,1,0,0:0:0:0:
320,128,194331,1,0,0:0:0:0:
256,128,194531,1,0,0:0:0:0:
80,128,194731,5,0,0:0:0:0:
80,304,194931,1,0,0:0:0:0:
80,176,195131,1,0,0:0:0:0:
80,304,195331,1,0,0:0:0:0:
208,304,195531,5,0,0:0:0:0:
208,176,195731,1,0,0:0:0:0:
208,304,195931,1,0,0:0:0:0:
208,128,196131,1,0,0:0:0:0:
368,128,196331,5,0,0:0:0:0:
368,304,196531,1,0,0:0:0:0:
192,304,196731,1,0,0:0:0:0:
192,128,196931,1,0,0:0:0:0:
240,160,197031,1,0,0:0:0:0:
288,192,197131,1,0,0:0:0:0:
336,224,197231,1,0,0:0:0:0:
384,192,197331,1,0,0:0:0:0:
432,160,197431,1,0,0:0:0:0:
480,128,197531,5,0,0:0:0:0:
352,128,197731,1,0,0:0:0:0:
480,128,197931,1,0,0:0:0:0:
304,128,198131,1,0,0:0:0:0:
480,128,198331,1,0,0:0:0:0:
256,128,198531,1,0,0:0:0:0:
480,128,198731,1,0,0:0:0:0:
208,128,198931,1,0,0:0:0:0:
480,128,199131,1,0,0:0:0:0:
176,128,199331,1,0,0:0:0:0:
32,240,199531,5,0,0:0:0:0:
192,336,199731,1,0,0:0:0:0:
96,192,199931,1,0,0:0:0:0:
256,272,200131,1,0,0:0:0:0:
144,144,200331,1,0,0:0:0:0:
304,224,200531,1,0,0:0:0:0:
352,256,200631,1,0,0:0:0:0:
400,288,200731,1,0,0:0:0:0:
416,160,200931,1,0,0:0:0:0:
304,80,201131,5,0,0:0:0:0:
272,112,201231,1,0,0:0:0:0:
240,80,201331,1,0,0:0:0:0:
208,112,201431,1,0,0:0:0:0:
176,80,201531,1,0,0:0:0:0:
144,112,201631,1,0,0:0:0:0:
112,80,201731,2,0,L|112:144,1,55.2499974708558
144,176,201931,1,0,0:0:0:0:
112,208,202031,1,0,0:0:0:0:
144,240,202131,1,0,0:0:0:0:
112,272,202231,1,0,0:0:0:0:
144,304,202331,1,0,0:0:0:0:
112,336,202431,1,0,0:0:0:0:
144,368,202531,1,0,0:0:0:0:
304,288,202731,5,0,0:0:0:0:
304,288,202831,1,0,0:0:0:0:
304,288,202931,1,0,0:0:0:0:
224,192,203131,1,0,0:0:0:0:
304,80,203331,1,0,0:0:0:0:
384,192,203531,1,0,0:0:0:0:
304,288,203731,1,0,0:0:0:0:
224,192,203931,1,0,0:0:0:0:
144,80,204131,1,0,0:0:0:0:
32,160,204331,5,0,0:0:0:0:
32,160,204431,1,0,0:0:0:0:
32,160,204531,1,0,0:0:0:0:
96,272,204731,1,0,0:0:0:0:
96,272,204831,1,0,0:0:0:0:
96,272,204931,1,0,0:0:0:0:
160,384,205131,1,0,0:0:0:0:
240,272,205331,1,0,0:0:0:0:
304,384,205531,1,0,0:0:0:0:
368,272,205731,1,0,0:0:0:0:
240,272,205931,5,0,0:0:0:0:
112,224,206131,1,0,0:0:0:0:
224,160,206331,2,0,L|288:128,1,55.2499974708558
336,96,206531,1,0,0:0:0:0:
400,208,206731,1,0,0:0:0:0:
336,320,206931,1,0,0:0:0:0:
208,320,207131,1,0,0:0:0:0:
160,208,207331,1,0,0:0:0:0:
186,268,207431,1,0,0:0:0:0:
213,328,207531,5,0,0:0:0:0:
80,304,207731,1,0,0:0:0:0:
112,176,207931,1,0,0:0:0:0:
240,208,208131,1,0,0:0:0:0:
336,112,208331,1,0,0:0:0:0:
368,144,208431,1,0,0:0:0:0:
400,176,208531,2,0,L|464:176,2,42.5
368,208,208831,1,0,0:0:0:0:
336,240,208931,1,0,0:0:0:0:
208,288,209131,5,0,0:0:0:0:
144,320,209231,1,0,0:0:0:0:
80,352,209331,1,0,0:0:0:0:
96,224,209531,1,0,0:0:0:0:
112,96,209731,1,0,0:0:0:0:
176,240,209931,1,0,0:0:0:0:
208,112,210131,1,0,0:0:0:0:
320,192,210331,1,0,0:0:0:0:
432,272,210531,1,0,0:0:0:0:
304,320,210731,5,0,0:0:0:0:
304,256,210831,1,0,0:0:0:0:
320,192,210931,1,0,0:0:0:0:
368,64,211131,1,0,0:0:0:0:
240,96,211331,1,0,0:0:0:0:
112,128,211531,5,0,0:0:0:0:
176,112,211631,1,0,0:0:0:0:
240,96,211731,1,0,0:0:0:0:
144,192,211931,1,0,0:0:0:0:
272,160,212131,1,0,0:0:0:0:
400,128,212331,5,0,0:0:0:0:
384,192,212431,1,0,0:0:0:0:
368,256,212531,1,0,0:0:0:0:
256,336,212731,1,0,0:0:0:0:
128,304,212931,1,0,0:0:0:0:
224,208,213131,1,0,0:0:0:0:
320,112,213331,1,0,0:0:0:0:
352,240,213531,1,0,0:0:0:0:
224,208,213731,1,0,0:0:0:0:
96,176,213931,5,0,0:0:0:0:
160,192,214031,1,0,0:0:0:0:
224,208,214131,1,0,0:0:0:0:
128,304,214331,1,0,0:0:0:0:
256,288,214531,1,0,0:0:0:0:
384,272,214731,1,0,0:0:0:0:
256,288,214931,1,0,0:0:0:0:
384,272,215131,1,0,0:0:0:0:
512,256,215331,1,0,0:0:0:0:
480,128,215531,5,0,0:0:0:0:
432,144,215631,1,0,0:0:0:0:
384,160,215731,1,0,0:0:0:0:
288,192,215931,1,0,0:0:0:0:
192,224,216131,1,0,0:0:0:0:
368,240,216331,5,0,0:0:0:0:
320,256,216431,1,0,0:0:0:0:
272,272,216531,1,0,0:0:0:0:
176,304,216731,1,0,0:0:0:0:
80,336,216931,1,0,0:0:0:0:
96,240,217131,5,0,0:0:0:0:
112,192,217231,1,0,0:0:0:0:
128,144,217331,1,0,0:0:0:0:
144,96,217431,1,0,0:0:0:0:
160,48,217531,1,0,0:0:0:0:
256,64,217731,5,0,0:0:0:0:
240,112,217831,1,0,0:0:0:0:
224,160,217931,1,0,0:0:0:0:
304,96,218131,5,0,0:0:0:0:
288,144,218231,1,0,0:0:0:0:
272,192,218331,1,0,0:0:0:0:
352,128,218531,5,0,0:0:0:0:
336,176,218631,1,0,0:0:0:0:
320,224,218731,2,0,L|384:256,1,42.5
400,256,218931,2,0,L|368:320,1,42.5
336,256,219131,2,0,L|400:288,1,42.5
416,288,219331,2,0,L|384:352,1,42.5
320,320,219531,6,0,L|240:320,1,42.5
240,240,219731,2,0,L|240:304,1,42.5
320,288,219931,2,0,L|240:288,1,42.5
240,208,220131,2,0,L|240:272,1,42.5
176,208,220331,5,0,0:0:0:0:
128,192,220431,1,0,0:0:0:0:
112,144,220531,1,0,0:0:0:0:
128,96,220631,1,0,0:0:0:0:
160,64,220731,1,0,0:0:0:0:
192,32,220831,1,0,0:0:0:0:
224,0,220931,1,0,0:0:0:0:
256,32,221031,1,0,0:0:0:0:
288,64,221131,1,0,0:0:0:0:
320,96,221231,1,0,0:0:0:0:
336,144,221331,1,0,0:0:0:0:
320,192,221431,1,0,0:0:0:0:
272,208,221531,2,0,L|256:272,1,42.5
240,320,221731,1,0,0:0:0:0:
112,320,221931,5,0,0:0:0:0:
128,256,222031,1,0,0:0:0:0:
144,192,222131,1,0,0:0:0:0:
272,208,222331,1,0,0:0:0:0:
400,224,222531,1,0,0:0:0:0:
272,208,222731,1,0,0:0:0:0:
400,224,222931,1,0,0:0:0:0:
416,96,223131,1,0,0:0:0:0:
288,80,223331,1,0,0:0:0:0:
160,64,223531,5,0,0:0:0:0:
112,112,223631,1,0,0:0:0:0:
64,160,223731,1,0,0:0:0:0:
192,192,223931,1,0,0:0:0:0:
320,224,224131,1,0,0:0:0:0:
448,256,224331,1,0,0:0:0:0:
384,272,224431,1,0,0:0:0:0:
336,224,224531,1,0,0:0:0:0:
192,288,224731,5,0,0:0:0:0:
192,192,224931,1,0,0:0:0:0:
192,288,225131,1,0,0:0:0:0:
320,288,225331,1,0,0:0:0:0:
192,288,225531,1,0,0:0:0:0:
192,112,225731,1,0,0:0:0:0:
192,288,225931,1,0,0:0:0:0:
400,288,226131,1,0,0:0:0:0:
192,288,226331,1,0,0:0:0:0:
192,48,226531,1,0,0:0:0:0:
320,96,226731,5,0,0:0:0:0:
384,112,226831,1,0,0:0:0:0:
448,128,226931,1,0,0:0:0:0:
352,224,227131,1,0,0:0:0:0:
224,192,227331,1,0,0:0:0:0:
304,304,227531,1,0,0:0:0:0:
176,272,227731,1,0,0:0:0:0:
112,256,227831,1,0,0:0:0:0:
48,240,227931,1,0,0:0:0:0:
96,368,228131,1,0,0:0:0:0:
224,336,228331,5,0,0:0:0:0:
352,272,228531,1,0,0:0:0:0:
400,144,228731,1,0,0:0:0:0:
336,128,228831,1,0,0:0:0:0:
272,112,228931,1,0,0:0:0:0:
208,128,229031,1,0,0:0:0:0:
144,144,229131,1,0,0:0:0:0:
224,256,229331,1,0,0:0:0:0:
272,304,229431,1,0,0:0:0:0:
320,256,229531,1,0,0:0:0:0:
336,128,229731,1,0,0:0:0:0:
208,128,229931,5,0,0:0:0:0:
80,192,230131,1,0,0:0:0:0:
48,320,230331,1,0,0:0:0:0:
176,288,230531,1,0,0:0:0:0:
240,272,230631,1,0,0:0:0:0:
304,256,230731,1,0,0:0:0:0:
352,192,230931,1,0,0:0:0:0:
416,80,231131,1,0,0:0:0:0:
288,112,231331,1,0,0:0:0:0:
160,144,231531,5,0,0:0:0:0:
256,240,231731,1,0,0:0:0:0:
128,192,231931,1,0,0:0:0:0:
176,240,232031,1,0,0:0:0:0:
224,288,232131,1,0,0:0:0:0:
352,288,232331,1,0,0:0:0:0:
448,192,232531,1,0,0:0:0:0:
320,144,232731,1,0,0:0:0:0:
208,224,232931,1,0,0:0:0:0:
112,80,233131,5,0,0:0:0:0:
128,160,233231,1,0,0:0:0:0:
144,240,233331,1,0,0:0:0:0:
192,80,233531,1,0,0:0:0:0:
208,160,233631,1,0,0:0:0:0:
224,240,233731,1,0,0:0:0:0:
384,304,233931,1,0,0:0:0:0:
208,304,234131,1,0,0:0:0:0:
416,304,234331,1,0,0:0:0:0:
240,304,234531,1,0,0:0:0:0:
192,176,234731,5,0,0:0:0:0:
64,288,234931,1,0,0:0:0:0:
224,304,235131,1,0,0:0:0:0:
352,192,235331,1,0,0:0:0:0:
432,304,235531,1,0,0:0:0:0:
432,240,235631,1,0,0:0:0:0:
432,176,235731,1,0,0:0:0:0:
432,112,235831,1,0,0:0:0:0:
432,48,235931,1,0,0:0:0:0:
272,80,236131,1,0,0:0:0:0:
112,112,236331,5,0,0:0:0:0:
224,240,236531,1,0,0:0:0:0:
64,192,236731,1,0,0:0:0:0:
224,144,236931,1,0,0:0:0:0:
112,272,237131,1,0,0:0:0:0:
272,304,237331,1,0,0:0:0:0:
352,320,237431,1,0,0:0:0:0:
432,336,237531,1,0,0:0:0:0:
352,192,237731,1,0,0:0:0:0:
208,112,237931,5,0,0:0:0:0:
384,112,238131,1,0,0:0:0:0:
176,112,238331,1,0,0:0:0:0:
352,112,238531,1,0,0:0:0:0:
208,208,238731,1,0,0:0:0:0:
48,288,238931,1,0,0:0:0:0:
128,304,239031,1,0,0:0:0:0:
208,320,239131,1,0,0:0:0:0:
368,352,239331,1,0,0:0:0:0:
416,192,239531,5,0,0:0:0:0:
304,64,239731,1,0,0:0:0:0:
240,112,239831,1,0,0:0:0:0:
176,160,239931,1,0,0:0:0:0:
161,105,240131,1,0,0:0:0:0:
240,116,240231,1,0,0:0:0:0:
320,128,240331,1,0,0:0:0:0:
288,176,240531,1,0,0:0:0:0:
239,110,240631,1,0,0:0:0:0:
191,47,240731,1,0,0:0:0:0:
288,176,240931,1,0,0:0:0:0:
128,208,241131,5,0,0:0:0:0:
288,256,241331,1,0,0:0:0:0:
448,304,241531,1,0,0:0:0:0:
416,240,241631,1,0,0:0:0:0:
384,176,241731,1,0,0:0:0:0:
352,112,241831,1,0,0:0:0:0:
320,48,241931,2,0,L|256:80,1,42.5
224,96,242131,2,0,L|256:160,1,42.5
272,192,242331,1,0,0:0:0:0:
304,240,242431,1,0,0:0:0:0:
336,304,242531,1,0,0:0:0:0:
208,272,242731,6,0,L|256:288,1,42.5
336,304,242931,1,0,0:0:0:0:
464,192,243131,1,0,0:0:0:0:
368,48,243331,1,0,0:0:0:0:
320,208,243531,1,0,0:0:0:0:
224,64,243731,1,0,0:0:0:0:
192,144,243831,1,0,0:0:0:0:
160,224,243931,1,0,0:0:0:0:
288,336,244131,1,0,0:0:0:0:
464,304,244331,5,0,0:0:0:0:
400,256,244431,1,0,0:0:0:0:
336,208,244531,1,0,0:0:0:0:
188,270,244731,1,0,0:0:0:0:
262,239,244831,1,0,0:0:0:0:
336,208,244931,1,0,0:0:0:0:
192,112,245131,1,0,0:0:0:0:
32,160,245331,1,0,0:0:0:0:
176,240,245531,1,0,0:0:0:0:
336,208,245731,1,0,0:0:0:0:
432,320,245931,5,0,0:0:0:0:
304,320,246131,1,0,0:0:0:0:
176,320,246331,1,0,0:0:0:0:
144,256,246431,1,0,0:0:0:0:
112,192,246531,1,0,0:0:0:0:
192,80,246731,1,0,0:0:0:0:
256,192,246931,1,0,0:0:0:0:
112,192,247131,1,0,0:0:0:0:
256,192,247331,5,0,0:0:0:0:
368,256,247531,1,0,0:0:0:0:
256,192,247731,1,0,0:0:0:0:
144,128,247931,1,0,0:0:0:0:
256,192,248131,1,0,0:0:0:0:
160,288,248331,1,0,0:0:0:0:
208,240,248431,1,0,0:0:0:0:
256,192,248531,1,0,0:0:0:0:
304,144,248631,1,0,0:0:0:0:
352,96,248731,1,0,0:0:0:0:
256,192,248931,1,0,0:0:0:0:
