osu file format v14

[General]
AudioFilename: audio.mp3
AudioLeadIn: 0
PreviewTime: 0
Countdown: 0
SampleSet: Soft
StackLeniency: 1
Mode: 0
LetterboxInBreaks: 0
WidescreenStoryboard: 1

[Editor]
DistanceSpacing: 6
BeatDivisor: 4
GridSize: 4
TimelineZoom: 1.5

[Metadata]
Title:RED
TitleUnicode:RED
Artist:54k12
ArtistUnicode:54k12
Creator:SakiZ
Version:easier easier ZONE
Source:
Tags:
BeatmapID:1297577
BeatmapSetID:614862

[Difficulty]
HPDrainRate:5
CircleSize:4
OverallDifficulty:8.5
ApproachRate:9.1
SliderMultiplier:1.6
SliderTickRate:1

[Events]
//Background and Video events
0,0,"red.jpg",0,0
//Break Periods
//Storyboard Layer 0 (Background)
//Storyboard Layer 1 (Fail)
//Storyboard Layer 2 (Pass)
//Storyboard Layer 3 (Foreground)
//Storyboard Sound Samples

[TimingPoints]
0,375,4,2,0,50,1,0
16500,-100,4,2,0,0,0,0

[Colours]
Combo1 : 255,128,128
Combo2 : 255,0,0

[HitObjects]
204,288,0,5,2,0:0:0:0:
226,293,93,1,0,0:0:0:0:
238,313,187,1,0,0:0:0:0:
232,336,281,1,0,0:0:0:0:
212,348,375,6,0,L|168:336,3,40,8|0|0|0,0:0|0:0|0:0|0:0,0:0:0:0:
196,243,750,5,2,0:0:0:0:
217,232,843,1,0,0:0:0:0:
222,209,937,1,0,0:0:0:0:
211,189,1030,1,0,0:0:0:0:
188,184,1125,6,0,L|128:216,3,40,8|0|0|0,0:0|0:0|0:0|0:0,0:0:0:0:
159,291,1500,5,2,0:0:0:0:
152,313,1593,1,0,0:0:0:0:
132,325,1687,1,0,0:0:0:0:
109,319,1780,1,0,0:0:0:0:
96,300,1875,6,0,L|116:240,3,40,8|0|0|0,0:0|0:0|0:0|0:0,0:0:0:0:
201,284,2250,5,2,0:0:0:0:
213,305,2343,1,0,0:0:0:0:
236,311,2437,1,0,0:0:0:0:
257,300,2530,1,0,0:0:0:0:
264,276,2625,6,0,L|228:220,3,40,8|0|0|0,0:0|0:0|0:0|0:0,0:0:0:0:
151,246,3000,5,2,0:0:0:0:
143,184,3093,1,0,0:0:0:0:
181,134,3187,1,0,0:0:0:0:
243,126,3281,1,0,0:0:0:0:
293,164,3375,6,0,L|356:180,3,40,8|0|0|0,0:0|0:0|0:0|0:0,0:0:0:0:
277,219,3750,5,2,0:0:0:0:
266,198,3843,1,0,0:0:0:0:
216,159,3937,1,0,0:0:0:0:
208,95,4031,1,0,0:0:0:0:
247,44,4125,6,0,L|260:-12,3,40,8|0|0|0,0:0|0:0|0:0|0:0,0:0:0:0:
303,58,4500,5,2,0:0:0:0:
283,71,4593,1,0,0:0:0:0:
244,121,4687,1,0,0:0:0:0:
181,130,4781,1,0,0:0:0:0:
131,91,4875,6,0,L|68:72,3,40,8|0|0|0,0:0|0:0|0:0|0:0,0:0:0:0:
145,34,5250,5,2,0:0:0:0:
158,55,5344,1,0,0:0:0:0:
208,93,5437,1,0,0:0:0:0:
217,156,5531,1,0,0:0:0:0:
179,206,5625,6,0,L|160:268,3,40
152,242,6000,5,2,0:0:0:0:
152,242,6093,1,0,0:0:0:0:
152,242,6187,1,0,0:0:0:0:
152,242,6281,1,0,0:0:0:0:
152,242,6375,6,0,L|220:228,3,40,8|0|0|0,0:0|0:0|0:0|0:0,0:0:0:0:
456,195,6749,5,2,0:0:0:0:
456,195,6842,1,0,0:0:0:0:
456,195,6936,1,0,0:0:0:0:
456,195,7030,1,0,0:0:0:0:
456,195,7125,6,0,L|400:152,3,40,8|0|0|0,0:0|0:0|0:0|0:0,0:0:0:0:
207,13,7499,5,2,0:0:0:0:
207,13,7592,1,0,0:0:0:0:
207,13,7686,1,0,0:0:0:0:
207,13,7780,1,0,0:0:0:0:
207,13,7875,6,0,L|216:84,3,40,8|0|0|0,0:0|0:0|0:0|0:0,0:0:0:0:
254,317,8250,5,2,0:0:0:0:
254,317,8343,1,0,0:0:0:0:
254,317,8437,1,0,0:0:0:0:
254,317,8531,1,0,0:0:0:0:
254,317,8625,6,0,L|292:268,3,40,8|0|0|0,0:0|0:0|0:0|0:0,0:0:0:0:
435,69,9000,5,2,0:0:0:0:
470,95,9093,1,0,0:0:0:0:
478,139,9187,1,0,0:0:0:0:
451,174,9281,1,0,0:0:0:0:
408,184,9375,6,0,L|352:142,3,40,8|0|0|0,0:0|0:0|0:0|0:0,0:0:0:0:
279,49,9750,5,2,0:0:0:0:
243,22,9843,1,0,0:0:0:0:
199,29,9937,1,0,0:0:0:0:
173,65,10031,1,0,0:0:0:0:
180,109,10125,6,0,L|240:152,3,40,8|0|0|0,0:0|0:0|0:0|0:0,0:0:0:0:
345,191,10500,5,2,0:0:0:0:
380,217,10593,1,0,0:0:0:0:
386,260,10687,1,0,0:0:0:0:
360,295,10780,1,0,0:0:0:0:
317,302,10875,6,0,L|276:272,3,40,8|0|0|0,0:0|0:0|0:0|0:0,0:0:0:0:
189,170,11250,5,2,0:0:0:0:
153,143,11343,1,0,0:0:0:0:
109,150,11437,1,0,0:0:0:0:
83,186,11530,1,0,0:0:0:0:
90,230,11625,6,0,L|152:276,3,40,8|0|0|0,0:0|0:0|0:0|0:0,0:0:0:0:
255,311,12000,5,2,0:0:0:0:
451,191,12281,1,2,0:0:0:0:
255,73,12562,1,2,0:0:0:0:
255,311,12937,5,8,0:0:0:0:
451,191,13125,1,8,0:0:0:0:
255,73,13312,1,8,0:0:0:0:
60,312,13500,5,2,0:0:0:0:
256,192,13781,1,2,0:0:0:0:
60,74,14062,1,2,0:0:0:0:
60,312,14437,5,8,0:0:0:0:
256,192,14625,1,8,0:0:0:0:
60,74,14812,1,8,0:0:0:0:
451,191,15000,5,6,0:0:0:0:
256,192,15093,12,0,16500,0:0:0:0:
