osu file format v14

[General]
AudioFilename: audio.mp3
AudioLeadIn: 0
PreviewTime: 121130
Countdown: 1
SampleSet: Soft
StackLeniency: 0.7
Mode: 0
LetterboxInBreaks: 0
WidescreenStoryboard: 0

[Editor]
DistanceSpacing: 0.2
BeatDivisor: 3
GridSize: 32
TimelineZoom: 1

[Metadata]
Title:Youngblood
TitleUnicode:Youngblood
Artist:5 Seconds of Summer
ArtistUnicode:5 Seconds of Summer
Creator:Rtyzen
Version:Deadman
Source:
Tags:
BeatmapID:2062320
BeatmapSetID:985773

[Difficulty]
HPDrainRate:5
CircleSize:4
OverallDifficulty:8
ApproachRate:9
SliderMultiplier:2
SliderTickRate:1

[Events]
//Background and Video events
0,0,"bg5sos.png",0,0
//Break Periods
//Storyboard Layer 0 (Background)
//Storyboard Layer 1 (Fail)
//Storyboard Layer 2 (Pass)
//Storyboard Layer 3 (Foreground)
//Storyboard Sound Samples

[TimingPoints]
1630,500,4,2,0,30,1,0
1630,-166.666666666667,4,2,0,30,0,0
17630,-133.333333333333,4,2,0,30,0,0
33630,-100,4,2,0,30,0,0
46130,-133.333333333333,4,2,0,30,0,0
46630,-100,4,2,0,30,0,0
47130,-80,4,2,0,30,0,0
49630,-200,4,2,0,30,0,0
50130,-100,4,2,0,30,0,0
56130,-80,4,2,0,30,0,0
56630,-57.1428571428571,4,2,0,30,0,0
57630,-200,4,2,0,30,0,0
58296,-83.3333333333333,4,2,0,30,0,0
62130,-133.333333333333,4,2,0,30,0,0
62630,-100,4,2,0,30,0,0
63130,-80,4,2,0,30,0,0
65630,-200,4,2,0,30,0,0
66130,-83.3333333333333,4,2,0,30,0,0
75630,-166.666666666667,4,2,0,30,0,0
89630,-133.333333333333,4,2,0,30,0,0
105630,-83.3333333333333,4,2,0,30,0,1
110130,-133.333333333333,4,2,0,30,0,1
110630,-100,4,2,0,30,0,1
111130,-80,4,2,0,30,0,1
113630,-200,4,2,0,30,0,1
114130,-83.3333333333333,4,2,0,30,0,1
119630,-83.3333333333333,4,2,0,30,0,0
121630,-83.3333333333333,4,2,0,30,0,1
126130,-133.333333333333,4,2,0,30,0,1
126630,-100,4,2,0,30,0,1
127130,-80,4,2,0,30,0,1
129630,-200,4,2,0,30,0,1
130129,-83.3333333333333,4,2,0,30,0,1
137630,-133.333333333333,4,2,0,30,0,0
140630,-270.27027027027,4,2,0,30,0,0
141630,-100,4,2,0,30,0,0
153630,-71.4285714285714,4,2,0,30,0,1
167630,-71.4285714285714,4,2,0,30,0,0
169630,-71.4285714285714,4,2,0,30,0,1
185630,-71.4285714285714,4,2,0,30,0,0
198630,-58.8235294117647,4,2,0,30,0,0
199630,-50,4,2,0,30,0,0

[Colours]
Combo1 : 244,0,0
Combo2 : 197,197,197
Combo3 : 147,147,147

[HitObjects]
114,136,1630,6,0,B|84:131|70:117|70:117|13:159|79:264|184:215|188:143|188:143|191:54|259:37|307:71,1,439.999986572266
391,43,3630,2,0,P|374:88|346:248,1,199.999993896485
241,194,4630,2,0,P|259:240|269:321,2,119.999996337891
232,195,8630,6,0,P|250:241|260:322,1,119.999996337891
175,360,9380,1,0,0:0:0:0:
52,363,9630,6,0,B|9:336|0:288|31:237|93:214|145:248|145:248|216:290|260:242|265:208|258:175|216:137|188:202,1,439.999986572266
139,372,11630,2,0,P|230:330|329:318,1,199.999993896485
210,173,12630,2,0,P|212:219|228:291,2,119.999996337891
201,176,16630,6,0,P|203:222|219:294,1,119.999996337891
133,350,17380,1,0,0:0:0:0:
12,275,17630,6,0,P|51:251|81:239,1,75.0000028610231
85,239,18005,1,0,0:0:0:0:
92,239,18130,1,0,0:0:0:0:
156,174,18380,1,0,0:0:0:0:
185,253,18630,2,0,B|191:321|223:293|228:374,2,112.500004291535
137,129,19630,6,0,P|176:153|206:165,1,75.0000028610231
210,165,20005,1,0,0:0:0:0:
217,165,20130,1,0,0:0:0:0:
272,104,20380,1,0,0:0:0:0:
432,131,20630,2,0,P|449:172|433:219,1,75.0000028610231
298,257,21130,2,0,P|293:220|310:186,1,75.0000028610231
435,311,21630,6,0,B|318:363|280:286|283:286|286:286|227:203|119:279,1,300.000011444092
160,257,23130,2,0,P|164:311|162:345,1,75.0000028610231
4,230,23630,2,0,P|36:179|121:183,1,150.000005722046
227,260,24380,1,0,0:0:0:0:
302,285,24630,2,0,P|258:284|221:257,1,75.0000028610231
351,147,25130,2,0,P|372:185|367:231,1,75.0000028610231
189,194,25630,6,0,P|196:145|195:115,1,75.0000028610231
192,112,26005,1,0,0:0:0:0:
188,105,26130,1,0,0:0:0:0:
96,96,26380,1,0,0:0:0:0:
40,168,26630,2,0,P|40:205|46:242,1,75.0000028610231
107,307,27130,1,0,0:0:0:0:
310,314,27380,6,0,P|275:268|175:274,1,150.000005722046
10,342,28130,2,0,P|55:349|95:342,1,75.0000028610231
262,268,28630,2,0,P|217:261|177:268,1,75.0000028610231
186,364,29130,1,0,0:0:0:0:
186,364,29380,1,0,0:0:0:0:
150,186,29630,6,0,B|123:181|109:150|109:150|86:202|123:256|131:256|138:256|201:280|184:374,1,300.000011444092
185,364,31130,2,0,P|124:358|100:335,1,75.0000028610231
155,212,31630,2,0,P|216:218|240:241,1,75.0000028610231
287,286,32130,1,0,0:0:0:0:
287,286,32380,1,0,0:0:0:0:
301,375,32630,2,0,P|313:306|352:210,1,150.000005722046
340,231,33630,6,0,P|330:290|330:336,1,66.6666666666667
321,152,33963,1,0,0:0:0:0:
254,259,34130,6,0,P|244:200|244:154,1,66.6666666666667
235,338,34463,1,0,0:0:0:0:
168,231,34630,6,0,P|158:290|158:336,1,66.6666666666667
149,152,34963,1,0,0:0:0:0:
78,335,35130,6,0,P|156:310|265:316,1,133.333333333333
350,306,35630,6,0,P|317:299|284:295,1,66.6666666666667
414,350,35963,1,0,0:0:0:0:
75,318,36130,6,0,P|153:293|262:299,1,133.333333333333
283,278,36630,1,0,0:0:0:0:
284,264,36963,1,0,0:0:0:0:
480,246,37130,2,0,P|402:221|293:227,1,133.333333333333
389,105,37630,6,0,P|356:111|323:115,1,66.6666666666667
452,53,37963,1,0,0:0:0:0:
249,149,38130,6,0,P|215:147|182:142,1,66.6666666666667
323,115,38463,1,0,0:0:0:0:
102,155,38630,6,0,P|70:144|39:131,1,66.6666666666667
182,141,38963,1,0,0:0:0:0:
129,29,39130,6,0,P|195:34|257:56,1,133.333333333333
435,185,39630,6,0,P|468:183|501:178,1,66.6666666666667
355,137,39963,1,0,0:0:0:0:
503,188,40130,6,0,P|436:193|374:215,1,133.333333333333
328,290,40630,1,0,0:0:0:0:
330,304,41130,1,0,0:0:0:0:
332,318,41630,6,0,P|301:253|381:208,1,133.333333333333
401,163,42130,1,0,0:0:0:0:
475,276,42296,2,0,P|470:314|471:348,1,66.6666666666667
262,250,42630,2,0,P|262:216|257:183,1,66.6666666666667
200,318,42963,1,0,0:0:0:0:
200,318,43130,1,0,0:0:0:0:
96,349,43296,2,0,P|95:315|100:282,1,66.6666666666667
59,173,43630,6,0,P|130:197|197:166,1,133.333333333333
232,113,44130,1,0,0:0:0:0:
232,113,44463,1,0,0:0:0:0:
424,62,44630,2,0,P|384:72|330:109,1,66.6666666666667
297,29,44963,1,0,0:0:0:0:
390,162,45130,2,0,P|350:172|296:209,1,66.6666666666667
263,129,45463,1,0,0:0:0:0:
376,309,45630,6,0,P|304:279|193:278,1,133.333333333333
48,319,46130,6,0,P|63:341|105:346,1,50.0000019073487
98,345,46463,1,0,0:0:0:0:
106,187,46630,6,0,P|97:220|117:264,1,66.6666666666667
133,273,46963,1,0,0:0:0:0:
256,88,47130,6,0,P|215:104|196:165,1,83.3333333333333
213,216,47463,1,0,0:0:0:0:
479,171,47630,6,0,P|444:133|391:105,1,83.3333333333333
291,87,47963,1,0,0:0:0:0:
279,384,48130,6,0,P|330:386|387:368,1,83.3333333333333
471,310,48463,1,0,0:0:0:0:
261,186,48630,5,0,0:0:0:0:
244,271,48796,1,0,0:0:0:0:
323,244,48963,1,0,0:0:0:0:
187,207,49130,5,0,0:0:0:0:
309,324,49296,1,0,0:0:0:0:
340,164,49463,1,0,0:0:0:0:
116,277,49630,6,0,P|109:307|114:361,1,66.6666666666667
134,180,50130,6,0,P|140:129|125:59,1,66.6666666666667
60,133,50463,1,0,0:0:0:0:
1,237,50630,2,0,P|90:214|157:220,1,133.333333333333
270,235,51130,1,0,0:0:0:0:
178,126,51296,2,0,P|216:134|255:168,1,66.6666666666667
408,222,51630,6,0,P|341:223|278:243,1,133.333333333333
233,318,52130,1,0,0:0:0:0:
233,318,52463,1,0,0:0:0:0:
186,161,52630,2,0,P|201:191|203:241,1,66.6666666666667
150,285,52963,1,0,0:0:0:0:
290,82,53130,2,0,P|275:112|273:162,1,66.6666666666667
326,206,53463,1,0,0:0:0:0:
130,58,53630,6,0,P|207:62|313:17,1,133.333333333333
369,56,54130,2,0,P|399:43|359:50,1,133.333333333333
303,120,54630,1,0,0:0:0:0:
303,120,54963,1,0,0:0:0:0:
390,144,55130,6,0,P|420:156|387:133,1,133.333333333333
312,223,55630,6,0,P|319:255|319:214,1,133.333333333333
234,229,56130,6,0,P|203:262|248:230,1,166.666666666667
208,146,56630,6,0,P|146:138|217:163,1,233.333335558573
433,196,57130,6,0,P|405:99|272:83,1,233.333335558573
185,335,57630,6,0,P|226:342|266:332,1,66.6666666666667
313,283,58130,1,0,0:0:0:0:
126,177,58296,2,0,P|107:208|113:266,1,79.9999975585938
225,105,58630,2,0,P|171:62|71:83,1,159.999995117188
311,289,59130,1,0,0:0:0:0:
284,166,59296,1,0,0:0:0:0:
311,289,59463,1,0,0:0:0:0:
463,65,59630,2,0,P|386:52|323:98,1,159.999995117188
442,304,60130,2,0,P|455:250|438:206,1,79.9999975585938
407,150,60463,1,0,0:0:0:0:
123,40,60630,6,0,P|87:118|135:195,1,159.999995117188
155,257,61130,1,0,0:0:0:0:
192,347,61296,1,0,0:0:0:0:
282,310,61463,1,0,0:0:0:0:
245,220,61630,1,0,0:0:0:0:
245,220,61963,1,0,0:0:0:0:
266,145,62130,6,0,P|292:151|317:190,1,50.0000019073487
320,189,62463,1,0,0:0:0:0:
397,147,62630,6,0,P|409:171|401:222,1,66.6666666666667
381,259,62963,1,0,0:0:0:0:
479,316,63130,6,0,P|451:353|391:363,1,83.3333333333333
336,344,63463,1,0,0:0:0:0:
167,289,63630,5,0,0:0:0:0:
194,251,63796,1,0,0:0:0:0:
238,234,63963,1,0,0:0:0:0:
146,139,64130,5,0,0:0:0:0:
230,117,64296,1,0,0:0:0:0:
306,164,64463,1,0,0:0:0:0:
395,151,64630,5,0,0:0:0:0:
342,346,64796,1,0,0:0:0:0:
219,203,64963,1,0,0:0:0:0:
441,274,65130,5,0,0:0:0:0:
227,327,65296,1,0,0:0:0:0:
284,130,65463,1,0,0:0:0:0:
342,346,65630,6,0,P|349:304|344:261,1,66.6666666666667
134,210,66130,6,0,P|212:229|255:266,1,79.9999975585938
303,304,66463,1,0,0:0:0:0:
41,356,66630,2,0,P|132:320|237:318,1,159.999995117188
379,178,67130,6,0,P|389:211|375:273,1,79.9999975585938
303,304,67463,1,0,0:0:0:0:
406,73,67630,2,0,P|471:121|491:236,1,159.999995117188
176,162,68130,1,0,0:0:0:0:
176,162,68463,1,0,0:0:0:0:
280,231,68630,2,0,P|298:188|298:152,1,79.9999975585938
176,162,68963,1,0,0:0:0:0:
183,37,69130,2,0,P|136:42|105:60,1,79.9999975585938
176,162,69463,1,0,0:0:0:0:
56,193,69630,6,0,P|136:192|260:246,1,159.999995117188
445,82,70130,2,0,P|383:91|344:116,1,79.9999975585938
300,162,70463,1,0,0:0:0:0:
381,309,70630,1,0,0:0:0:0:
420,328,70796,1,0,0:0:0:0:
461,320,70963,1,0,0:0:0:0:
325,26,71130,2,0,P|275:64|254:105,1,79.9999975585938
246,169,71463,1,0,0:0:0:0:
390,342,71630,5,0,0:0:0:0:
466,297,71796,1,0,0:0:0:0:
468,211,71963,1,0,0:0:0:0:
211,15,72130,2,0,P|183:71|182:117,1,79.9999975585938
327,218,72463,1,0,0:0:0:0:
256,142,72630,5,0,0:0:0:0:
237,278,72796,1,0,0:0:0:0:
256,142,72963,1,0,0:0:0:0:
143,298,73130,5,0,0:0:0:0:
111,109,73296,1,0,0:0:0:0:
143,298,73463,1,0,0:0:0:0:
18,209,73630,5,0,0:0:0:0:
18,209,75630,2,0,P|106:230|211:298,1,199.999993896485
264,354,76630,2,0,P|308:341|287:264,2,119.999996337891
264,354,80630,6,0,P|268:296|290:234,1,119.999996337891
255,162,81380,1,0,0:0:0:0:
473,157,81630,6,0,B|483:202|454:240|411:257|353:231|315:184|360:126|367:126|376:125|403:81|409:53|396:12|338:-5|283:17|295:81,1,419.999987182618
355,125,83630,2,0,P|275:103|153:90,1,199.999993896485
150,5,84630,2,0,P|101:24|33:8,2,119.999996337891
149,17,88630,6,0,P|100:36|32:20,1,119.999996337891
178,103,89380,1,0,0:0:0:0:
100,216,89630,6,0,P|92:157|101:121,1,75.0000028610231
95,135,90005,1,0,0:0:0:0:
96,129,90130,1,0,0:0:0:0:
188,194,90380,1,0,0:0:0:0:
183,300,90630,2,0,P|140:318|80:270,2,112.500004291535
273,248,91630,6,0,P|265:284|261:325,1,75.0000028610231
188,121,92130,2,0,P|196:157|200:198,1,75.0000028610231
341,140,92630,2,0,P|387:132|426:130,1,75.0000028610231
192,19,93130,2,0,P|146:27|107:29,1,75.0000028610231
75,142,93630,6,0,B|50:146|29:132|29:132|21:194|90:226|135:184|142:184|149:184|166:108|247:107|303:155,1,375.000014305115
374,105,95130,2,0,P|381:152|370:188,1,75.0000028610231
329,267,95630,6,0,P|395:231|484:218,2,150.000005722046
121,373,97130,2,0,P|114:326|125:290,1,75.0000028610231
180,197,97630,6,0,P|132:205|81:209,1,75.0000028610231
98,206,98005,1,0,0:0:0:0:
90,205,98130,1,0,0:0:0:0:
132,113,98380,1,0,0:0:0:0:
78,30,98630,2,0,P|126:22|177:18,1,75.0000028610231
239,59,99130,1,0,0:0:0:0:
451,50,99380,6,0,P|416:20|316:39,1,150.000005722046
187,136,100130,2,0,P|235:149|274:138,1,75.0000028610231
319,35,100630,1,0,0:0:0:0:
319,35,100880,1,0,0:0:0:0:
402,0,101130,2,0,P|412:35|403:71,1,75.0000028610231
312,203,101630,6,0,B|292:232|223:218|202:179|201:121|223:73|260:42|343:30,1,300.000011444092
318,34,103130,2,0,P|269:45|221:44,1,75.0000028610231
156,27,103630,1,0,0:0:0:0:
156,27,103880,1,0,0:0:0:0:
64,146,104130,2,0,P|113:157|161:156,1,75.0000028610231
204,213,104630,5,0,0:0:0:0:
200,230,105130,1,0,0:0:0:0:
196,246,105630,6,0,P|166:180|231:129,1,159.999995117188
282,65,106130,1,0,0:0:0:0:
390,149,106296,1,0,0:0:0:0:
390,149,106463,1,0,0:0:0:0:
462,24,106630,2,0,P|473:57|458:116,1,79.9999975585938
327,285,106963,2,0,P|316:252|331:193,1,79.9999975585938
390,149,107296,1,0,0:0:0:0:
390,149,107463,1,0,0:0:0:0:
397,337,107630,6,0,P|312:305|219:298,1,159.999995117188
162,329,108130,1,0,0:0:0:0:
162,329,108463,1,0,0:0:0:0:
32,225,108630,2,0,B|53:262|94:274|94:274|132:238|192:239,1,159.999995117188
300,115,109130,2,0,P|255:82|207:69,1,79.9999975585938
152,81,109463,1,0,0:0:0:0:
298,227,109630,6,0,P|326:135|391:60,1,159.999995117188
200,22,110130,6,0,P|200:39|177:72,1,50.0000019073487
161,79,110463,1,0,0:0:0:0:
326,56,110630,6,0,P|341:105|392:123,1,66.6666666666667
395,139,110963,1,0,0:0:0:0:
205,166,111130,6,0,P|181:197|119:212,1,83.3333333333333
64,178,111463,1,0,0:0:0:0:
335,207,111630,5,0,0:0:0:0:
378,235,111796,1,0,0:0:0:0:
429,233,111963,1,0,0:0:0:0:
190,292,112130,5,0,0:0:0:0:
101,324,112296,1,0,0:0:0:0:
26,258,112463,1,0,0:0:0:0:
228,156,112630,5,0,0:0:0:0:
300,217,112796,1,0,0:0:0:0:
280,315,112963,1,0,0:0:0:0:
92,192,113130,5,0,0:0:0:0:
108,98,113296,1,0,0:0:0:0:
203,66,113463,1,0,0:0:0:0:
154,265,113630,5,0,0:0:0:0:
154,265,113963,1,0,0:0:0:0:
208,24,114130,6,0,P|221:65|294:143,1,79.9999975585938
403,167,114463,1,0,0:0:0:0:
490,177,114630,2,0,P|402:208|341:264,1,159.999995117188
365,11,115130,2,0,P|380:34|401:109,1,79.9999975585938
403,167,115463,1,0,0:0:0:0:
82,303,115630,6,0,P|93:224|188:221,1,159.999995117188
242,248,116130,1,0,0:0:0:0:
242,248,116463,1,0,0:0:0:0:
405,180,116630,2,0,P|354:165|303:182,1,79.9999975585938
242,248,116963,1,0,0:0:0:0:
264,101,117130,1,0,0:0:0:0:
208,169,117296,1,0,0:0:0:0:
242,248,117463,1,0,0:0:0:0:
382,320,117630,6,0,P|269:278|172:283,1,159.999995117188
129,322,118130,2,0,P|73:312|131:298,1,159.999995117188
209,357,118630,1,0,0:0:0:0:
209,357,118963,1,0,0:0:0:0:
152,247,119130,2,0,P|128:195|172:234,1,159.999995117188
72,298,119630,5,0,0:0:0:0:
31,212,119796,1,0,0:0:0:0:
75,133,119963,1,0,0:0:0:0:
255,172,120130,5,0,0:0:0:0:
338,230,120296,1,0,0:0:0:0:
424,178,120463,1,0,0:0:0:0:
311,92,120630,5,0,0:0:0:0:
245,268,120796,1,0,0:0:0:0:
421,334,120963,1,0,0:0:0:0:
487,158,121130,1,0,0:0:0:0:
487,158,121463,1,0,0:0:0:0:
306,165,121630,6,0,P|404:167|512:213,1,159.999995117188
479,19,122130,2,0,P|435:39|392:42,1,79.9999975585938
323,26,122463,1,0,0:0:0:0:
255,248,122630,2,0,P|180:200|84:202,1,159.999995117188
41,129,123130,5,0,0:0:0:0:
193,308,123296,1,0,0:0:0:0:
291,113,123463,1,0,0:0:0:0:
314,364,123630,2,0,P|346:273|392:207,1,159.999995117188
465,237,124130,1,0,0:0:0:0:
465,237,124463,1,0,0:0:0:0:
465,32,124630,6,0,P|416:17|366:20,1,79.9999975585938
310,56,124963,1,0,0:0:0:0:
212,135,125130,1,0,0:0:0:0:
85,90,125296,1,0,0:0:0:0:
183,11,125463,1,0,0:0:0:0:
248,260,125630,1,0,0:0:0:0:
248,260,125963,1,0,0:0:0:0:
200,362,126130,6,0,P|200:345|177:312,1,50.0000019073487
161,305,126463,1,0,0:0:0:0:
326,328,126630,6,0,P|341:279|392:261,1,66.6666666666667
395,245,126963,1,0,0:0:0:0:
205,218,127130,6,0,P|181:187|119:172,1,83.3333333333333
64,206,127463,1,0,0:0:0:0:
91,30,127630,5,0,0:0:0:0:
75,115,127796,1,0,0:0:0:0:
91,30,127963,1,0,0:0:0:0:
177,152,128129,5,0,0:0:0:0:
171,14,128296,1,0,0:0:0:0:
177,152,128463,1,0,0:0:0:0:
274,8,128629,5,0,0:0:0:0:
254,226,128796,1,0,0:0:0:0:
274,8,128963,1,0,0:0:0:0:
427,236,129129,5,0,0:0:0:0:
407,18,129296,1,0,0:0:0:0:
427,236,129463,1,0,0:0:0:0:
339,115,129629,5,0,0:0:0:0:
339,115,129963,1,0,0:0:0:0:
171,261,130129,2,0,P|229:239|294:237,1,79.9999975585938
324,264,130463,1,0,0:0:0:0:
465,0,130629,2,0,P|446:83|448:195,1,159.999995117188
155,159,131130,2,0,P|164:97|195:40,1,79.9999975585938
234,27,131464,1,0,0:0:0:0:
417,278,131630,2,0,P|324:272|229:314,1,159.999995117188
332,116,132130,1,0,0:0:0:0:
332,116,132463,1,0,0:0:0:0:
257,300,132630,6,0,P|254:246|267:205,1,79.9999975585938
332,116,132963,1,0,0:0:0:0:
407,300,133130,2,0,P|410:246|397:205,1,79.9999975585938
332,30,133463,1,0,0:0:0:0:
319,240,133630,6,0,P|237:198|115:198,1,159.999995117188
82,220,134130,2,0,P|26:210|84:196,1,159.999995117188
171,278,134630,1,0,0:0:0:0:
171,278,134963,1,0,0:0:0:0:
272,343,135130,2,0,P|327:353|278:319,1,159.999995117188
68,355,135630,5,0,0:0:0:0:
34,275,135796,1,0,0:0:0:0:
95,198,135963,1,0,0:0:0:0:
179,246,136130,1,0,0:0:0:0:
222,217,136296,1,0,0:0:0:0:
273,222,136463,1,0,0:0:0:0:
343,263,136630,1,0,0:0:0:0:
363,246,136796,1,0,0:0:0:0:
390,263,136963,1,0,0:0:0:0:
462,245,137130,1,0,0:0:0:0:
467,253,137296,1,0,0:0:0:0:
472,261,137463,1,0,0:0:0:0:
477,269,137630,6,0,P|478:237|485:194,2,50.0000019073487
389,268,138130,6,0,P|391:292|392:317,2,50.0000019073487
295,257,138630,6,0,P|296:225|303:182,3,50.0000019073487
207,256,139630,6,0,P|209:280|210:305,3,50.0000019073487
123,253,140630,6,0,P|124:221|132:182,1,49.3333345377604
107,124,141630,6,0,P|117:65|117:19,1,66.6666666666667
126,203,141963,1,0,0:0:0:0:
193,96,142130,6,0,P|203:155|203:201,1,66.6666666666667
212,17,142463,1,0,0:0:0:0:
279,124,142630,6,0,P|289:65|289:19,1,66.6666666666667
298,203,142963,1,0,0:0:0:0:
360,20,143130,1,0,0:0:0:0:
381,128,143630,6,0,P|391:69|391:23,1,66.6666666666667
400,207,143963,1,0,0:0:0:0:
462,24,144130,1,0,0:0:0:0:
472,262,145630,5,0,0:0:0:0:
442,248,145796,1,0,0:0:0:0:
409,253,145963,1,0,0:0:0:0:
342,326,146130,5,0,0:0:0:0:
312,340,146296,1,0,0:0:0:0:
279,335,146463,1,0,0:0:0:0:
212,262,146630,5,0,0:0:0:0:
182,248,146796,1,0,0:0:0:0:
149,253,146963,1,0,0:0:0:0:
82,326,147130,1,0,0:0:0:0:
47,149,147630,5,0,0:0:0:0:
77,163,147796,1,0,0:0:0:0:
110,158,147963,1,0,0:0:0:0:
177,85,148130,1,0,0:0:0:0:
177,85,148630,1,0,0:0:0:0:
260,121,148963,1,0,0:0:0:0:
256,192,150630,12,0,151463,0:0:0:0:
100,57,151630,5,0,0:0:0:0:
86,289,151796,1,0,0:0:0:0:
86,289,151880,1,0,0:0:0:0:
86,289,151963,1,0,0:0:0:0:
282,173,152130,5,0,0:0:0:0:
153,173,152296,1,0,0:0:0:0:
86,289,152463,1,0,0:0:0:0:
244,371,152630,5,0,0:0:0:0:
476,221,152796,1,0,0:0:0:0:
258,45,152963,1,0,0:0:0:0:
26,195,153129,1,0,0:0:0:0:
26,195,153630,6,0,P|116:151|290:157,1,186.666660970052
322,164,154130,1,0,0:0:0:0:
212,41,154296,1,0,0:0:0:0:
212,41,154463,1,0,0:0:0:0:
403,218,154630,2,0,P|416:155|398:113,1,93.3333304850261
316,50,154963,1,0,0:0:0:0:
183,246,155130,1,0,0:0:0:0:
341,317,155296,1,0,0:0:0:0:
341,317,155463,1,0,0:0:0:0:
218,117,155630,6,0,P|164:80|93:87,1,93.3333304850261
271,254,155963,1,0,0:0:0:0:
339,70,156130,2,0,P|393:33|464:40,1,93.3333304850261
365,270,156463,1,0,0:0:0:0:
216,130,156630,1,0,0:0:0:0:
265,30,156796,1,0,0:0:0:0:
292,218,156963,1,0,0:0:0:0:
115,147,157130,1,0,0:0:0:0:
115,147,157463,1,0,0:0:0:0:
383,105,157630,6,0,P|429:132|465:187,1,93.3333304850261
345,22,157963,1,0,0:0:0:0:
410,243,158130,6,0,P|416:295|393:357,1,93.3333304850261
453,162,158463,1,0,0:0:0:0:
279,274,158630,5,0,0:0:0:0:
234,287,158796,1,0,0:0:0:0:
189,277,158963,1,0,0:0:0:0:
231,101,159130,5,0,0:0:0:0:
313,116,159296,1,0,0:0:0:0:
356,189,159463,1,0,0:0:0:0:
108,220,159630,5,0,0:0:0:0:
66,142,159796,1,0,0:0:0:0:
151,147,159963,1,0,0:0:0:0:
59,300,160130,1,0,0:0:0:0:
116,63,160296,1,0,0:0:0:0:
231,244,160463,1,0,0:0:0:0:
311,113,160630,5,0,0:0:0:0:
81,169,160796,1,0,0:0:0:0:
298,316,160963,1,0,0:0:0:0:
205,36,161130,1,0,0:0:0:0:
205,36,161463,1,0,0:0:0:0:
381,217,161630,6,0,P|344:206|281:203,1,93.3333304850261
215,167,161963,1,0,0:0:0:0:
509,0,162130,2,0,P|479:88|477:181,1,186.666660970052
210,156,162630,2,0,P|199:117|230:74,1,93.3333304850261
303,39,162963,1,0,0:0:0:0:
401,167,163130,1,0,0:0:0:0:
242,312,163296,1,0,0:0:0:0:
242,312,163463,1,0,0:0:0:0:
86,150,163630,6,0,P|99:92|91:32,1,93.3333304850261
186,22,163963,1,0,0:0:0:0:
426,150,164130,2,0,P|413:92|421:32,1,93.3333304850261
326,22,164463,1,0,0:0:0:0:
152,226,164630,1,0,0:0:0:0:
327,325,164796,1,0,0:0:0:0:
426,150,164963,1,0,0:0:0:0:
251,51,165130,1,0,0:0:0:0:
251,51,165463,1,0,0:0:0:0:
167,233,165630,6,0,P|96:213|51:210,1,93.3333304850261
18,265,165963,1,0,0:0:0:0:
327,347,166130,2,0,P|321:239|345:100,1,186.666660970052
161,48,166630,1,0,0:0:0:0:
241,128,166796,1,0,0:0:0:0:
349,57,166963,1,0,0:0:0:0:
497,253,167130,2,0,P|389:247|250:271,1,186.666660970052
180,337,167630,5,0,0:0:0:0:
69,274,167796,1,0,0:0:0:0:
113,154,167963,1,0,0:0:0:0:
311,255,168130,5,0,0:0:0:0:
422,192,168296,1,0,0:0:0:0:
378,72,168463,1,0,0:0:0:0:
169,49,168630,5,0,0:0:0:0:
253,283,168796,1,0,0:0:0:0:
401,78,168963,1,0,0:0:0:0:
141,222,169130,1,0,0:0:0:0:
373,251,169297,1,0,0:0:0:0:
289,17,169463,1,0,0:0:0:0:
240,300,169630,6,0,P|346:275|433:287,1,186.666660970052
131,89,170130,2,0,P|127:132|101:184,1,93.3333304850261
33,229,170463,1,0,0:0:0:0:
359,115,170630,2,0,P|339:73|334:26,1,93.3333304850261
471,172,170963,1,0,0:0:0:0:
363,337,171130,1,0,0:0:0:0:
258,161,171296,1,0,0:0:0:0:
258,161,171463,1,0,0:0:0:0:
483,292,171630,6,0,P|413:263|351:263,1,93.3333304850261
295,273,171963,1,0,0:0:0:0:
378,170,172130,1,0,0:0:0:0:
134,244,172296,1,0,0:0:0:0:
166,43,172463,1,0,0:0:0:0:
37,104,172630,2,0,P|54:156|50:221,1,93.3333304850261
11,282,172963,1,0,0:0:0:0:
177,137,173130,1,0,0:0:0:0:
177,137,173463,1,0,0:0:0:0:
276,322,173630,6,0,P|355:332|395:322,1,93.3333304850261
436,278,173963,1,0,0:0:0:0:
107,82,174130,6,0,P|87:119|100:183,1,93.3333304850261
150,236,174463,1,0,0:0:0:0:
414,97,174630,6,0,P|391:61|330:40,1,93.3333304850261
259,57,174963,1,0,0:0:0:0:
252,244,175130,5,0,0:0:0:0:
325,286,175296,1,0,0:0:0:0:
323,204,175463,1,0,0:0:0:0:
206,156,175630,5,0,0:0:0:0:
180,316,175796,1,0,0:0:0:0:
293,116,175963,1,0,0:0:0:0:
112,115,176130,5,0,0:0:0:0:
337,263,176296,1,0,0:0:0:0:
368,41,176463,1,0,0:0:0:0:
127,230,176630,1,0,0:0:0:0:
410,135,176796,1,0,0:0:0:0:
143,32,176963,1,0,0:0:0:0:
273,300,177130,1,0,0:0:0:0:
273,300,177463,1,0,0:0:0:0:
225,122,177630,1,0,0:0:0:0:
294,64,177796,1,0,0:0:0:0:
366,110,177963,1,0,0:0:0:0:
83,32,178130,6,0,P|142:136|139:267,1,186.666660970052
275,80,178630,2,0,P|251:121|249:185,1,93.3333304850261
91,270,178963,1,0,0:0:0:0:
380,299,179130,2,0,P|291:263|176:279,1,186.666660970052
132,358,179630,5,0,0:0:0:0:
91,270,179796,1,0,0:0:0:0:
144,187,179963,1,0,0:0:0:0:
371,51,180130,2,0,P|301:59|251:33,1,93.3333304850261
204,20,180463,1,0,0:0:0:0:
204,20,180630,1,0,0:0:0:0:
383,189,180796,1,0,0:0:0:0:
375,35,180962,1,0,0:0:0:0:
275,259,181129,1,0,0:0:0:0:
275,259,181463,1,0,0:0:0:0:
53,184,181630,6,0,P|75:91|161:122,1,186.666660970052
409,244,182130,2,0,P|315:221|216:229,1,186.666660970052
142,277,182630,1,0,0:0:0:0:
201,353,182796,1,0,0:0:0:0:
298,316,182963,1,0,0:0:0:0:
344,22,183130,2,0,P|371:114|427:196,1,186.666660970052
143,168,183630,5,0,0:0:0:0:
162,80,183796,1,0,0:0:0:0:
249,58,183963,1,0,0:0:0:0:
315,217,184130,1,0,0:0:0:0:
235,148,184296,1,0,0:0:0:0:
315,217,184463,1,0,0:0:0:0:
195,256,184630,1,0,0:0:0:0:
396,187,184796,1,0,0:0:0:0:
195,256,184963,1,0,0:0:0:0:
322,61,185130,1,0,0:0:0:0:
324,336,185296,1,0,0:0:0:0:
90,183,185463,1,0,0:0:0:0:
322,61,185630,6,0,P|370:95|422:175,1,93.3333304850261
233,47,185963,1,0,0:0:0:0:
341,172,186130,6,0,P|365:225|370:320,1,93.3333304850261
269,115,186463,1,0,0:0:0:0:
301,277,186630,6,0,P|295:335|252:420,1,93.3333304850261
268,192,186963,1,0,0:0:0:0:
41,280,187130,6,0,P|53:176|130:96,1,186.666660970052
326,64,187630,2,0,P|263:60|199:75,1,93.3333304850261
152,42,187963,1,0,0:0:0:0:
449,66,188130,2,0,P|393:150|390:277,1,186.666660970052
349,322,188630,1,0,0:0:0:0:
394,327,188796,1,0,0:0:0:0:
438,312,188963,1,0,0:0:0:0:
302,182,189130,1,0,0:0:0:0:
202,191,189296,1,0,0:0:0:0:
152,282,189463,1,0,0:0:0:0:
317,367,189630,6,0,P|314:309|284:272,1,93.3333304850261
152,282,189963,1,0,0:0:0:0:
373,237,190130,6,0,P|329:198|282:193,1,93.3333304850261
152,282,190463,1,0,0:0:0:0:
320,105,190630,6,0,P|262:108|225:138,1,93.3333304850261
152,282,190963,1,0,0:0:0:0:
165,68,191130,6,0,P|149:163|280:205,1,186.666660970052
397,201,191630,2,0,P|356:216|309:259,1,93.3333304850261
276,149,191963,1,0,0:0:0:0:
428,333,192130,2,0,P|337:299|182:288,1,186.666660970052
172,350,192630,1,0,0:0:0:0:
111,276,192796,1,0,0:0:0:0:
170,197,192963,1,0,0:0:0:0:
428,333,193130,1,0,0:0:0:0:
421,52,193630,6,0,P|323:86|217:64,1,186.666660970052
69,64,194130,2,0,P|119:29|193:25,1,93.3333304850261
242,75,194463,1,0,0:0:0:0:
36,188,194630,2,0,P|144:157|255:199,1,186.666660970052
278,252,195130,1,0,0:0:0:0:
353,199,195296,1,0,0:0:0:0:
337,112,195463,1,0,0:0:0:0:
441,324,195630,6,0,P|348:259|270:252,1,186.666660970052
204,296,196130,1,0,0:0:0:0:
204,296,196463,1,0,0:0:0:0:
61,127,196630,1,0,0:0:0:0:
117,211,196796,1,0,0:0:0:0:
218,199,196963,1,0,0:0:0:0:
289,63,197130,1,0,0:0:0:0:
117,211,197296,1,0,0:0:0:0:
335,280,197463,1,0,0:0:0:0:
139,72,197630,6,0,P|144:122|132:202,1,93.3333304850261
100,262,197963,1,0,0:0:0:0:
373,72,198130,6,0,P|368:122|380:202,1,93.3333304850261
412,262,198463,1,0,0:0:0:0:
128,71,198630,6,0,P|133:121|121:201,1,113.333335494995
89,268,198963,1,0,0:0:0:0:
384,71,199130,6,0,P|379:121|391:201,1,113.333335494995
423,268,199463,1,0,0:0:0:0:
117,60,199630,6,0,P|122:115|109:201,1,133.333333333333
78,274,199963,1,0,0:0:0:0:
394,60,200130,6,0,P|389:115|402:201,1,133.333333333333
434,274,200463,1,0,0:0:0:0:
187,84,200630,5,0,0:0:0:0:
367,188,200796,1,0,0:0:0:0:
187,292,200963,1,0,0:0:0:0:
307,84,201130,1,0,0:0:0:0:
307,292,201296,1,0,0:0:0:0:
127,188,201463,1,0,0:0:0:0:
