osu file format v14

[General]
AudioFilename: audio.mp3
AudioLeadIn: 0
PreviewTime: -1
Countdown: 1
SampleSet: Soft
StackLeniency: 0.7
Mode: 0
LetterboxInBreaks: 0
WidescreenStoryboard: 0

[Editor]
Bookmarks: 11299,38081,45935,70752,78919
DistanceSpacing: 3.3
BeatDivisor: 4
GridSize: 4
TimelineZoom: 3.499998

[Metadata]
Title:Heikousen
TitleUnicode:平行線
Artist:5
ArtistUnicode:5
Creator:Namise
Version:Insane
Source:
Tags:
BeatmapID:1230502
BeatmapSetID:581295

[Difficulty]
HPDrainRate:8
CircleSize:4
OverallDifficulty:8
ApproachRate:9.5
SliderMultiplier:1
SliderTickRate:1

[Events]
//Background and Video events
0,0,"kkknooohhh11.png",0,0
//Break Periods
//Storyboard Layer 0 (Background)
//Storyboard Layer 1 (Fail)
//Storyboard Layer 2 (Pass)
//Storyboard Layer 3 (Foreground)
//Storyboard Sound Samples

[TimingPoints]
151,405.405405405405,4,2,0,100,1,0
151,-100,4,2,0,70,0,0
11299,-76.9230769230769,4,2,0,100,0,0
11502,-100,4,2,0,100,0,0
18799,-76.9230769230769,4,2,0,100,0,0
19407,-100,4,2,0,100,0,0
23664,-133.333333333333,4,2,0,100,0,0
28972,314.13612565445,4,2,0,100,1,0
28972,-66.6666666666667,4,2,0,100,0,0
28972,-66.6666666666667,4,2,0,80,0,0
29521,-100,4,2,0,100,0,0
30071,-66.6666666666667,4,2,0,100,0,0
38317,-62.5,4,2,0,100,0,0
41220,-100,4,2,0,100,0,0
41824,-100,4,2,0,100,0,0
44050,-62.5,4,2,0,100,0,0
44050,-62.5,4,2,0,100,0,1
44050,-62.5,4,2,0,100,0,0
47820,-62.5,4,2,0,100,0,0
47977,-62.5,4,2,0,100,0,0
49076,-58.8235294117647,4,2,0,100,0,1
58500,-62.5,4,2,0,100,0,0
59108,-62.5,4,2,0,100,0,1
59129,-58.8235294117647,4,2,0,100,0,1
60699,-66.6666666666667,4,2,0,100,0,1
64783,-58.8235294117647,4,2,0,100,0,1
75464,-66.6666666666667,4,2,0,100,0,1
77034,-58.8235294117647,4,2,0,100,0,1
82218,-50,4,2,0,100,0,1
86773,-62.5,4,2,0,100,0,0

[Colours]
Combo1 : 255,255,255
Combo2 : 128,255,255
Combo3 : 0,128,255
Combo4 : 0,0,255

[HitObjects]
92,132,151,6,0,P|104:208|120:224,1,100
252,284,961,2,0,P|264:240|248:180,1,100
196,88,1772,2,0,P|256:60|292:68,1,100
364,172,2380,2,0,P|344:196|304:204,1,50
232,224,2786,2,0,P|220:184|224:164,1,50
136,144,3191,2,0,P|112:172|100:204,1,50
224,72,3799,6,0,P|252:96|264:120,1,50
184,152,4205,2,0,P|184:184|200:212,1,50
244,268,4610,5,0,0:0:0:0:
304,176,4813,1,0,0:0:0:0:
244,72,5015,2,0,P|216:96|208:128,1,50
252,276,5421,1,0,0:0:0:0:
344,136,5623,2,0,P|368:172|376:188,1,50
172,152,6029,1,0,0:0:0:0:
152,84,6637,6,0,P|148:132|176:180,1,100
296,96,7448,2,0,P|336:76|388:100,1,100
376,212,8259,2,0,P|336:244|268:244,1,100
256,160,9069,2,0,P|224:164|184:196,1,75
124,244,9475,2,0,B|148:280|212:312|280:284,1,150
236,188,10286,2,0,P|224:156|240:116,1,75
324,88,10691,2,0,P|340:144|328:200,1,100
232,152,11299,2,0,P|224:188|240:200,1,32.4999985122681
296,232,11502,2,0,P|236:264|144:264,1,150
164,84,12921,5,0,0:0:0:0:
64,168,13123,2,0,B|120:188|152:184|160:208,1,100
72,304,13934,2,0,B|128:304|136:304|144:296,1,50
208,228,14340,2,0,P|244:252|268:256,1,50
424,260,14745,2,0,B|420:208|420:192|408:192,1,50
336,116,15150,2,0,B|320:140|300:168|280:168,1,75
196,100,15556,2,0,P|176:136|168:164,1,50
280,192,15961,2,0,P|288:152|304:128,1,50
400,104,16367,2,0,P|400:132|380:168,1,50
296,256,16772,6,0,P|272:220|256:204,1,50
184,192,17178,2,0,L|144:244,1,50
72,160,17583,2,0,P|96:104|100:100,1,50
216,64,17988,2,0,B|228:124|232:140|264:128,1,75
364,176,18394,2,0,P|360:208|344:236,1,50
248,296,18799,2,0,P|216:248|212:212,1,64.9999970245363
320,208,19205,2,0,P|312:164|276:136,1,64.9999970245363
256,192,19610,12,0,20826,0:0:0:0:
128,56,22042,6,0,P|124:120|168:196,1,150
240,240,22853,2,0,P|264:192|260:128,1,100
104,104,23664,2,0,P|120:192|140:212,1,112.500004291535
236,208,24475,2,0,P|248:160|300:124,1,112.500004291535
256,192,25286,12,0,27718,0:0:0:0:
112,120,28972,6,0,P|132:200|144:216,1,75.0000028610231
216,288,29286,2,0,P|240:244|244:216,1,75.0000028610231
352,144,29600,5,0,0:0:0:0:
256,44,29757,1,0,0:0:0:0:
176,144,29914,1,0,0:0:0:0:
272,228,30071,6,0,P|316:200|328:172,1,75.0000028610231
248,112,30385,2,0,P|208:140|168:148,1,75.0000028610231
76,108,30699,5,0,0:0:0:0:
204,36,30856,1,0,0:0:0:0:
352,112,31013,2,0,P|368:160|360:188,1,75.0000028610231
296,260,31328,5,0,0:0:0:0:
264,144,31485,2,0,P|220:176|204:224,1,75.0000028610231
128,288,31799,2,0,P|104:244|100:212,1,75.0000028610231
152,80,32113,2,0,B|199:97|208:108|232:136,1,75.0000028610231
284,248,32427,2,0,P|316:216|332:192,1,75.0000028610231
132,88,32741,1,0,0:0:0:0:
352,36,32898,1,0,0:0:0:0:
276,244,33055,1,0,0:0:0:0:
232,36,33212,1,0,0:0:0:0:
232,36,33369,6,0,P|248:72|244:112,1,75.0000028610231
152,172,33684,2,0,B|208:208|216:212|244:196,1,75.0000028610231
312,144,33998,1,0,0:0:0:0:
272,280,34155,1,0,0:0:0:0:
156,224,34312,2,0,P|152:176|168:136,1,75.0000028610231
252,40,34626,5,0,0:0:0:0:
372,184,34783,1,0,0:0:0:0:
180,224,34940,1,0,0:0:0:0:
288,132,35097,6,0,P|316:176|320:216,1,75.0000028610231
328,292,35411,2,0,L|228:284,1,75.0000028610231
120,88,35882,6,0,P|112:132|124:176,1,75.0000028610231
340,176,36197,2,0,P|324:216|300:240,1,75.0000028610231
196,292,36511,5,0,0:0:0:0:
248,136,36668,1,0,0:0:0:0:
416,232,36825,2,0,P|364:244|316:244,1,75.0000028610231
104,224,37139,5,0,0:0:0:0:
236,60,37296,1,0,0:0:0:0:
340,248,37453,1,0,0:0:0:0:
140,340,37610,6,0,L|112:264,1,75.0000028610231
176,200,37924,2,0,L|268:200,1,75.0000028610231
348,96,38317,6,0,P|340:140|328:160,1,40
268,232,38553,1,0,0:0:0:0:
176,132,38710,1,0,0:0:0:0:
296,120,38867,1,0,0:0:0:0:
136,236,39024,1,0,0:0:0:0:
128,88,39652,6,0,P|124:144|156:192,1,80
232,244,39966,2,0,L|296:176,1,80
400,56,40280,2,0,P|416:104|420:140,1,80
384,260,40595,1,0,0:0:0:0:
260,156,40752,1,0,0:0:0:0:
144,268,40909,2,0,P|132:224|136:184,1,80
232,128,41223,2,0,L|276:152,1,50
64,68,41851,6,0,P|64:112|68:128,1,50
196,216,42165,2,0,P|204:180|216:152,1,50
268,36,42479,2,0,P|300:56|324:76,1,50
444,172,42793,2,0,L|404:216,1,50
296,284,43108,2,0,L|264:224,1,50
212,116,43422,2,0,L|276:84,1,50
96,40,44050,6,0,P|96:92|104:124,1,80
224,264,44364,2,0,P|256:224|272:192,1,80
344,52,44678,2,0,L|404:112,1,80
512,264,44992,2,0,B|480:300|452:332|420:300,1,80
228,276,45307,2,0,L|300:228,1,80
436,100,45621,2,0,P|392:60|352:52,1,80
272,8,45935,1,0,0:0:0:0:
232,12,46013,1,0,0:0:0:0:
194,23,46092,1,0,0:0:0:0:
158,42,46170,1,0,0:0:0:0:
127,67,46249,5,0,0:0:0:0:
101,97,46327,1,0,0:0:0:0:
82,132,46406,1,0,0:0:0:0:
69,170,46484,1,0,0:0:0:0:
68,212,46563,6,0,P|80:260|88:276,3,40
96,288,46877,1,0,0:0:0:0:
124,315,46955,1,0,0:0:0:0:
158,337,47034,1,0,0:0:0:0:
195,351,47112,1,0,0:0:0:0:
236,352,47191,6,0,L|280:344,3,40
312,332,47506,1,0,0:0:0:0:
346,312,47584,1,0,0:0:0:0:
373,282,47663,1,0,0:0:0:0:
387,245,47741,1,0,0:0:0:0:
396,128,47820,2,0,L|300:124,1,80
108,80,49076,6,0,P|108:136|120:180,1,85.0000016212464
216,236,49390,2,0,L|208:144,1,85.0000016212464
312,52,49704,5,0,0:0:0:0:
384,216,49862,1,0,0:0:0:0:
216,116,50019,1,0,0:0:0:0:
432,140,50176,1,0,0:0:0:0:
368,272,50333,6,0,L|264:272,1,85.0000016212464
180,248,50647,2,0,P|192:196|232:168,1,85.0000016212464
384,80,50961,5,0,0:0:0:0:
316,240,51118,1,0,0:0:0:0:
192,80,51275,6,0,B|164:120|152:140|132:172,1,85.0000016212464
64,288,51589,2,0,L|184:288,1,85.0000016212464
308,272,51903,2,0,L|264:192,1,85.0000016212464
192,52,52218,5,0,0:0:0:0:
148,280,52375,1,0,0:0:0:0:
320,120,52532,1,0,0:0:0:0:
72,160,52689,1,0,0:0:0:0:
192,312,52846,6,0,L|280:236,1,85.0000016212464
416,256,53160,2,0,L|408:152,1,85.0000016212464
384,32,53474,2,0,L|280:44,1,85.0000016212464
80,136,53788,5,0,0:0:0:0:
228,248,53945,1,0,0:0:0:0:
228,60,54102,1,0,0:0:0:0:
228,60,54181,1,0,0:0:0:0:
228,60,54259,1,0,0:0:0:0:
108,176,54417,6,0,P|120:232|156:256,1,85.0000016212464
256,324,54731,1,0,0:0:0:0:
412,184,54888,1,0,0:0:0:0:
152,204,55045,1,0,0:0:0:0:
152,204,55123,1,0,0:0:0:0:
152,204,55202,1,0,0:0:0:0:
228,56,55359,6,0,L|312:92,1,85.0000016212464
392,196,55673,2,0,L|280:184,1,85.0000016212464
64,144,55987,5,0,0:0:0:0:
200,304,56144,1,0,0:0:0:0:
296,100,56301,1,0,0:0:0:0:
84,280,56458,1,0,0:0:0:0:
316,236,56615,1,0,0:0:0:0:
156,80,56773,1,0,0:0:0:0:
200,284,56930,1,0,0:0:0:0:
292,84,57087,1,0,0:0:0:0:
72,128,57244,1,0,0:0:0:0:
328,224,57401,1,0,0:0:0:0:
428,72,57558,6,0,P|432:136|424:168,1,85.0000016212464
372,292,57872,2,0,L|272:268,1,85.0000016212464
124,228,58186,1,0,0:0:0:0:
124,228,58265,1,0,0:0:0:0:
124,228,58343,1,0,0:0:0:0:
192,92,58500,2,0,P|268:96|288:120,1,80
436,184,58814,5,0,0:0:0:0:
256,300,58971,5,0,0:0:0:0:
116,196,59129,6,0,P|116:144|224:112,1,170.000003242493
396,196,59600,5,0,0:0:0:0:
264,280,59757,1,0,0:0:0:0:
272,52,59914,1,0,0:0:0:0:
136,152,60071,2,0,P|116:196|120:232,1,85.0000016212464
204,332,60385,2,0,L|308:332,1,85.0000016212464
416,200,60699,2,0,P|380:136|360:128,1,75.0000028610231
256,52,61013,5,0,0:0:0:0:
236,248,61170,1,0,0:0:0:0:
140,88,61328,1,0,0:0:0:0:
340,184,61485,1,0,0:0:0:0:
112,272,61642,1,0,0:0:0:0:
368,220,61799,1,0,0:0:0:0:
192,80,61956,1,0,0:0:0:0:
256,304,62113,1,0,0:0:0:0:
400,180,62270,6,0,P|424:128|412:96,1,75.0000028610231
344,8,62584,2,0,P|312:40|292:72,1,75.0000028610231
236,172,62898,2,0,P|296:188|328:208,1,75.0000028610231
432,256,63212,5,0,0:0:0:0:
272,320,63369,1,0,0:0:0:0:
184,208,63526,2,0,P|176:160|184:124,1,75.0000028610231
300,76,63841,2,0,L|280:148,1,75.0000028610231
224,288,64155,5,0,0:0:0:0:
104,136,64312,1,0,0:0:0:0:
352,136,64469,1,0,0:0:0:0:
352,136,64547,1,0,0:0:0:0:
352,136,64626,1,0,0:0:0:0:
424,280,64783,6,0,P|376:308|320:304,1,85.0000016212464
204,256,65097,2,0,L|276:184,1,85.0000016212464
356,96,65411,5,0,0:0:0:0:
424,260,65568,1,0,0:0:0:0:
240,236,65725,1,0,0:0:0:0:
464,128,65882,1,0,0:0:0:0:
316,296,66040,1,0,0:0:0:0:
252,116,66197,1,0,0:0:0:0:
120,232,66354,6,0,P|108:176|116:136,1,85.0000016212464
180,32,66668,2,0,L|232:104,1,85.0000016212464
332,224,66982,1,0,0:0:0:0:
352,80,67139,1,0,0:0:0:0:
152,200,67296,1,0,0:0:0:0:
152,200,67375,1,0,0:0:0:0:
152,200,67453,1,0,0:0:0:0:
224,52,67610,6,0,L|244:136,1,85.0000016212464
284,304,67924,1,0,0:0:0:0:
416,176,68081,1,0,0:0:0:0:
432,316,68239,1,0,0:0:0:0:
256,156,68396,1,0,0:0:0:0:
152,248,68553,5,0,0:0:0:0:
118,222,68631,1,0,0:0:0:0:
96,185,68710,1,0,0:0:0:0:
89,144,68788,1,0,0:0:0:0:
98,102,68867,1,0,0:0:0:0:
121,67,68945,1,0,0:0:0:0:
352,60,69181,6,0,P|344:128|328:152,1,85.0000016212464
260,248,69495,1,0,0:0:0:0:
136,144,69652,1,0,0:0:0:0:
324,140,69809,6,0,L|420:140,1,85.0000016212464
452,264,70123,2,0,B|408:288|364:284|344:260,1,85.0000016212464
248,220,70437,2,0,L|320:156,1,85.0000016212464
400,68,70752,5,0,0:0:0:0:
192,176,70909,1,0,0:0:0:0:
424,208,71066,1,0,0:0:0:0:
232,80,71223,1,0,0:0:0:0:
316,272,71380,1,0,0:0:0:0:
400,68,71537,1,0,0:0:0:0:
320,272,71694,6,0,P|280:300|240:304,1,85.0000016212464
120,268,72008,2,0,P|188:212|204:188,1,85.0000016212464
240,100,72322,2,0,L|136:116,1,85.0000016212464
28,128,72636,2,0,P|28:176|80:216,1,85.0000016212464
200,296,72951,5,0,0:0:0:0:
344,104,73108,1,0,0:0:0:0:
120,220,73265,1,0,0:0:0:0:
424,184,73422,1,0,0:0:0:0:
336,344,73579,2,0,P|268:344|228:344,1,85.0000016212464
144,312,73893,5,0,0:0:0:0:
144,312,74050,1,0,0:0:0:0:
192,216,74207,2,0,P|252:240|292:244,1,85.0000016212464
384,224,74521,2,0,P|340:168|312:152,1,85.0000016212464
220,88,74835,5,0,0:0:0:0:
136,204,74992,1,0,0:0:0:0:
308,296,75150,1,0,0:0:0:0:
224,180,75307,1,0,0:0:0:0:
136,296,75464,2,0,L|240:296,1,75.0000028610231
320,272,75778,2,0,P|264:216|252:208,1,75.0000028610231
152,108,76092,5,0,0:0:0:0:
64,320,76249,1,0,0:0:0:0:
267,218,76406,1,0,0:0:0:0:
32,216,76563,1,0,0:0:0:0:
252,328,76720,1,0,0:0:0:0:
176,88,76877,1,0,0:0:0:0:
172,224,77034,6,0,P|232:208|268:176,1,85.0000016212464
360,52,77348,1,0,0:0:0:0:
452,228,77506,1,0,0:0:0:0:
268,96,77663,1,0,0:0:0:0:
472,140,77820,1,0,0:0:0:0:
284,208,77977,1,0,0:0:0:0:
280,56,78134,1,0,0:0:0:0:
188,232,78292,1,0,0:0:0:0:
372,100,78449,1,0,0:0:0:0:
168,144,78606,1,0,0:0:0:0:
356,212,78763,1,0,0:0:0:0:
368,132,78919,1,0,0:0:0:0:
276,308,79077,1,0,0:0:0:0:
460,176,79234,1,0,0:0:0:0:
256,220,79391,1,0,0:0:0:0:
444,288,79548,1,0,0:0:0:0:
208,68,79704,1,0,0:0:0:0:
116,244,79862,1,0,0:0:0:0:
300,112,80019,1,0,0:0:0:0:
96,156,80176,1,0,0:0:0:0:
284,224,80333,1,0,0:0:0:0:
160,56,80490,1,0,0:0:0:0:
48,316,80647,1,0,0:0:0:0:
320,176,80804,1,0,0:0:0:0:
36,60,80961,1,0,0:0:0:0:
268,288,81118,1,0,0:0:0:0:
256,64,81275,1,0,0:0:0:0:
80,224,81432,1,0,0:0:0:0:
404,192,81589,1,0,0:0:0:0:
204,24,81746,1,0,0:0:0:0:
252,288,81903,1,0,0:0:0:0:
368,112,82061,1,0,0:0:0:0:
52,172,82218,1,0,0:0:0:0:
408,284,82375,1,0,0:0:0:0:
280,48,82532,1,0,0:0:0:0:
88,288,82689,1,0,0:0:0:0:
352,232,82846,1,0,0:0:0:0:
152,140,83003,1,0,0:0:0:0:
368,72,83160,1,0,0:0:0:0:
288,300,83317,1,0,0:0:0:0:
168,64,83474,1,0,0:0:0:0:
436,160,83631,1,0,0:0:0:0:
168,268,83788,1,0,0:0:0:0:
368,56,83945,1,0,0:0:0:0:
472,248,84102,1,0,0:0:0:0:
216,180,84259,1,0,0:0:0:0:
172,80,84417,1,0,0:0:0:0:
68,272,84574,1,0,0:0:0:0:
324,204,84731,1,0,0:0:0:0:
336,0,84888,1,0,0:0:0:0:
232,192,85045,1,0,0:0:0:0:
488,124,85202,1,0,0:0:0:0:
328,40,85359,1,0,0:0:0:0:
224,232,85516,1,0,0:0:0:0:
480,164,85673,1,0,0:0:0:0:
