osu file format v14

[General]
AudioFilename: audio.mp3
AudioLeadIn: 0
PreviewTime: 73760
Countdown: 0
SampleSet: Normal
StackLeniency: 0.7
Mode: 1
LetterboxInBreaks: 0
WidescreenStoryboard: 1

[Editor]
DistanceSpacing: 1
BeatDivisor: 4
GridSize: 32
TimelineZoom: 3.299999

[Metadata]
Title:Aimgalc Girl (Reslice)
TitleUnicode:Aimgalc Girl (Reslice)
Artist:4nzu
ArtistUnicode:4nzu
Creator:ler1211
Version:Muzukashii
Source:cavoe's osu! event Global Taiko Showdown
Tags:overdahedge2014 b0tch3d botched Electronic Instrumental COE COEGTS 2023 GTS COEGTS2023 Qualifiers HR2 Hard Rock 2 HardRock eminem without me magical hardcore nerdcore 4nzutekno cavoes
BeatmapID:4214872
BeatmapSetID:2023508

[Difficulty]
HPDrainRate:6
CircleSize:5
OverallDifficulty:5
ApproachRate:5
SliderMultiplier:1.4
SliderTickRate:1

[Events]
//Background and Video events
0,0,"aimgalc-mapbg.png",0,-13
//Break Periods
//Storyboard Layer 0 (Background)
//Storyboard Layer 1 (Fail)
//Storyboard Layer 2 (Pass)
//Storyboard Layer 3 (Foreground)
//Storyboard Layer 4 (Overlay)
//Storyboard Sound Samples

[TimingPoints]
2135,267.260579064588,4,1,0,100,1,0
3204,267.260579064588,4,1,0,100,1,0
20308,-100,4,1,0,100,0,0
37413,-100,4,1,0,100,0,0
54584,-100,4,1,0,80,0,0
58727,-100,4,1,0,100,0,0
58794,-100,4,1,0,100,0,1
71622,-100,4,1,0,100,0,0
71756,-100,4,1,0,80,0,0
73694,-100,4,1,0,90,0,0
74228,-100,4,1,0,100,0,0
75898,-100,4,1,0,100,0,1
93003,-100,4,1,0,100,0,0
93137,-100,4,1,0,80,0,0
101489,-100,4,1,0,100,0,0
110108,-100,4,1,0,100,0,1
127212,-100,4,1,0,100,0,0
127346,-125,4,1,0,60,0,0
139774,-125,4,1,0,50,0,0
146589,-125,4,1,0,40,0,0
148593,-125,4,1,0,30,0,0

[HitObjects]
256,192,2135,5,4,0:0:0:0:
256,192,2402,1,8,0:0:0:0:
256,192,2669,1,0,0:0:0:0:
256,192,2736,1,0,0:0:0:0:
256,192,2803,1,0,0:0:0:0:
256,192,2936,1,8,0:0:0:0:
256,192,3070,1,8,0:0:0:0:
256,192,3204,1,4,0:0:0:0:
256,192,3471,1,8,0:0:0:0:
256,192,3738,1,0,0:0:0:0:
256,192,3872,1,0,0:0:0:0:
256,192,4005,1,8,0:0:0:0:
256,192,4273,1,0,0:0:0:0:
256,192,4540,1,8,0:0:0:0:
256,192,4673,1,8,0:0:0:0:
256,192,4807,1,0,0:0:0:0:
256,192,5074,1,8,0:0:0:0:
256,192,5342,1,0,0:0:0:0:
256,192,5609,1,8,0:0:0:0:
256,192,5743,1,8,0:0:0:0:
256,192,5876,1,0,0:0:0:0:
256,192,6143,1,8,0:0:0:0:
256,192,6411,1,0,0:0:0:0:
256,192,6544,1,0,0:0:0:0:
256,192,6678,1,8,0:0:0:0:
256,192,6945,1,0,0:0:0:0:
256,192,7079,1,0,0:0:0:0:
256,192,7212,1,8,0:0:0:0:
256,192,7279,1,8,0:0:0:0:
256,192,7346,1,8,0:0:0:0:
256,192,7480,1,0,0:0:0:0:
256,192,7747,1,8,0:0:0:0:
256,192,8014,1,0,0:0:0:0:
256,192,8148,1,0,0:0:0:0:
256,192,8281,1,8,0:0:0:0:
256,192,8549,1,0,0:0:0:0:
256,192,8682,1,0,0:0:0:0:
256,192,8816,1,8,0:0:0:0:
256,192,8950,1,8,0:0:0:0:
256,192,9083,1,0,0:0:0:0:
256,192,9351,1,8,0:0:0:0:
256,192,9618,1,0,0:0:0:0:
256,192,9885,1,8,0:0:0:0:
256,192,10019,1,8,0:0:0:0:
256,192,10152,1,0,0:0:0:0:
256,192,10286,1,0,0:0:0:0:
256,192,10420,1,8,0:0:0:0:
256,192,10687,1,0,0:0:0:0:
256,192,10820,1,0,0:0:0:0:
256,192,10954,1,8,0:0:0:0:
256,192,11088,1,8,0:0:0:0:
256,192,11221,1,0,0:0:0:0:
256,192,11355,1,8,0:0:0:0:
256,192,11422,1,8,0:0:0:0:
256,192,11489,1,8,0:0:0:0:
256,192,11622,1,8,0:0:0:0:
256,192,11756,1,4,0:0:0:0:
256,192,12023,1,8,0:0:0:0:
256,192,12157,1,8,0:0:0:0:
256,192,12290,1,0,0:0:0:0:
256,192,12424,1,0,0:0:0:0:
256,192,12558,1,8,0:0:0:0:
256,192,12825,1,0,0:0:0:0:
256,192,12959,1,0,0:0:0:0:
256,192,13092,1,8,0:0:0:0:
256,192,13226,1,8,0:0:0:0:
256,192,13359,1,0,0:0:0:0:
256,192,13627,1,8,0:0:0:0:
256,192,13894,1,0,0:0:0:0:
256,192,14161,1,8,0:0:0:0:
256,192,14295,1,8,0:0:0:0:
256,192,14428,1,0,0:0:0:0:
256,192,14562,1,0,0:0:0:0:
256,192,14696,1,8,0:0:0:0:
256,192,14963,1,0,0:0:0:0:
256,192,15097,1,0,0:0:0:0:
256,192,15230,1,8,0:0:0:0:
256,192,15364,1,8,0:0:0:0:
256,192,15498,1,0,0:0:0:0:
256,192,15564,1,0,0:0:0:0:
256,192,15631,1,0,0:0:0:0:
256,192,15765,1,8,0:0:0:0:
256,192,15832,1,8,0:0:0:0:
256,192,15898,1,8,0:0:0:0:
256,192,16032,1,4,0:0:0:0:
256,192,16299,1,8,0:0:0:0:
256,192,16567,1,0,0:0:0:0:
256,192,16834,1,8,0:0:0:0:
256,192,17101,1,0,0:0:0:0:
256,192,17368,1,8,0:0:0:0:
256,192,17636,1,0,0:0:0:0:
256,192,17903,1,8,0:0:0:0:
256,192,18037,1,8,0:0:0:0:
256,192,18170,1,0,0:0:0:0:
256,192,18304,1,0,0:0:0:0:
256,192,18437,1,8,0:0:0:0:
256,192,18571,1,0,0:0:0:0:
256,192,18705,1,8,0:0:0:0:
256,192,18771,1,8,0:0:0:0:
256,192,18838,1,8,0:0:0:0:
256,192,18905,1,8,0:0:0:0:
256,192,18972,1,8,0:0:0:0:
256,192,19239,1,0,0:0:0:0:
256,192,19506,1,8,0:0:0:0:
256,192,19907,1,0,0:0:0:0:
256,192,20041,1,8,0:0:0:0:
256,192,20308,1,4,0:0:0:0:
256,192,20575,1,8,0:0:0:0:
256,192,20843,1,0,0:0:0:0:
256,192,20976,1,0,0:0:0:0:
256,192,21110,1,8,0:0:0:0:
256,192,21377,1,0,0:0:0:0:
256,192,21645,1,8,0:0:0:0:
256,192,21778,1,8,0:0:0:0:
256,192,21912,1,0,0:0:0:0:
256,192,22045,1,0,0:0:0:0:
256,192,22179,1,8,0:0:0:0:
256,192,22313,1,0,0:0:0:0:
256,192,22580,1,0,0:0:0:0:
256,192,22647,1,0,0:0:0:0:
256,192,22714,1,0,0:0:0:0:
256,192,22847,1,8,0:0:0:0:
256,192,22981,1,0,0:0:0:0:
256,192,23248,1,8,0:0:0:0:
256,192,23515,1,8,0:0:0:0:
256,192,23649,1,0,0:0:0:0:
256,192,23783,1,8,0:0:0:0:
256,192,23916,1,8,0:0:0:0:
256,192,24050,1,0,0:0:0:0:
256,192,24317,1,8,0:0:0:0:
256,192,24451,1,0,0:0:0:0:
256,192,24518,1,0,0:0:0:0:
256,192,24584,1,0,0:0:0:0:
256,192,24718,1,0,0:0:0:0:
256,192,24852,1,8,0:0:0:0:
256,192,25119,1,0,0:0:0:0:
256,192,25386,1,8,0:0:0:0:
256,192,25653,1,0,0:0:0:0:
256,192,25787,1,8,0:0:0:0:
256,192,25921,1,0,0:0:0:0:
256,192,25988,1,0,0:0:0:0:
256,192,26054,1,0,0:0:0:0:
256,192,26188,1,8,0:0:0:0:
256,192,26455,1,8,0:0:0:0:
256,192,26589,1,8,0:0:0:0:
256,192,26722,1,0,0:0:0:0:
256,192,26856,1,8,0:0:0:0:
256,192,26923,1,8,0:0:0:0:
256,192,26990,1,8,0:0:0:0:
256,192,27257,1,0,0:0:0:0:
256,192,27391,1,0,0:0:0:0:
256,192,27524,1,8,0:0:0:0:
256,192,27792,1,0,0:0:0:0:
256,192,27925,1,0,0:0:0:0:
256,192,28059,1,8,0:0:0:0:
256,192,28192,1,0,0:0:0:0:
256,192,28259,1,0,0:0:0:0:
256,192,28326,1,0,0:0:0:0:
256,192,28593,1,8,0:0:0:0:
256,192,28727,1,8,0:0:0:0:
256,192,28861,1,4,0:0:0:0:
256,192,29128,1,8,0:0:0:0:
256,192,29395,1,0,0:0:0:0:
256,192,29529,1,0,0:0:0:0:
256,192,29662,1,8,0:0:0:0:
256,192,29930,1,0,0:0:0:0:
256,192,30063,1,0,0:0:0:0:
256,192,30197,1,12,0:0:0:0:
256,192,30464,1,12,0:0:0:0:
256,192,30731,1,12,0:0:0:0:
256,192,31132,1,12,0:0:0:0:
256,192,31400,1,0,0:0:0:0:
256,192,31533,1,8,0:0:0:0:
256,192,31800,1,8,0:0:0:0:
256,192,31934,1,0,0:0:0:0:
256,192,32001,1,0,0:0:0:0:
256,192,32068,1,0,0:0:0:0:
256,192,32201,1,0,0:0:0:0:
256,192,32335,1,8,0:0:0:0:
256,192,32469,1,8,0:0:0:0:
256,192,32602,1,0,0:0:0:0:
256,192,32736,1,0,0:0:0:0:
256,192,33137,1,4,0:0:0:0:
256,192,33404,1,8,0:0:0:0:
256,192,33538,1,8,0:0:0:0:
256,192,33671,1,0,0:0:0:0:
256,192,33805,1,0,0:0:0:0:
256,192,33939,1,8,0:0:0:0:
256,192,34206,1,0,0:0:0:0:
256,192,34339,1,0,0:0:0:0:
256,192,34473,1,8,0:0:0:0:
256,192,34607,1,8,0:0:0:0:
256,192,34740,1,0,0:0:0:0:
256,192,35008,1,8,0:0:0:0:
256,192,35275,1,0,0:0:0:0:
256,192,35408,1,0,0:0:0:0:
256,192,35542,1,8,0:0:0:0:
256,192,35676,1,8,0:0:0:0:
256,192,35809,1,0,0:0:0:0:
256,192,35876,1,0,0:0:0:0:
256,192,35943,1,0,0:0:0:0:
256,192,36010,1,0,0:0:0:0:
256,192,36077,1,0,0:0:0:0:
256,192,36344,1,0,0:0:0:0:
256,192,36745,1,8,0:0:0:0:
256,192,37413,1,4,0:0:0:0:
256,192,37814,1,0,0:0:0:0:
256,192,37947,1,8,0:0:0:0:
256,192,38081,1,0,0:0:0:0:
256,192,38215,1,8,0:0:0:0:
256,192,38482,1,8,0:0:0:0:
256,192,38616,1,0,0:0:0:0:
256,192,38749,1,0,0:0:0:0:
256,192,38883,1,0,0:0:0:0:
256,192,39016,1,8,0:0:0:0:
256,192,39150,1,0,0:0:0:0:
256,192,39284,1,0,0:0:0:0:
256,192,39551,1,0,0:0:0:0:
256,192,39685,1,8,0:0:0:0:
256,192,39818,1,0,0:0:0:0:
256,192,39952,1,8,0:0:0:0:
256,192,40086,1,8,0:0:0:0:
256,192,40219,1,0,0:0:0:0:
256,192,40353,1,8,0:0:0:0:
256,192,40486,1,8,0:0:0:0:
256,192,40620,1,0,0:0:0:0:
256,192,40887,1,0,0:0:0:0:
256,192,41155,1,8,0:0:0:0:
256,192,41288,1,8,0:0:0:0:
256,192,41422,1,8,0:0:0:0:
256,192,41555,1,8,0:0:0:0:
256,192,41689,1,0,0:0:0:0:
256,192,42090,1,0,0:0:0:0:
256,192,42224,1,8,0:0:0:0:
256,192,42357,1,0,0:0:0:0:
256,192,42491,1,8,0:0:0:0:
256,192,42624,1,8,0:0:0:0:
256,192,42892,1,0,0:0:0:0:
256,192,43025,1,0,0:0:0:0:
256,192,43159,1,0,0:0:0:0:
256,192,43293,1,8,0:0:0:0:
256,192,43426,1,0,0:0:0:0:
256,192,43560,1,0,0:0:0:0:
256,192,43827,1,0,0:0:0:0:
256,192,43961,1,8,0:0:0:0:
256,192,44094,1,0,0:0:0:0:
256,192,44362,1,8,0:0:0:0:
256,192,44495,1,0,0:0:0:0:
256,192,44629,1,8,0:0:0:0:
256,192,44763,1,0,0:0:0:0:
256,192,44896,1,0,0:0:0:0:
256,192,45030,1,8,0:0:0:0:
256,192,45163,1,8,0:0:0:0:
256,192,45431,1,0,0:0:0:0:
256,192,45564,1,0,0:0:0:0:
256,192,45698,1,8,0:0:0:0:
256,192,45965,1,4,0:0:0:0:
256,192,46366,1,8,0:0:0:0:
256,192,46500,1,0,0:0:0:0:
256,192,46567,1,0,0:0:0:0:
256,192,46633,1,0,0:0:0:0:
256,192,46767,1,8,0:0:0:0:
256,192,47034,1,0,0:0:0:0:
256,192,47168,1,0,0:0:0:0:
256,192,47302,1,8,0:0:0:0:
256,192,47435,1,8,0:0:0:0:
256,192,47702,1,0,0:0:0:0:
256,192,47836,1,8,0:0:0:0:
256,192,47970,1,8,0:0:0:0:
256,192,48103,1,0,0:0:0:0:
256,192,48371,1,8,0:0:0:0:
256,192,48504,1,0,0:0:0:0:
256,192,48638,1,8,0:0:0:0:
256,192,48705,1,8,0:0:0:0:
256,192,48771,1,8,0:0:0:0:
256,192,48905,1,8,0:0:0:0:
256,192,49039,1,0,0:0:0:0:
256,192,49172,1,8,0:0:0:0:
256,192,49440,1,0,0:0:0:0:
256,192,49841,1,0,0:0:0:0:
256,192,49974,1,8,0:0:0:0:
256,192,50241,1,0,0:0:0:0:
256,192,50308,1,0,0:0:0:0:
256,192,50375,1,0,0:0:0:0:
256,192,50509,1,8,0:0:0:0:
256,192,50642,1,8,0:0:0:0:
256,192,50776,1,0,0:0:0:0:
256,192,51043,1,8,0:0:0:0:
256,192,51177,1,8,0:0:0:0:
256,192,51310,1,0,0:0:0:0:
256,192,51444,1,0,0:0:0:0:
256,192,51578,1,8,0:0:0:0:
256,192,51711,1,0,0:0:0:0:
256,192,51979,1,0,0:0:0:0:
256,192,52112,1,8,0:0:0:0:
256,192,52379,1,0,0:0:0:0:
256,192,52513,1,0,0:0:0:0:
256,192,52647,1,8,0:0:0:0:
256,192,52780,1,8,0:0:0:0:
256,192,52914,1,0,0:0:0:0:
256,192,52981,1,0,0:0:0:0:
256,192,53048,1,0,0:0:0:0:
256,192,53181,1,8,0:0:0:0:
256,192,53449,1,4,0:0:0:0:
256,192,53716,1,8,0:0:0:0:
256,192,53983,1,0,0:0:0:0:
256,192,54050,1,0,0:0:0:0:
256,192,54117,1,0,0:0:0:0:
256,192,54250,1,8,0:0:0:0:
256,192,54384,1,8,0:0:0:0:
256,192,54518,1,4,0:0:0:0:
256,192,54785,1,0,0:0:0:0:
256,192,55052,1,8,0:0:0:0:
256,192,55186,1,8,0:0:0:0:
256,192,55319,1,8,0:0:0:0:
256,192,55453,1,8,0:0:0:0:
256,192,55587,1,0,0:0:0:0:
256,192,55854,1,0,0:0:0:0:
256,192,56121,1,8,0:0:0:0:
256,192,56255,1,8,0:0:0:0:
256,192,56388,1,8,0:0:0:0:
256,192,56522,1,8,0:0:0:0:
256,192,56656,1,0,0:0:0:0:
256,192,56923,1,0,0:0:0:0:
256,192,57190,1,8,0:0:0:0:
256,192,57324,1,8,0:0:0:0:
256,192,57457,1,8,0:0:0:0:
256,192,57591,1,8,0:0:0:0:
256,192,57725,1,0,0:0:0:0:
256,192,57858,1,0,0:0:0:0:
256,192,57992,1,8,0:0:0:0:
256,192,58259,1,0,0:0:0:0:
256,192,58326,1,0,0:0:0:0:
256,192,58393,1,0,0:0:0:0:
256,192,58526,1,8,0:0:0:0:
256,192,58794,1,4,0:0:0:0:
256,192,59061,1,8,0:0:0:0:
256,192,59328,1,0,0:0:0:0:
256,192,59462,1,0,0:0:0:0:
256,192,59596,1,8,0:0:0:0:
256,192,59729,1,8,0:0:0:0:
256,192,59863,1,0,0:0:0:0:
256,192,59930,1,0,0:0:0:0:
256,192,59996,1,0,0:0:0:0:
256,192,60130,1,8,0:0:0:0:
256,192,60397,1,0,0:0:0:0:
256,192,60531,1,0,0:0:0:0:
256,192,60665,1,8,0:0:0:0:
256,192,60932,1,8,0:0:0:0:
256,192,61065,1,0,0:0:0:0:
256,192,61199,1,8,0:0:0:0:
256,192,61333,1,8,0:0:0:0:
256,192,61466,1,0,0:0:0:0:
256,192,61734,1,8,0:0:0:0:
256,192,62001,1,0,0:0:0:0:
256,192,62135,1,0,0:0:0:0:
256,192,62268,1,8,0:0:0:0:
256,192,62335,1,8,0:0:0:0:
256,192,62402,1,8,0:0:0:0:
256,192,62535,1,0,0:0:0:0:
256,192,62803,1,0,0:0:0:0:
256,192,62869,1,0,0:0:0:0:
256,192,62936,1,0,0:0:0:0:
256,192,63070,1,8,0:0:0:0:
256,192,63471,1,0,0:0:0:0:
256,192,63604,1,0,0:0:0:0:
256,192,63872,1,8,0:0:0:0:
256,192,64005,1,8,0:0:0:0:
256,192,64139,1,0,0:0:0:0:
256,192,64273,1,0,0:0:0:0:
256,192,64406,1,8,0:0:0:0:
256,192,64673,1,0,0:0:0:0:
256,192,64807,1,0,0:0:0:0:
256,192,64941,1,8,0:0:0:0:
256,192,65074,1,0,0:0:0:0:
256,192,65141,1,0,0:0:0:0:
256,192,65208,1,0,0:0:0:0:
256,192,65342,1,0,0:0:0:0:
256,192,65475,1,8,0:0:0:0:
256,192,65743,1,0,0:0:0:0:
256,192,65876,1,8,0:0:0:0:
256,192,65943,1,8,0:0:0:0:
256,192,66010,1,8,0:0:0:0:
256,192,66143,1,8,0:0:0:0:
256,192,66277,1,0,0:0:0:0:
256,192,66411,1,0,0:0:0:0:
256,192,66544,1,8,0:0:0:0:
256,192,67079,1,8,0:0:0:0:
256,192,67346,1,4,0:0:0:0:
256,192,67613,1,8,0:0:0:0:
256,192,67747,1,0,0:0:0:0:
256,192,67881,1,0,0:0:0:0:
256,192,68148,1,8,0:0:0:0:
256,192,68281,1,8,0:0:0:0:
256,192,68415,1,0,0:0:0:0:
256,192,68549,1,8,0:0:0:0:
256,192,68682,1,0,0:0:0:0:
256,192,68749,1,0,0:0:0:0:
256,192,68816,1,0,0:0:0:0:
256,192,68950,1,0,0:0:0:0:
256,192,69217,1,8,0:0:0:0:
256,192,69484,1,0,0:0:0:0:
256,192,69751,1,8,0:0:0:0:
256,192,69885,1,8,0:0:0:0:
256,192,70019,1,0,0:0:0:0:
256,192,70286,1,8,0:0:0:0:
256,192,70353,1,8,0:0:0:0:
256,192,70420,1,8,0:0:0:0:
256,192,70553,1,0,0:0:0:0:
256,192,70687,1,0,0:0:0:0:
256,192,70820,1,8,0:0:0:0:
256,192,70954,1,8,0:0:0:0:
256,192,71088,1,0,0:0:0:0:
256,192,71221,1,8,0:0:0:0:
256,192,71355,1,8,0:0:0:0:
256,192,71622,1,4,0:0:0:0:
256,192,71890,1,8,0:0:0:0:
256,192,72157,1,0,0:0:0:0:
256,192,72424,1,8,0:0:0:0:
256,192,72558,1,8,0:0:0:0:
256,192,72691,1,0,0:0:0:0:
256,192,72959,1,8,0:0:0:0:
256,192,73226,1,0,0:0:0:0:
256,192,73493,1,8,0:0:0:0:
256,192,73627,1,8,0:0:0:0:
256,192,73760,1,0,0:0:0:0:
256,192,73894,1,0,0:0:0:0:
256,192,74028,1,8,0:0:0:0:
256,192,74161,1,0,0:0:0:0:
256,192,74295,1,8,0:0:0:0:
256,192,74362,1,8,0:0:0:0:
256,192,74428,1,8,0:0:0:0:
256,192,74495,1,8,0:0:0:0:
256,192,74562,1,8,0:0:0:0:
256,192,74829,1,0,0:0:0:0:
256,192,75097,1,8,0:0:0:0:
256,192,75364,1,0,0:0:0:0:
256,192,75498,1,0,0:0:0:0:
256,192,75631,1,8,0:0:0:0:
256,192,75898,1,4,0:0:0:0:
256,192,76166,1,8,0:0:0:0:
256,192,76433,1,0,0:0:0:0:
256,192,76567,1,0,0:0:0:0:
256,192,76700,1,8,0:0:0:0:
256,192,76834,1,0,0:0:0:0:
256,192,76967,1,0,0:0:0:0:
256,192,77235,1,8,0:0:0:0:
256,192,77368,1,8,0:0:0:0:
256,192,77502,1,0,0:0:0:0:
256,192,77569,1,0,0:0:0:0:
256,192,77636,1,0,0:0:0:0:
256,192,77769,1,8,0:0:0:0:
256,192,77903,1,0,0:0:0:0:
256,192,78170,1,0,0:0:0:0:
256,192,78304,1,8,0:0:0:0:
256,192,78571,1,0,0:0:0:0:
256,192,78838,1,8,0:0:0:0:
256,192,79106,1,8,0:0:0:0:
256,192,79239,1,0,0:0:0:0:
256,192,79373,1,8,0:0:0:0:
256,192,79640,1,0,0:0:0:0:
256,192,79774,1,0,0:0:0:0:
256,192,79907,1,8,0:0:0:0:
256,192,79974,1,8,0:0:0:0:
256,192,80041,1,8,0:0:0:0:
256,192,80175,1,0,0:0:0:0:
256,192,80308,1,0,0:0:0:0:
256,192,80442,1,8,0:0:0:0:
256,192,80709,1,0,0:0:0:0:
256,192,80976,1,8,0:0:0:0:
256,192,81110,1,0,0:0:0:0:
256,192,81244,1,8,0:0:0:0:
256,192,81377,1,0,0:0:0:0:
256,192,81511,1,8,0:0:0:0:
256,192,81778,1,0,0:0:0:0:
256,192,82045,1,8,0:0:0:0:
256,192,82179,1,0,0:0:0:0:
256,192,82246,1,0,0:0:0:0:
256,192,82313,1,0,0:0:0:0:
256,192,82446,1,0,0:0:0:0:
256,192,82580,1,8,0:0:0:0:
256,192,82847,1,0,0:0:0:0:
256,192,82981,1,0,0:0:0:0:
256,192,83114,1,8,0:0:0:0:
256,192,83382,1,4,0:0:0:0:
256,192,83649,1,8,0:0:0:0:
256,192,83916,1,0,0:0:0:0:
256,192,84050,1,0,0:0:0:0:
256,192,84183,1,8,0:0:0:0:
256,192,84451,1,4,0:0:0:0:
256,192,84718,1,8,0:0:0:0:
256,192,84852,1,0,0:0:0:0:
256,192,84985,1,0,0:0:0:0:
256,192,85253,1,8,0:0:0:0:
256,192,85386,1,8,0:0:0:0:
256,192,85520,1,0,0:0:0:0:
256,192,85653,1,0,0:0:0:0:
256,192,85787,1,8,0:0:0:0:
256,192,85854,1,8,0:0:0:0:
256,192,85921,1,8,0:0:0:0:
256,192,86054,1,0,0:0:0:0:
256,192,86322,1,8,0:0:0:0:
256,192,86589,1,0,0:0:0:0:
256,192,86856,1,8,0:0:0:0:
256,192,86990,1,8,0:0:0:0:
256,192,87123,1,0,0:0:0:0:
256,192,87391,1,8,0:0:0:0:
256,192,87524,1,0,0:0:0:0:
256,192,87658,1,8,0:0:0:0:
256,192,87925,1,8,0:0:0:0:
256,192,88059,1,8,0:0:0:0:
256,192,88192,1,0,0:0:0:0:
256,192,88259,1,0,0:0:0:0:
256,192,88326,1,0,0:0:0:0:
256,192,88460,1,8,0:0:0:0:
256,192,88727,1,0,0:0:0:0:
256,192,88861,1,0,0:0:0:0:
256,192,88994,1,8,0:0:0:0:
256,192,89128,1,0,0:0:0:0:
256,192,89261,1,8,0:0:0:0:
256,192,89529,1,8,0:0:0:0:
256,192,89662,1,8,0:0:0:0:
256,192,89796,1,0,0:0:0:0:
256,192,89930,1,0,0:0:0:0:
256,192,90063,1,8,0:0:0:0:
256,192,90330,1,0,0:0:0:0:
256,192,90598,1,8,0:0:0:0:
256,192,90865,1,0,0:0:0:0:
256,192,90999,1,0,0:0:0:0:
256,192,91132,1,8,0:0:0:0:
256,192,91266,1,8,0:0:0:0:
256,192,91400,1,0,0:0:0:0:
256,192,91466,1,0,0:0:0:0:
256,192,91533,1,0,0:0:0:0:
256,192,91667,1,8,0:0:0:0:
256,192,91734,1,8,0:0:0:0:
256,192,91800,1,8,0:0:0:0:
256,192,91934,1,4,0:0:0:0:
256,192,92201,1,8,0:0:0:0:
256,192,92469,1,0,0:0:0:0:
256,192,92535,1,0,0:0:0:0:
256,192,92602,1,0,0:0:0:0:
256,192,92736,1,8,0:0:0:0:
256,192,92869,1,8,0:0:0:0:
256,192,93003,1,4,0:0:0:0:
256,192,93270,1,8,0:0:0:0:
256,192,93805,1,8,0:0:0:0:
256,192,94339,1,8,0:0:0:0:
256,192,94874,1,8,0:0:0:0:
256,192,95408,1,8,0:0:0:0:
256,192,95943,1,8,0:0:0:0:
256,192,96477,1,8,0:0:0:0:
256,192,96878,1,8,0:0:0:0:
256,192,97146,1,8,0:0:0:0:
256,192,97547,1,8,0:0:0:0:
256,192,98081,1,8,0:0:0:0:
256,192,98616,1,8,0:0:0:0:
256,192,99150,1,8,0:0:0:0:
256,192,99685,1,8,0:0:0:0:
256,192,100219,1,8,0:0:0:0:
256,192,100754,1,8,0:0:0:0:
256,192,100887,1,0,0:0:0:0:
256,192,101155,1,8,0:0:0:0:
256,192,101288,1,8,0:0:0:0:
256,192,101555,1,4,0:0:0:0:
256,192,101823,1,8,0:0:0:0:
256,192,102090,1,8,0:0:0:0:
256,192,102357,1,8,0:0:0:0:
256,192,102624,1,8,0:0:0:0:
256,192,102892,1,8,0:0:0:0:
256,192,103159,1,8,0:0:0:0:
256,192,103426,1,8,0:0:0:0:
256,192,103560,1,0,0:0:0:0:
256,192,103627,1,0,0:0:0:0:
256,192,103694,1,0,0:0:0:0:
256,192,103827,1,0,0:0:0:0:
256,192,103961,1,8,0:0:0:0:
256,192,104228,1,8,0:0:0:0:
256,192,104362,1,0,0:0:0:0:
256,192,104495,1,8,0:0:0:0:
256,192,104763,1,8,0:0:0:0:
256,192,104896,1,0,0:0:0:0:
256,192,105030,1,8,0:0:0:0:
256,192,105297,1,8,0:0:0:0:
256,192,105431,1,0,0:0:0:0:
256,192,105498,1,0,0:0:0:0:
256,192,105564,1,0,0:0:0:0:
256,192,105698,1,0,0:0:0:0:
256,192,105832,1,12,0:0:0:0:
256,192,106099,1,8,0:0:0:0:
256,192,106232,1,0,0:0:0:0:
256,192,106366,1,8,0:0:0:0:
256,192,106500,1,8,0:0:0:0:
256,192,106633,1,0,0:0:0:0:
256,192,106767,1,0,0:0:0:0:
256,192,106901,1,12,0:0:0:0:
256,192,107168,1,8,0:0:0:0:
256,192,107302,1,0,0:0:0:0:
256,192,107435,1,8,0:0:0:0:
256,192,107502,1,8,0:0:0:0:
256,192,107569,1,8,0:0:0:0:
256,192,107702,1,0,0:0:0:0:
256,192,107836,1,0,0:0:0:0:
256,192,107970,1,8,0:0:0:0:
256,192,108103,1,8,0:0:0:0:
256,192,108237,1,0,0:0:0:0:
256,192,108304,1,0,0:0:0:0:
256,192,108371,1,0,0:0:0:0:
256,192,108504,1,8,0:0:0:0:
256,192,108638,1,0,0:0:0:0:
256,192,108771,1,8,0:0:0:0:
256,192,109039,1,4,0:0:0:0:
256,192,109306,1,8,0:0:0:0:
256,192,109440,1,0,0:0:0:0:
256,192,109506,1,0,0:0:0:0:
256,192,109573,1,0,0:0:0:0:
256,192,109707,1,0,0:0:0:0:
256,192,109841,1,8,0:0:0:0:
256,192,110108,1,4,0:0:0:0:
256,192,110375,1,8,0:0:0:0:
256,192,110642,1,0,0:0:0:0:
256,192,110776,1,0,0:0:0:0:
256,192,110910,1,8,0:0:0:0:
256,192,111043,1,8,0:0:0:0:
256,192,111177,1,0,0:0:0:0:
256,192,111444,1,8,0:0:0:0:
256,192,111711,1,8,0:0:0:0:
256,192,111845,1,0,0:0:0:0:
256,192,111979,1,8,0:0:0:0:
256,192,112112,1,0,0:0:0:0:
256,192,112246,1,0,0:0:0:0:
256,192,112513,1,8,0:0:0:0:
256,192,112647,1,0,0:0:0:0:
256,192,112780,1,8,0:0:0:0:
256,192,112847,1,8,0:0:0:0:
256,192,112914,1,8,0:0:0:0:
256,192,113048,1,0,0:0:0:0:
256,192,113181,1,8,0:0:0:0:
256,192,113315,1,4,0:0:0:0:
256,192,113582,1,0,0:0:0:0:
256,192,113649,1,0,0:0:0:0:
256,192,113716,1,0,0:0:0:0:
256,192,113849,1,0,0:0:0:0:
256,192,113983,1,8,0:0:0:0:
256,192,114117,1,0,0:0:0:0:
256,192,114384,1,4,0:0:0:0:
256,192,114651,1,8,0:0:0:0:
256,192,114918,1,0,0:0:0:0:
256,192,115052,1,0,0:0:0:0:
256,192,115186,1,8,0:0:0:0:
256,192,115453,1,0,0:0:0:0:
256,192,115587,1,0,0:0:0:0:
256,192,115720,1,8,0:0:0:0:
256,192,115787,1,8,0:0:0:0:
256,192,115854,1,8,0:0:0:0:
256,192,115988,1,0,0:0:0:0:
256,192,116121,1,0,0:0:0:0:
256,192,116255,1,8,0:0:0:0:
256,192,116522,1,0,0:0:0:0:
256,192,116789,1,8,0:0:0:0:
256,192,116923,1,8,0:0:0:0:
256,192,117057,1,0,0:0:0:0:
256,192,117123,1,0,0:0:0:0:
256,192,117190,1,0,0:0:0:0:
256,192,117324,1,8,0:0:0:0:
256,192,117457,1,8,0:0:0:0:
256,192,117591,1,4,0:0:0:0:
256,192,117858,1,0,0:0:0:0:
256,192,117992,1,8,0:0:0:0:
256,192,118126,1,0,0:0:0:0:
256,192,118393,1,12,0:0:0:0:
256,192,118660,1,4,0:0:0:0:
256,192,118927,1,8,0:0:0:0:
256,192,119061,1,0,0:0:0:0:
256,192,119128,1,0,0:0:0:0:
256,192,119195,1,0,0:0:0:0:
256,192,119328,1,8,0:0:0:0:
256,192,119462,1,0,0:0:0:0:
256,192,119596,1,8,0:0:0:0:
256,192,119662,1,8,0:0:0:0:
256,192,119729,1,8,0:0:0:0:
256,192,119863,1,0,0:0:0:0:
256,192,120130,1,8,0:0:0:0:
256,192,120264,1,0,0:0:0:0:
256,192,120397,1,8,0:0:0:0:
256,192,120531,1,8,0:0:0:0:
256,192,120665,1,0,0:0:0:0:
256,192,120731,1,0,0:0:0:0:
256,192,120798,1,0,0:0:0:0:
256,192,121199,1,0,0:0:0:0:
256,192,121333,1,8,0:0:0:0:
256,192,121466,1,0,0:0:0:0:
256,192,121600,1,8,0:0:0:0:
256,192,121734,1,8,0:0:0:0:
256,192,121867,1,4,0:0:0:0:
256,192,122135,1,8,0:0:0:0:
256,192,122268,1,8,0:0:0:0:
256,192,122402,1,0,0:0:0:0:
256,192,122469,1,0,0:0:0:0:
256,192,122535,1,0,0:0:0:0:
256,192,122669,1,12,0:0:0:0:
256,192,122936,1,4,0:0:0:0:
256,192,123204,1,8,0:0:0:0:
256,192,123471,1,0,0:0:0:0:
256,192,123604,1,0,0:0:0:0:
256,192,123738,1,8,0:0:0:0:
256,192,123872,1,8,0:0:0:0:
256,192,124005,1,0,0:0:0:0:
256,192,124273,1,8,0:0:0:0:
256,192,124406,1,8,0:0:0:0:
256,192,124540,1,0,0:0:0:0:
256,192,124673,1,0,0:0:0:0:
256,192,124807,1,8,0:0:0:0:
256,192,125074,1,0,0:0:0:0:
256,192,125208,1,0,0:0:0:0:
256,192,125342,1,8,0:0:0:0:
256,192,125475,1,8,0:0:0:0:
256,192,125609,1,0,0:0:0:0:
256,192,125676,1,0,0:0:0:0:
256,192,125743,1,0,0:0:0:0:
256,192,125876,1,8,0:0:0:0:
256,192,125943,1,8,0:0:0:0:
256,192,126010,1,8,0:0:0:0:
256,192,126143,1,4,0:0:0:0:
256,192,126411,1,8,0:0:0:0:
256,192,126678,1,0,0:0:0:0:
256,192,126745,1,0,0:0:0:0:
256,192,126812,1,0,0:0:0:0:
256,192,126945,1,8,0:0:0:0:
256,192,127079,1,8,0:0:0:0:
256,192,127212,1,4,0:0:0:0:
256,192,129351,1,0,0:0:0:0:
256,192,130420,1,8,0:0:0:0:
256,192,130954,1,8,0:0:0:0:
256,192,131489,1,0,0:0:0:0:
256,192,131756,1,0,0:0:0:0:
256,192,132023,1,8,0:0:0:0:
256,192,132290,1,0,0:0:0:0:
256,192,132825,1,0,0:0:0:0:
256,192,133092,1,8,0:0:0:0:
256,192,133493,1,8,0:0:0:0:
256,192,133627,1,0,0:0:0:0:
256,192,133894,1,0,0:0:0:0:
256,192,134161,1,8,0:0:0:0:
256,192,134428,1,0,0:0:0:0:
256,192,134963,1,0,0:0:0:0:
256,192,135230,1,8,0:0:0:0:
256,192,135498,1,0,0:0:0:0:
256,192,135631,1,8,0:0:0:0:
256,192,135765,1,0,0:0:0:0:
256,192,136032,1,0,0:0:0:0:
256,192,136299,1,8,0:0:0:0:
256,192,136567,1,0,0:0:0:0:
256,192,137101,1,0,0:0:0:0:
256,192,137368,1,8,0:0:0:0:
256,192,137636,1,8,0:0:0:0:
256,192,137769,1,8,0:0:0:0:
256,192,137903,1,0,0:0:0:0:
256,192,138437,1,8,0:0:0:0:
256,192,138705,1,0,0:0:0:0:
256,192,138838,1,8,0:0:0:0:
256,192,139106,1,8,0:0:0:0:
256,192,139239,1,0,0:0:0:0:
256,192,139506,1,8,0:0:0:0:
256,192,139907,1,8,0:0:0:0:
256,192,140041,1,0,0:0:0:0:
256,192,140308,1,0,0:0:0:0:
256,192,140575,1,8,0:0:0:0:
256,192,140843,1,0,0:0:0:0:
256,192,141377,1,0,0:0:0:0:
256,192,141645,1,8,0:0:0:0:
256,192,142045,1,8,0:0:0:0:
256,192,142179,1,0,0:0:0:0:
256,192,142714,1,8,0:0:0:0:
256,192,142981,1,0,0:0:0:0:
256,192,143515,1,0,0:0:0:0:
256,192,143783,1,8,0:0:0:0:
256,192,144050,1,0,0:0:0:0:
256,192,144183,1,8,0:0:0:0:
256,192,144317,1,0,0:0:0:0:
256,192,144852,1,8,0:0:0:0:
256,192,145119,1,0,0:0:0:0:
256,192,145653,1,0,0:0:0:0:
256,192,145921,1,8,0:0:0:0:
256,192,146188,1,8,0:0:0:0:
256,192,146322,1,8,0:0:0:0:
256,192,146455,1,0,0:0:0:0:
256,192,146990,1,8,0:0:0:0:
256,192,147257,1,0,0:0:0:0:
256,192,147391,1,8,0:0:0:0:
256,192,147658,1,8,0:0:0:0:
256,192,147792,1,0,0:0:0:0:
256,192,148059,1,8,0:0:0:0:
256,192,148593,12,0,153805,0:0:0:0:
