osu file format v14

[General]
AudioFilename: audio.mp3
AudioLeadIn: 0
PreviewTime: 103286
Countdown: 1
SampleSet: None
StackLeniency: 1
Mode: 0
LetterboxInBreaks: 0
WidescreenStoryboard: 0

[Editor]
DistanceSpacing: 1.8
BeatDivisor: 2
GridSize: 8
TimelineZoom: 1

[Metadata]
Title:SOME OF YOU BE SO FOCUSED ON THE CHEESE THAT YOU FORGET ABOUT THE TRAP
TitleUnicode:SOME OF YOU BE SO FOCUSED ON THE CHEESE THAT YOU FORGET ABOUT THE TRAP
Artist:4lung
ArtistUnicode:4lung
Creator:bII7b9
Version:No Homo
Source:
Tags:
BeatmapID:1696422
BeatmapSetID:808404

[Difficulty]
HPDrainRate:3
CircleSize:4
OverallDifficulty:3
ApproachRate:9.1
SliderMultiplier:0.9
SliderTickRate:2

[Events]
//Background and Video events
0,0,"astolfo-bg.png",0,0
//Break Periods
2,27833,35692
2,61745,77429
2,119917,124611
2,126568,128789
//Storyboard Layer 0 (Background)
//Storyboard Layer 1 (Fail)
//Storyboard Layer 2 (Pass)
//Storyboard Layer 3 (Foreground)
//Storyboard Sound Samples

[TimingPoints]
7286.05522384611,260.869565217391,4,3,0,54,1,0
11347,-55.5555555555556,4,3,0,100,0,1
28164,-55.5555555555556,4,3,0,100,0,0
36520,-76.9230769230769,4,3,0,100,0,0
44860,-50,4,3,0,100,0,0
78250,-76.9230769230769,4,3,0,100,0,0
82424,-62.5,4,3,0,100,0,0
86597,-50,4,3,0,100,0,1
103293,-76.9230769230769,4,3,0,62,0,0
124944,-47.6190476190476,4,3,0,62,0,0
129373,-66.6666666666667,4,3,0,62,0,0
137726,-47.6190476190476,4,3,0,62,0,0
150248,-58.8235294117647,4,3,0,62,0,0

[Colours]
Combo1 : 155,155,255
Combo2 : 128,0,255
Combo3 : 255,128,255
Combo4 : 255,255,128

[HitObjects]
151,122,10416,6,0,P|256:87|359:124,1,225
401,260,11459,6,0,P|368:227|331:221,1,80.9999975280762
311,319,11720,1,0,0:0:0:0:
235,267,11851,1,0,0:0:0:0:
336,224,11981,6,0,P|352:176|336:112,1,80.9999975280763
432,64,12226,1,0,0:0:0:0:
304,80,12372,1,0,0:0:0:0:
192,48,12503,6,0,P|168:80|152:48,1,80.9999975280763
248,136,12764,2,0,P|216:184|176:208,1,80.9999975280763
80,288,13025,2,0,P|144:272|256:320,2,161.999995056153
48,208,13677,5,0,0:0:0:0:
96,144,13807,2,0,P|144:160|192:144,1,80.9999975280763
192,112,14003,1,0,0:0:0:0:
208,64,14068,6,0,B|256:80|256:80|272:128,1,80.9999975280763
288,176,14329,1,0,0:0:0:0:
416,96,14590,2,0,P|400:144|400:176,1,80.9999975280763
336,288,14851,2,0,P|384:272|416:288,1,80.9999975280763
256,312,15111,2,0,P|208:296|176:312,1,80.9999975280763
176,224,15372,1,0,0:0:0:0:
352,48,15633,5,0,0:0:0:0:
336,144,15764,1,0,0:0:0:0:
272,96,15894,2,0,P|224:64|224:96,1,121.499996292114
222,93,16155,1,0,0:0:0:0:
96,104,16285,1,0,0:0:0:0:
152,216,16416,2,0,B|200:232|200:232|200:264|216:280|248:280|264:264,1,121.499996292114
243,274,16677,6,0,L|322:294,1,80.9999975280763
352,192,16937,2,0,L|430:212,1,80.9999975280763
276,100,17198,2,0,P|212:116|260:164,1,161.999995056153
384,80,17720,6,0,P|336:48|288:48,1,80.9999975280763
158,83,17981,2,0,P|142:131|126:83,1,121.499996292114
119,92,18242,2,0,P|96:160|96:176,1,80.9999975280763
32,304,18503,2,0,P|80:288|128:304,1,80.9999975280763
208,272,18763,5,0,0:0:0:0:
302,128,19024,2,0,P|261:126|224:112,1,80.9999975280763
320,240,19285,1,0,0:0:0:0:
80,144,19807,6,0,B|64:128|64:128|64:96,2,40.4999987640381
144,80,20068,1,0,0:0:0:0:
176,160,20198,1,0,0:0:0:0:
288,192,20329,6,0,P|304:144|288:112,1,80.9999975280763
384,128,20589,1,0,0:0:0:0:
368,208,20720,1,0,0:0:0:0:
288,256,20850,6,0,B|304:261|304:261|320:277,2,40.4999987640381
176,224,21111,2,0,B|192:272|192:272|240:240,1,80.9999975280763
288,176,21372,2,0,P|240:144|208:144,1,80.9999975280763
128,160,21633,1,0,0:0:0:0:
368,64,21894,6,0,P|416:80|464:64,1,80.9999975280763
336,152,22155,1,0,0:0:0:0:
272,80,22285,1,0,0:0:0:0:
272,80,22350,1,0,0:0:0:0:
272,80,22416,2,0,P|224:64|176:80,1,80.9999975280763
112,144,22676,1,0,0:0:0:0:
208,304,22937,5,0,0:0:0:0:
245,288,23002,1,0,0:0:0:0:
284,293,23067,1,0,0:0:0:0:
317,316,23132,1,0,0:0:0:0:
317,316,23198,2,0,P|336:256|320:224,1,80.9999975280763
368,112,23459,2,0,P|320:128|256:112,1,80.9999975280763
192,80,23720,2,0,P|144:64|128:128,1,121.499996292114
122,119,23981,5,0,0:0:0:0:
80,208,24111,1,0,0:0:0:0:
160,240,24242,2,0,B|176:192|176:192|256:176,1,121.499996292114
245,178,24502,1,0,0:0:0:0:
240,272,24633,1,0,0:0:0:0:
352,176,24763,2,0,P|352:216|337:253,1,80.9999975280763
416,112,25024,6,0,B|352:96|352:96|320:112,1,80.9999975280763
240,112,25285,2,0,B|218:128|199:104|186:80|154:96,1,80.9999975280763
80,112,25546,1,0,0:0:0:0:
144,208,25676,2,0,B|144:192|144:192|176:160,2,40.4999987640381
120,312,25937,1,0,0:0:0:0:
240,280,26068,6,0,B|272:296|272:296|288:344,1,80.9999975280763
350,282,26328,2,0,P|336:240|368:160,1,121.499996292114
358,169,26589,2,0,L|288:128,1,80.9999975280763
224,96,26850,2,0,B|186:73|186:73|202:121|218:169,1,121.499996292114
210,146,27111,5,0,0:0:0:0:
80,312,27372,1,0,0:0:0:0:
432,112,27633,1,0,0:0:0:0:
128,152,36372,5,0,0:0:0:0:
128,152,36502,1,0,0:0:0:0:
232,72,36632,2,0,P|224:112|232:144,1,58.4999973220826
208,224,36893,1,0,0:0:0:0:
304,192,37024,1,0,0:0:0:0:
288,216,37154,2,0,P|240:224|224:240,1,58.4999973220826
120,288,37415,5,0,0:0:0:0:
120,288,37545,1,0,0:0:0:0:
208,328,37676,2,0,B|232:312|232:312|264:328,1,58.4999973220826
352,296,37937,1,0,0:0:0:0:
352,296,38067,1,0,0:0:0:0:
400,224,38198,2,0,B|384:192|384:192|400:160,1,58.4999973220826
424,104,38459,5,0,0:0:0:0:
328,96,38589,2,0,B|304:120|304:120|256:120,1,58.4999973220826
128,192,38850,2,0,B|103:192|103:192|79:168,1,58.4999973220826
248,208,39111,2,0,P|224:191|214:165,1,58.4999973220826
304,288,39372,1,0,0:0:0:0:
96,320,39632,5,0,0:0:0:0:
416,64,39893,1,0,0:0:0:0:
96,64,40154,1,0,0:0:0:0:
416,320,40415,1,0,0:0:0:0:
328,280,40545,5,0,0:0:0:0:
392,232,40676,2,0,B|376:192|376:192|328:176|328:176|312:192|288:192,1,116.999994644165
184,280,41067,5,0,0:0:0:0:
120,232,41198,2,0,B|136:192|136:192|184:176|184:176|200:192|224:192,1,116.999994644165
216,72,41589,5,0,0:0:0:0:
296,88,41719,2,0,P|320:104|328:40,1,116.999994644165
232,152,42111,1,0,0:0:0:0:
368,168,42241,2,0,P|416:160|440:184,1,58.4999973220826
296,216,42502,1,0,0:0:0:0:
408,328,42697,6,0,P|256:288|85:330,1,321.749985271455
128,208,43545,2,0,L|200:216,1,58.4999973220826
264,200,43806,2,0,B|320:216|320:216|376:200,2,116.999994644165
120,64,44850,5,0,0:0:0:0:
160,200,44980,1,0,0:0:0:0:
296,152,45110,1,0,0:0:0:0:
240,96,45241,6,0,L|192:120,1,45
199,116,45371,1,0,0:0:0:0:
56,128,45502,1,0,0:0:0:0:
72,232,45632,2,0,P|104:272|152:288,1,90
280,256,45893,6,0,P|328:248|368:272,1,90
232,200,46154,2,0,P|176:216|144:208,1,90
272,136,46415,2,0,B|304:104|304:104|384:144|384:144|424:112,1,180
192,56,46936,5,0,0:0:0:0:
96,136,47067,1,0,0:0:0:0:
168,240,47197,2,0,P|192:192|272:176,1,135
266,174,47458,1,0,0:0:0:0:
368,256,47589,1,0,0:0:0:0:
248,256,47719,2,0,P|224:312|168:328,1,90
96,224,47980,6,0,P|96:144|128:112,1,90
216,96,48241,2,0,P|168:72|112:64,1,90
176,168,48502,2,0,L|280:184,1,90
344,136,48763,1,0,0:0:0:0:
344,136,48893,1,0,0:0:0:0:
304,296,49023,6,0,P|352:280|416:304,1,90
232,256,49284,2,0,B|192:240|192:240|160:200,1,90
208,176,49480,2,0,B|232:184|232:184|264:176,1,45
376,200,49676,1,0,0:0:0:0:
392,80,49806,1,0,0:0:0:0:
272,64,49936,1,0,0:0:0:0:
160,40,50067,6,0,B|128:80|128:80|72:72,1,90
72,240,50328,1,0,0:0:0:0:
40,160,50458,1,0,0:0:0:0:
40,160,50589,2,0,B|104:152|104:152|128:184|160:200|216:184,1,180
239,169,50980,6,0,P|309:162|264:216,1,180
360,296,51371,1,0,0:0:0:0:
472,152,51502,1,0,0:0:0:0:
376,96,51632,1,0,0:0:0:0:
424,232,51762,1,0,0:0:0:0:
344,176,51893,5,0,0:0:0:0:
216,240,52023,2,0,P|261:186|191:193,1,180
136,312,52415,1,0,0:0:0:0:
64,208,52546,1,0,0:0:0:0:
136,88,52675,2,0,B|168:112|168:112|208:72|208:72|296:72,1,180
376,96,53067,1,0,0:0:0:0:
432,216,53197,5,0,0:0:0:0:
320,288,53328,1,0,0:0:0:0:
192,256,53458,1,0,0:0:0:0:
272,200,53588,2,0,P|288:192|320:192,2,45
144,152,53849,2,0,P|128:200|80:224,1,90
192,256,54110,1,0,0:0:0:0:
232,120,54241,6,0,L|328:136,1,90
312,118,54501,2,0,L|224:104,1,90
72,144,54762,2,0,B|160:152|160:152|152:128|144:88|176:48,1,180
320,56,55284,5,0,0:0:0:0:
416,136,55415,1,0,0:0:0:0:
344,240,55545,2,0,P|320:192|240:176,1,135
246,174,55806,1,0,0:0:0:0:
144,256,55937,1,0,0:0:0:0:
264,256,56067,2,0,P|288:312|344:328,1,90
432,192,56328,6,0,L|336:152,1,90
256,96,56588,2,0,L|160:136,1,90
144,56,56849,2,0,P|96:112|152:208,1,180
240,304,57241,1,0,0:0:0:0:
104,336,57371,5,0,0:0:0:0:
104,336,57501,1,0,0:0:0:0:
104,336,57632,1,0,0:0:0:0:
376,80,57893,1,0,0:0:0:0:
332,72,57958,1,0,0:0:0:0:
290,87,58023,1,0,0:0:0:0:
144,80,58154,2,0,B|160:104|160:104|168:128|160:144|120:168,1,90
112,256,58414,6,0,P|168:272|232:248,1,90
264,184,58675,2,0,B|288:208|288:208|288:272,1,90
408,160,58936,2,0,B|379:190|379:190|440:192,1,90
448,64,59197,2,0,P|400:80|360:72,1,90
216,64,59458,6,0,P|176:80|320:312,1,450
248,264,60240,2,0,P|216:256|192:232,1,45
184,184,60371,2,0,P|200:152|224:144,1,45
256,192,60501,12,0,61545,0:0:0:0:
104,128,78109,5,0,0:0:0:0:
152,80,78240,1,0,0:0:0:0:
216,104,78370,2,0,P|248:128|288:128,1,58.4999973220826
352,192,78631,1,0,0:0:0:0:
384,256,78762,1,0,0:0:0:0:
312,248,78892,2,0,B|272:264|272:264|248:256,1,58.4999973220826
136,264,79153,5,0,0:0:0:0:
168,200,79283,1,0,0:0:0:0:
96,176,79414,2,0,P|120:144|160:128,1,58.4999973220826
256,112,79675,1,0,0:0:0:0:
320,72,79805,1,0,0:0:0:0:
336,144,79935,2,0,B|328:176|328:176|304:200,2,58.4999973220826
432,144,80327,6,0,P|416:192|416:224,1,58.4999973220826
360,296,80588,2,0,P|328:288|288:288,1,58.4999973220826
160,320,80848,2,0,P|192:312|232:312,1,58.4999973220826
112,248,81109,1,0,0:0:0:0:
296,120,81370,6,0,P|242:137|208:88,1,116.999994644165
56,200,81892,2,0,P|88:176|168:200,1,116.999994644165
264,264,82283,5,0,0:0:0:0:
352,240,82414,1,0,0:0:0:0:
440,168,82544,2,0,B|400:176|400:176|368:144,1,72
248,128,82805,1,0,0:0:0:0:
344,56,82935,1,0,0:0:0:0:
208,48,83066,2,0,P|168:80|160:120,1,72
64,208,83327,5,0,0:0:0:0:
128,264,83457,1,0,0:0:0:0:
280,256,83588,2,0,P|232:240|192:256,1,72
248,112,83848,1,0,0:0:0:0:
336,80,83979,1,0,0:0:0:0:
448,128,84109,2,0,P|416:160|360:176,1,72
296,176,84370,5,0,0:0:0:0:
136,128,84501,2,0,P|128:96|88:64,2,72
256,88,85022,1,0,0:0:0:0:
376,256,85283,6,0,P|384:288|424:320,2,72
240,284,85804,1,0,0:0:0:0:
156,277,86001,2,0,B|172:261|172:237|172:237|212:205|236:205|260:205|300:229,1,180
464,144,86587,5,0,0:0:0:0:
424,64,86718,1,0,0:0:0:0:
472,224,86848,2,0,B|424:224|400:200|384:168|384:168|304:144,1,180
120,104,87240,1,0,0:0:0:0:
216,80,87370,2,0,P|216:120|192:192,1,90
48,232,87631,6,0,P|88:224|144:240,1,90
224,264,87892,2,0,P|264:280|336:272,1,90
135,235,88153,2,0,P|91:224|48:232,2,90
104,104,88544,1,0,0:0:0:0:
224,48,88674,5,0,0:0:0:0:
184,168,88805,1,0,0:0:0:0:
320,224,88935,2,0,P|360:200|432:200,1,90
307,120,89196,2,0,B|352:120|352:120|384:88,1,90
320,224,89457,2,0,P|358:200|402:194,1,90
232,248,89718,6,0,P|192:272|232:216,2,180
96,112,90500,2,0,B|144:120|144:120|216:120,1,90
256,64,90761,6,0,B|280:64|280:64|304:88|304:88|344:88,1,90
432,40,91022,1,0,0:0:0:0:
416,176,91153,1,0,0:0:0:0:
296,288,91283,1,0,0:0:0:0:
464,248,91413,2,0,P|419:261|377:247,1,90
256,168,91674,1,0,0:0:0:0:
160,136,91805,6,0,P|152:184|112:224,1,90
72,120,92066,1,0,0:0:0:0:
0,200,92196,1,0,0:0:0:0:
126,215,92326,2,0,P|78:223|142:287,1,180
224,272,92718,6,0,B|288:256|288:256|296:232|320:216|344:184|392:184,1,180
392,304,93109,1,0,0:0:0:0:
440,192,93239,1,0,0:0:0:0:
288,256,93370,2,0,B|312:208|312:208|272:80,1,180
96,80,93761,6,0,P|128:104|104:40,1,180
64,160,94152,1,0,0:0:0:0:
192,192,94283,1,0,0:0:0:0:
320,224,94413,2,0,B|352:240|352:240|312:272|312:272|280:256|265:255|248:256|216:272,1,180
288,152,94805,1,0,0:0:0:0:
432,120,94935,5,0,0:0:0:0:
272,64,95065,1,0,0:0:0:0:
112,120,95196,2,0,L|144:240,1,90
72,264,95457,1,0,0:0:0:0:
232,320,95587,1,0,0:0:0:0:
392,264,95718,2,0,L|360:144,1,90
192,152,95978,6,0,B|224:176|224:176|208:224,1,90
312,280,96239,2,0,B|280:256|280:256|296:208,1,90
192,152,96500,2,0,B|160:128|160:128|176:80,1,90
240,40,96761,2,0,B|272:48|272:48|280:72|280:72|320:80,2,90
96,72,97152,5,0,0:0:0:0:
56,160,97283,2,0,P|48:208|72:256,1,90
200,208,97544,2,0,P|224:248|208:320,1,90
144,160,97804,2,0,P|192:128|256:136,1,90
320,232,98065,6,0,B|336:248|336:248|352:232|352:232|368:248|368:248|384:232|384:232|400:248|400:248|416:232|416:232|432:248|432:248|448:232,2,180
88,168,98848,2,0,B|136:184|136:184|104:208,1,90
72,80,99109,5,0,0:0:0:0:
200,112,99239,1,0,0:0:0:0:
328,80,99370,2,0,P|312:128|320:184,1,90
400,120,99631,2,0,P|384:160|408:208,1,90
288,280,99891,1,0,0:0:0:0:
152,248,100022,1,0,0:0:0:0:
72,232,100152,6,0,P|104:184|224:208,2,180
64,112,100804,1,0,0:0:0:0:
160,72,100935,2,0,L|216:88,2,45
288,64,101196,6,0,B|376:80|376:80|392:120|392:120|344:144,2,180
232,176,101848,1,0,0:0:0:0:
144,208,101978,2,0,B|120:208|120:208|96:224,3,45
64,272,102239,6,0,P|120:304|224:256,1,180
272,208,102630,2,0,P|304:184|272:240,1,180
416,72,103283,5,0,0:0:0:0:
416,72,103413,1,0,0:0:0:0:
296,48,103543,2,0,L|240:64,1,58.4999973220826
176,112,103804,2,0,L|120:128,1,58.4999973220826
296,120,104065,2,0,L|224:144,1,58.4999973220826
168,280,104326,5,0,0:0:0:0:
168,280,104456,1,0,0:0:0:0:
360,304,104587,2,0,P|392:288|440:304,2,58.4999973220826
304,248,104978,2,0,P|320:216|304:168,2,58.4999973220826
288,320,105369,5,0,0:0:0:0:
288,320,105500,1,0,0:0:0:0:
224,224,105630,2,0,P|160:208|128:224,1,58.4999973220826
96,248,105891,1,0,0:0:0:0:
112,160,106022,1,0,0:0:0:0:
264,128,106152,2,0,P|224:136|192:120,1,58.4999973220826
96,72,106413,2,0,P|168:48|232:56,1,116.999994644165
416,72,106935,2,0,P|344:48|280:56,1,116.999994644165
256,192,107456,5,0,0:0:0:0:
256,192,107587,1,0,0:0:0:0:
208,112,107717,2,0,B|208:128|208:128|144:160,1,58.4999973220826
210,273,107978,2,0,B|224:265|224:265|284:304,1,58.4999973220826
349,190,108239,2,0,B|335:182|335:182|339:111,1,58.4999973220826
256,192,108500,5,0,0:0:0:0:
256,192,108630,1,0,0:0:0:0:
269,118,108761,2,0,B|256:112|256:112|216:128,2,58.4999973220826
242,265,109152,2,0,B|256:272|256:272|296:256,2,58.4999973220826
152,192,109543,6,0,P|136:256|160:312,1,116.999994644165
351,182,110065,2,0,P|368:127|351:71,1,116.999994644165
224,72,110587,6,0,L|304:88,1,58.4999973220826
224,144,110848,2,0,L|304:160,1,58.4999973220826
224,216,111108,2,0,L|304:232,1,58.4999973220826
256,296,111369,1,0,0:0:0:0:
256,296,111500,1,0,0:0:0:0:
256,296,111630,1,0,0:0:0:0:
384,280,111891,6,0,P|416:200|368:128,1,175.499991966248
272,112,112413,1,0,0:0:0:0:
256,304,112674,1,0,0:0:0:0:
128,280,112934,2,0,P|96:200|144:128,1,175.499991966248
240,112,113456,1,0,0:0:0:0:
72,40,113717,6,0,L|192:56,1,116.999994644165
448,288,114239,2,0,L|328:272,1,116.999994644165
184,280,114760,6,0,L|68:295,1,116.999994644165
320,72,115282,2,0,P|304:112|320:144,1,58.4999973220826
416,176,115543,2,0,P|432:136|416:104,1,58.4999973220826
328,208,115804,6,0,P|256:256|104:208,1,233.999989288331
192,80,116587,1,0,0:0:0:0:
240,336,116847,2,0,P|248:248|392:192,1,233.999989288331
416,72,117630,1,0,0:0:0:0:
416,72,117760,1,0,0:0:0:0:
158,99,117891,6,0,B|223:145|223:145|303:145|303:145|367:185,1,233.999989288331
176,256,118673,2,0,P|224:240|264:248,1,58.4999973220826
88,192,118934,1,0,0:0:0:0:
328,296,119195,1,0,0:0:0:0:
400,184,119456,2,0,P|320:192|304:176,1,58.4999973220826
192,168,119717,1,0,0:0:0:0:
56,240,125195,6,0,B|72:288|96:296|112:288|128:264|136:232|136:232|152:272|168:288|192:296|208:280|216:256|216:232|232:216|232:216|376:192|376:192|408:184|408:184|440:136|416:120|352:128|272:136|272:136|192:144|160:144|136:152|120:152|112:152|24:160,1,850.499974044801
112,80,129373,6,0,P|160:64|208:80,1,67.5000025749208
168,144,129630,1,0,0:0:0:0:
408,280,129890,2,0,P|352:312|320:312,1,67.5000025749208
336,232,130151,1,0,0:0:0:0:
400,64,130412,6,0,B|360:80|360:80|328:112,1,67.5000025749208
256,56,130673,1,0,0:0:0:0:
96,320,130934,2,0,L|72:240,1,67.5000025749208
200,272,131195,1,0,0:0:0:0:
96,112,131456,6,0,P|136:96|160:112,1,67.5000025749208
200,176,131716,1,0,0:0:0:0:
408,80,131977,2,0,L|312:120,1,67.5000025749208
288,216,132238,2,0,L|360:192,1,67.5000025749208
440,168,132499,6,0,P|440:224|384:280,1,135.000005149842
80,120,133021,2,0,B|96:128|96:128|112:112|128:112|144:120|160:136|152:168|112:200,1,135.000005149842
392,64,133543,5,0,0:0:0:0:
280,128,133673,1,0,0:0:0:0:
360,160,133803,1,0,0:0:0:0:
88,296,134064,1,0,0:0:0:0:
128,176,134195,1,0,0:0:0:0:
184,240,134325,1,0,0:0:0:0:
336,280,134586,5,0,0:0:0:0:
424,256,134716,1,0,0:0:0:0:
336,280,134847,1,0,0:0:0:0:
80,56,135108,1,0,0:0:0:0:
152,96,135238,1,0,0:0:0:0:
296,56,135369,1,0,0:0:0:0:
440,192,135629,6,0,L|368:192,2,67.5000025749208
72,192,136151,2,0,L|144:192,2,67.5000025749208
208,103,136803,5,0,0:0:0:0:
344,144,136933,1,0,0:0:0:0:
303,280,137064,1,0,0:0:0:0:
167,239,137194,1,0,0:0:0:0:
408,72,137716,5,0,0:0:0:0:
272,96,137847,1,0,0:0:0:0:
320,168,137977,1,0,0:0:0:0:
176,128,138108,2,0,L|136:152,2,47.2499985580445
48,120,138368,2,0,P|32:176|40:224,1,94.499997116089
35,211,138564,2,0,P|71:223|87:239,1,47.2499985580445
160,280,138760,6,0,P|208:240|248:232,1,94.499997116089
344,248,139021,2,0,P|376:288|384:344,1,94.499997116089
304,168,139281,2,0,L|320:120,2,47.2499985580445
416,120,139542,1,0,0:0:0:0:
79,144,139803,6,0,P|122:123|168:121,1,94.499997116089
98,99,140064,2,0,P|145:93|190:108,1,94.499997116089
131,63,140325,2,0,P|177:75|214:103,1,94.499997116089
168,240,140586,2,0,B|144:256|144:256|112:248,2,47.2499985580445
288,192,140847,2,0,P|304:152|328:224,2,188.999994232178
80,192,141629,2,0,P|128:160|176:160,1,94.499997116089
136,288,141890,5,0,0:0:0:0:
264,312,142021,1,0,0:0:0:0:
395,232,142151,2,0,B|344:264|344:264|304:224|304:224|240:224,1,141.749995674133
304,176,142412,2,0,L|328:128,2,47.2499985580445
416,112,142673,1,0,0:0:0:0:
296,56,142803,1,0,0:0:0:0:
192,120,142934,6,0,P|152:104|104:120,1,94.499997116089
104,215,143194,2,0,P|148:199|192:216,1,94.499997116089
192,320,143455,2,0,P|148:303|104:319,1,94.499997116089
248,264,143716,1,0,0:0:0:0:
392,312,143847,6,0,P|360:248|368:120,1,188.999994232178
440,80,144238,2,0,P|376:56|320:64,1,94.499997116089
184,80,144499,2,0,P|248:56|304:64,1,94.499997116089
256,208,144760,1,0,0:0:0:0:
120,312,144890,6,0,P|152:248|144:120,1,188.999994232178
72,80,145281,2,0,P|136:56|192:64,1,94.499997116089
256,120,145542,2,0,L|256:312,2,188.999994232178
360,72,146194,5,0,0:0:0:0:
448,144,146325,2,0,P|400:152|472:192,1,188.999994232178
384,296,146716,1,0,0:0:0:0:
280,264,146846,1,0,0:0:0:0:
88,256,147107,6,0,P|128:208|168:208,1,94.499997116089
232,152,147368,2,0,B|296:144|296:144|264:128,1,94.499997116089
96,56,147629,2,0,P|152:72|272:32,1,188.999994232178
368,96,148020,1,0,0:0:0:0:
224,176,148151,6,0,P|233:132|277:128,1,94.499997116089
176,240,148412,2,0,L|88:200,1,94.499997116089
62,104,148672,2,0,L|148:143,1,94.499997116089
320,200,148933,1,0,0:0:0:0:
352,272,149064,1,0,0:0:0:0:
224,296,149194,5,0,0:0:0:0:
416,104,149455,2,0,P|360:104|424:56,2,188.999994232178
232,40,150238,6,0,P|184:32|152:48,1,76.5000014591217
88,136,150498,1,0,0:0:0:0:
184,128,150629,2,0,P|208:144|232:144,1,38.2500007295609
216,145,150759,1,0,0:0:0:0:
384,128,150890,1,0,0:0:0:0:
304,168,151020,2,0,P|320:200|336:208,2,38.2500007295609
376,320,151281,6,0,P|320:304|272:312,1,76.5000014591217
144,288,151542,2,0,P|200:304|248:296,2,76.5000014591217
248,224,151933,1,0,0:0:0:0:
248,224,151998,1,0,0:0:0:0:
248,224,152064,1,0,0:0:0:0:
120,184,152194,1,0,0:0:0:0:
192,120,152329,1,0,0:0:0:0:
424,128,153373,6,0,P|376:112|320:112,1,76.5000014591217
352,232,153633,2,0,P|320:280|296:288,1,76.5000014591217
256,152,153894,2,0,P|208:136|168:144,2,76.5000014591217
112,240,154286,1,0,0:0:0:0:
112,240,154416,1,0,0:0:0:0:
