osu file format v14

[General]
AudioFilename: audio.mp3
AudioLeadIn: 0
PreviewTime: -1
Countdown: 0
SampleSet: Soft
StackLeniency: 0.4
Mode: 0
LetterboxInBreaks: 0
WidescreenStoryboard: 1

[Editor]
Bookmarks: 96460,113710,146710
DistanceSpacing: 1.6
BeatDivisor: 16
GridSize: 4
TimelineZoom: 2.04

[Metadata]
Title:Smell The Roses
TitleUnicode:Smell The Roses
Artist:4everfreebrony
ArtistUnicode:4everfreebrony
Creator:Kathex
Version:Chullab
Source:
Tags:circlechu
BeatmapID:1134422
BeatmapSetID:535601

[Difficulty]
HPDrainRate:6
CircleSize:3.5
OverallDifficulty:7
ApproachRate:8
SliderMultiplier:1.6
SliderTickRate:1

[Events]
//Background and Video events
0,0,"bg.jpg",0,0
//Break Periods
2,74160,85210
//Storyboard Layer 0 (Background)
//Storyboard Layer 1 (Fail)
//Storyboard Layer 2 (Pass)
//Storyboard Layer 3 (Foreground)
//Storyboard Sound Samples

[TimingPoints]
1960,750,4,2,0,25,1,0
13960,-66.6666666666667,4,2,0,30,0,0
49960,-50,4,2,0,45,0,1
73960,-66.6666666666667,4,2,0,40,0,0
84460,-66.6666666666667,4,2,0,35,0,0
108460,-66.6666666666667,4,2,0,40,0,0
120460,-50,4,2,0,45,0,1
142960,-50,4,2,0,30,0,0
145960,-50,4,2,0,45,0,1
166960,-66.6666666666667,4,2,0,35,0,0
169960,-100,4,2,0,25,0,0
178960,789.473684210526,4,2,0,25,1,0
179749,895.522388059701,4,2,0,25,1,0
180644,1034.48275862069,4,2,0,25,1,0
181678,1445.78313253012,4,2,0,25,1,0

[HitObjects]
256,192,460,12,0,1960,0:0:0:0:
192,256,2710,5,0,0:0:0:0:
96,128,3460,1,0,0:0:0:0:
200,69,3835,2,0,P|214:106|214:145,2,80
302,132,4960,6,0,L|289:304,1,160
188,227,6085,1,0,0:0:0:0:
416,37,6460,6,0,L|403:209,1,160
302,132,7585,1,0,0:0:0:0:
36,105,7960,6,0,P|109:75|185:94,1,160
256,190,9085,1,0,0:0:0:0:
477,276,9460,6,0,P|403:305|327:286,1,160
256,190,10585,1,0,0:0:0:0:
256,190,10960,5,0,0:0:0:0:
112,256,12085,6,0,L|119:301,2,40,0|0|4,0:0|0:0|0:0,0:0:0:0:
112,128,13585,1,0,0:0:0:0:
112,128,13772,1,0,0:0:0:0:
112,128,13960,6,0,L|249:116,1,120.000004577637,6|0,0:0|0:0,0:0:0:0:
396,190,14710,1,8,0:0:0:0:
244,287,15085,1,0,0:0:0:0:
112,128,15460,6,0,P|122:159|116:191,1,60.0000022888184,2|0,0:0|0:0,0:0:0:0:
57,259,15835,2,0,P|53:288|63:316,1,60.0000022888184,2|0,0:0|0:0,0:0:0:0:
158,370,16210,1,8,0:0:0:0:
457,242,16585,1,0,0:0:0:0:
427,157,16772,1,0,0:0:0:0:
357,214,16960,6,0,L|381:333,2,120.000004577637,6|0|8,0:0|0:0|0:0,0:0:0:0:
391,36,18085,1,0,0:0:0:0:
233,123,18460,6,0,P|200:124|164:107,1,60.0000022888184,2|0,0:0|0:0,0:0:0:0:
69,23,18835,2,0,P|86:51|89:90,1,60.0000022888184,2|0,0:0|0:0,0:0:0:0:
47,197,19210,1,8,0:0:0:0:
301,274,19585,1,0,0:0:0:0:
243,342,19772,1,0,0:0:0:0:
212,257,19960,6,0,P|248:199|312:182,1,120.000004577637,6|0,0:0|0:0,0:0:0:0:
407,307,20710,2,0,P|338:304|292:257,1,120.000004577637,8|0,0:0|0:0,0:0:0:0:
376,220,21272,1,0,0:0:0:0:
458,183,21460,6,0,P|466:212|456:259,1,60.0000022888184,2|0,0:0|0:0,0:0:0:0:
389,138,21835,2,0,P|386:108|394:79,1,60.0000022888184,2|0,0:0|0:0,0:0:0:0:
468,28,22210,1,8,0:0:0:0:
300,93,22585,1,0,0:0:0:0:
130,33,22960,6,0,B|123:73|123:73|132:113|132:113|125:168,2,120.000004577637,6|0|8,0:0|0:0|0:0,0:0:0:0:
36,184,24085,2,0,L|47:124,1,60.0000022888184
109,238,24460,2,0,L|98:298,1,60.0000022888184,2|0,0:0|0:0,0:0:0:0:
30,356,24835,1,2,0:0:0:0:
194,281,25210,1,8,0:0:0:0:
132,111,25585,5,0,0:0:0:0:
199,170,25772,1,0,0:0:0:0:
262,104,25960,2,0,P|311:72|370:74,1,120.000004577637,6|0,0:0|0:0,0:0:0:0:
417,240,26710,2,0,P|364:213|336:161,1,120.000004577637,8|0,0:0|0:0,0:0:0:0:
429,148,27272,1,0,0:0:0:0:
501,221,27460,6,0,P|505:248|497:283,1,60.0000022888184,2|0,0:0|0:0,0:0:0:0:
425,381,27835,2,0,P|421:351|427:322,1,60.0000022888184,2|0,0:0|0:0,0:0:0:0:
341,348,28210,5,8,0:0:0:0:
256,192,28585,1,0,0:0:0:0:
256,192,28772,1,0,0:0:0:0:
256,192,28960,6,0,P|272:132|262:66,1,120.000004577637,6|0,0:0|0:0,0:0:0:0:
90,117,29710,2,0,P|73:176|84:243,1,120.000004577637,8|0,0:0|0:0,0:0:0:0:
128,309,30272,1,0,0:0:0:0:
209,346,30460,2,0,P|238:350|270:347,1,60.0000022888184,2|0,0:0|0:0,0:0:0:0:
349,308,30835,2,0,P|378:303|408:306,1,60.0000022888184,2|0,0:0|0:0,0:0:0:0:
485,353,31210,1,8,0:0:0:0:
377,208,31585,1,0,0:0:0:0:
450,157,31772,1,0,0:0:0:0:
364,128,31960,6,0,P|311:157|295:213,1,120.000004577637,6|0,0:0|0:0,0:0:0:0:
120,257,32710,2,0,P|172:292|188:356,1,120.000004577637,8|0,0:0|0:0,0:0:0:0:
97,346,33272,1,0,0:0:0:0:
33,281,33460,2,0,P|29:248|43:212,1,60.0000022888184,2|0,0:0|0:0,0:0:0:0:
115,179,33835,2,0,P|133:150|167:134,1,60.0000022888184,2|0,2:0|0:0,0:0:0:0:
204,218,34210,2,0,L|339:212,1,120.000004577637,8|0,0:0|0:0,0:0:0:0:
390,273,34772,1,0,0:0:0:0:
460,217,34960,6,0,P|446:160|461:102,1,120.000004577637,6|0,0:0|0:0,0:0:0:0:
305,11,35710,2,0,P|319:68|305:126,1,120.000004577637,8|0,0:0|0:0,0:0:0:0:
253,200,36272,1,0,0:0:0:0:
167,228,36460,2,0,P|137:230|108:222,1,60.0000022888184,2|0,0:0|0:0,0:0:0:0:
125,83,36835,2,0,P|141:107|148:136,1,60.0000022888184,2|0,0:0|0:0,0:0:0:0:
51,148,37210,5,8,0:0:0:0:
51,148,37397,1,2,0:0:0:0:
108,222,37585,1,2,0:0:0:0:
108,222,37772,1,2,0:0:0:0:
59,298,37960,6,0,P|169:286|185:176,1,240.000009155274,6|8,0:0|0:0,0:0:0:0:
181,116,39085,2,0,P|178:146|184:175,1,60.0000022888184
222,257,39460,2,0,P|225:286|219:316,1,60.0000022888184,2|0,0:0|0:0,0:0:0:0:
145,367,39835,1,2,0:0:0:0:
324,356,40210,2,0,P|338:297|332:238,1,120.000004577637,8|0,0:0|0:0,0:0:0:0:
285,161,40772,1,0,0:0:0:0:
251,77,40960,6,0,P|357:126|469:92,1,240.000009155274,6|8,0:0|0:0,0:0:0:0:
473,33,42085,2,0,P|465:61|468:91,1,60.0000022888184
485,180,42460,2,0,P|492:208|489:238,1,60.0000022888184,2|0,0:0|0:0,0:0:0:0:
454,321,42835,2,0,P|395:330|336:298,2,120.000004577637,2|12|0,0:0|0:0|0:0,0:0:0:0:
333,185,43960,6,0,P|234:242|227:356,1,240.000009155274,2|12,0:0|0:0,0:0:0:0:
287,360,45085,2,0,L|211:356,1,60.0000022888184
167,289,45460,2,0,L|107:292,1,60.0000022888184,2|0,0:0|0:0,0:0:0:0:
22,322,45835,2,0,P|28:262|10:206,1,120.000004577637,2|12,0:0|0:0,0:0:0:0:
42,122,46397,1,0,0:0:0:0:
113,67,46585,2,0,P|141:55|171:52,1,60.0000022888184
338,94,46960,6,0,P|266:181|163:138,1,240.000009155274,2|12,0:0|0:0,0:0:0:0:
248,35,48085,2,0,L|245:108,1,60.0000022888184,0|8,0:0|0:0,0:0:0:0:
163,138,48460,2,0,L|168:260,2,120.000004577637,8|2|12,0:0|0:0|0:0,0:0:0:0:
133,53,49397,1,0,0:0:0:0:
48,84,49584,1,2,0:0:0:0:
79,170,49772,1,2,0:0:0:0:
163,138,49960,6,2,B|210:126|210:126|259:138|259:138|319:126,1,160,2|0,0:0|0:0,0:0:0:0:
456,322,50710,2,0,B|395:334|395:334|347:322|347:322|299:334,1,160,8|0,0:0|0:0,0:0:0:0:
184,368,51272,1,0,0:0:0:0:
70,328,51460,2,0,P|56:284|68:238,1,80,2|0,0:0|0:0,0:0:0:0:
210,233,51835,2,0,P|178:267|133:279,1,80,2|0,0:0|0:0,0:0:0:0:
128,186,52210,2,0,B|108:126|158:88|134:18,1,160,12|0,0:0|0:0,0:0:0:0:
306,288,52960,6,0,P|384:292|441:234,1,160,2|0,0:0|0:0,0:0:0:0:
376,59,53710,2,0,P|332:124|353:203,1,160,8|0,0:0|0:0,0:0:0:0:
306,288,54272,1,0,0:0:0:0:
221,239,54460,2,0,P|183:228|144:228,1,80,2|0,0:0|0:0,0:0:0:0:
69,133,54835,2,0,P|107:144|146:144,1,80,2|0,0:0|0:0,0:0:0:0:
237,66,55210,2,0,L|404:61,1,160,12|0,0:0|0:0,0:0:0:0:
450,293,55960,6,0,P|427:219|360:177,1,160,2|0,0:0|0:0,0:0:0:0:
177,336,56710,2,0,P|180:257|233:200,1,160,8|0,0:0|0:0,0:0:0:0:
315,287,57272,1,0,0:0:0:0:
360,177,57460,2,0,L|346:94,1,80,2|0,0:0|0:0,0:0:0:0:
247,30,57835,2,0,L|260:108,1,80,2|0,0:0|0:0,0:0:0:0:
360,177,58210,2,0,P|437:168|487:107,1,160,12|0,0:0|0:0,0:0:0:0:
151,206,58960,6,0,P|74:215|24:276,1,160,2|0,0:0|0:0,0:0:0:0:
244,151,59710,2,0,P|182:102|105:109,1,160,8|0,0:0|0:0,0:0:0:0:
22,172,60272,1,0,0:0:0:0:
24,276,60460,2,0,L|38:357,1,80,2|0,0:0|0:0,0:0:0:0:
154,327,60835,2,0,L|221:374,1,80,2|0,0:0|0:0,0:0:0:0:
306,290,61210,2,0,L|478:281,1,160,12|0,0:0|0:0,0:0:0:0:
319,148,61960,6,0,P|281:216|305:289,1,160,2|0,0:0|0:0,0:0:0:0:
205,224,62522,1,0,0:0:0:0:
232,105,62710,2,0,P|259:76|294:58,1,80,8|0,0:0|0:0,0:0:0:0:
391,178,63085,2,0,P|352:168|318:147,1,80
393,52,63460,2,0,P|467:78|511:144,2,160,2|0|12,0:0|0:0|0:0,0:0:0:0:
205,224,64585,1,0,0:0:0:0:
77,20,64960,6,0,P|117:87|113:166,1,160,2|0,0:0|0:0,0:0:0:0:
331,270,65710,2,0,P|290:202|294:123,1,160,8|0,0:0|0:0,0:0:0:0:
361,23,66272,1,0,0:0:0:0:
438,114,66460,2,0,P|423:150|392:174,1,80,2|0,0:0|0:0,0:0:0:0:
454,276,66835,2,0,P|468:239|500:216,1,80,2|0,0:0|0:0,0:0:0:0:
375,252,67210,2,0,P|301:276|227:250,1,160,12|0,0:0|0:0,0:0:0:0:
290,12,67960,6,0,L|301:181,1,160,2|0,0:0|0:0,0:0:0:0:
117,326,68710,2,0,L|127:166,1,160,8|0,0:0|0:0,0:0:0:0:
85,54,69272,1,0,0:0:0:0:
29,160,69460,2,0,L|23:239,1,80,2|0,0:0|0:0,0:0:0:0:
111,246,69835,2,0,L|116:325,1,80,2|0,0:0|0:0,0:0:0:0:
231,360,70210,2,0,P|288:307|366:306,1,160,12|0,0:0|0:0,0:0:0:0:
475,355,70772,1,0,0:0:0:0:
438,240,70960,6,0,L|431:68,1,160,2|0,0:0|0:0,0:0:0:0:
237,201,71710,2,0,L|230:360,1,160,8|0,0:0|0:0,0:0:0:0:
331,295,72272,1,0,0:0:0:0:
316,174,72460,2,0,P|264:118|188:126,2,160,2|2|12,0:0|0:0|0:0,0:0:0:0:
115,305,73585,2,0,L|120:225,1,80,2|0,0:0|0:0,0:0:0:0:
72,106,73960,5,0,0:0:0:0:
122,49,85960,6,0,L|241:51,1,120.000004577637,2|0,0:0|0:0,0:0:0:0:
405,127,86710,2,0,L|285:129,1,120.000004577637,8|0,0:0|0:0,0:0:0:0:
212,182,87272,1,0,0:0:0:0:
189,269,87460,2,0,L|207:359,1,60.0000022888184,2|0,0:0|0:0,0:0:0:0:
287,303,87835,2,0,L|275:244,1,60.0000022888184,2|0,0:0|0:0,0:0:0:0:
135,207,88210,1,12,0:0:0:0:
31,41,88585,1,0,0:0:0:0:
99,98,88772,1,0,0:0:0:0:
21,144,88960,6,0,P|7:202|17:261,1,120.000004577637,2|0,0:0|0:0,0:0:0:0:
198,159,89710,2,0,P|154:118|98:97,1,120.000004577637,8|0,0:0|0:0,0:0:0:0:
97,187,90272,1,0,0:0:0:0:
169,240,90460,2,0,P|197:245|243:237,1,60.0000022888184,2|0,0:0|0:0,0:0:0:0:
295,182,90835,2,0,P|324:178|354:183,1,60.0000022888184,2|0,0:0|0:0,0:0:0:0:
471,249,91210,2,0,P|447:185|453:118,1,120.000004577637,12|0,0:0|0:0,0:0:0:0:
465,46,91772,1,0,0:0:0:0:
340,19,91960,6,0,L|354:138,1,120.000004577637,2|0,0:0|0:0,0:0:0:0:
210,29,92710,2,0,L|224:148,1,120.000004577637,8|0,0:0|0:0,0:0:0:0:
179,226,93272,1,0,0:0:0:0:
234,295,93460,2,0,P|264:298|294:294,1,60.0000022888184,2|0,0:0|0:0,0:0:0:0:
334,213,93835,2,0,P|304:210|274:214,1,60.0000022888184,2|0,0:0|0:0,0:0:0:0:
380,290,94210,2,0,P|417:245|416:180,1,120.000004577637,12|0,0:0|0:0,0:0:0:0:
387,101,94772,1,0,0:0:0:0:
312,50,94960,6,0,P|372:53|439:16,1,120.000004577637,2|0,0:0|0:0,0:0:0:0:
273,125,95710,2,0,P|213:122|146:159,1,120.000004577637,8|0,0:0|0:0,0:0:0:0:
101,215,96272,1,0,0:0:0:0:
92,304,96460,1,2,0:0:0:0:
179,273,96647,2,0,P|208:278|233:294,2,60.0000022888184,2|0|0,0:0|0:0|0:0,0:0:0:0:
92,304,97210,2,0,P|48:288|12:212,1,120.000004577637,12|2,0:0|0:0,0:0:0:0:
40,140,97772,1,2,0:0:0:0:
166,153,97960,6,0,L|182:297,1,120.000004577637,2|0,0:0|0:0,0:0:0:0:
332,176,98710,2,0,L|273:308,1,120.000004577637,8|0,0:0|0:0,0:0:0:0:
324,368,99272,1,0,0:0:0:0:
400,320,99460,2,0,L|432:248,1,60.0000022888184,2|0,0:0|0:0,0:0:0:0:
496,212,99835,2,0,L|516:296,1,60.0000022888184,2|0,0:0|0:0,0:0:0:0:
420,180,100210,2,0,P|412:112|432:36,1,120.000004577637,12|0,0:0|0:0,0:0:0:0:
488,4,100772,1,0,0:0:0:0:
380,72,100960,6,0,P|312:80|236:60,1,120.000004577637,2|0,0:0|0:0,0:0:0:0:
60,28,101710,2,0,P|113:70|153:138,1,120.000004577637,8|0,0:0|0:0,0:0:0:0:
180,208,102272,1,0,0:0:0:0:
79,185,102460,2,0,P|47:181|-17:201,2,60.0000022888184,2|0|2,0:0|0:0|0:0,0:0:0:0:
51,269,103022,1,0,0:0:0:0:
140,316,103210,2,0,P|196:332|268:312,1,120.000004577637,12|0,0:0|0:0,0:0:0:0:
348,272,103772,1,0,0:0:0:0:
356,374,103960,6,0,P|298:359|254:319,1,120.000004577637,2|0,0:0|0:0,0:0:0:0:
356,172,104710,2,0,P|298:186|254:226,1,120.000004577637,8|0,0:0|0:0,0:0:0:0:
348,272,105272,1,0,0:0:0:0:
436,220,105460,2,0,P|448:176|428:128,1,60.0000022888184,2|0,0:0|0:0,0:0:0:0:
376,88,105835,2,0,P|364:44|384:-4,1,60.0000022888184,2|0,0:0|0:0,0:0:0:0:
256,116,106210,2,0,B|184:108|172:72|164:40|48:48,1,180.000006866455,12|0,2:0|0:0,0:0:0:0:
88,172,106960,6,0,P|100:240|160:308,1,120.000004577637,2|0,0:0|0:0,0:0:0:0:
356,172,107710,1,8,0:0:0:0:
220,292,108085,1,0,0:0:0:0:
192,196,108272,1,0,0:0:0:0:
256,116,108460,2,0,P|256:88|236:48,2,60.0000022888184,2|0|2,0:0|0:0|0:0,0:0:0:0:
356,60,109022,5,0,0:0:0:0:
376,68,109116,1,0,0:0:0:0:
396,76,109210,2,0,B|440:120|440:120|472:180,1,120.000004577637,12|0,0:0|0:0,0:0:0:0:
436,268,109772,1,0,0:0:0:0:
316,356,109960,6,0,P|292:300|292:238,1,120.000004577637,2|0,0:0|0:0,0:0:0:0:
136,252,110710,2,0,P|171:204|226:172,1,120.000004577637,12|0,0:0|0:0,0:0:0:0:
148,40,111460,2,0,P|207:47|259:76,1,120.000004577637,2|0,0:0|0:0,0:0:0:0:
292,241,112210,5,12,0:0:0:0:
204,296,112397,1,0,0:0:0:0:
292,348,112585,2,0,P|328:344|376:308,1,60.0000022888184
408,248,112960,2,0,P|447:299|447:368,1,120.000004577637,2|0,0:0|0:0,0:0:0:0:
412,152,113710,2,0,P|372:100|372:31,1,120.000004577637,12|0,0:0|0:0,0:0:0:0:
300,140,114272,1,0,0:0:0:0:
200,192,114460,2,0,P|135:200|75:165,1,120.000004577637,2|0,0:0|0:0,0:0:0:0:
124,52,115210,6,0,L|150:105,1,60.0000022888184,12|0,0:0|0:0,0:0:0:0:
87,177,115585,2,0,L|87:265,1,60.0000022888184
31,343,115960,2,0,L|95:219,1,120.000004577637
200,308,116710,2,0,P|257:324|314:308,1,120.000004577637,12|0,0:0|0:0,0:0:0:0:
404,256,117272,1,0,0:0:0:0:
480,340,117460,6,0,L|504:184,1,120.000004577637,2|0,0:0|0:0,0:0:0:0:
396,44,118210,2,0,L|420:200,1,120.000004577637,12|0,0:0|0:0,0:0:0:0:
200,308,118960,2,0,L|224:152,1,120.000004577637,2|0,0:0|0:0,0:0:0:0:
120,36,119710,1,12,0:0:0:0:
44,104,119897,1,0,0:0:0:0:
88,196,120085,2,0,L|76:280,1,60.0000022888184
168,112,120460,5,10,0:0:0:0:
28,8,120835,1,2,0:0:0:0:
80,256,121210,1,12,0:0:0:0:
124,336,121397,1,0,0:0:0:0:
32,328,121585,2,0,P|0:288|-8:252,1,80
44,104,121960,6,0,B|74:66|74:66|121:47|121:47|163:2,1,160,2|0,0:0|0:0,0:0:0:0:
348,2,122710,2,0,B|390:47|390:47|437:66|437:66|468:104,1,160,8|0,0:0|0:0,0:0:0:0:
464,224,123272,1,0,0:0:0:0:
424,336,123460,2,0,P|395:299|389:252,1,80,2|0,0:0|0:0,0:0:0:0:
296,320,123835,2,0,P|252:302|225:264,1,80,2|0,0:0|0:0,0:0:0:0:
156,372,124210,2,0,B|100:400|55:356|-1:384,1,160,12|0,0:0|0:0,0:0:0:0:
48,148,124960,6,0,P|126:144|183:202,1,160,2|0,0:0|0:0,0:0:0:0:
464,148,125710,2,0,P|386:144|329:202,1,160,8|0,0:0|0:0,0:0:0:0:
256,272,126272,1,0,0:0:0:0:
152,260,126460,2,0,P|114:271|81:292,1,80,2|0,0:0|0:0,0:0:0:0:
184,340,126835,2,0,P|221:328|254:307,1,80,2|0,0:0|0:0,0:0:0:0:
256,172,127210,2,0,P|268:88|328:28,1,160,12|0,0:0|0:0,0:0:0:0:
416,160,127960,6,0,P|482:212|504:294,1,160,2|0,0:0|0:0,0:0:0:0:
344,300,128710,6,0,P|265:331|183:309,1,160,8|0,0:0|0:0,0:0:0:0:
100,276,129272,1,0,0:0:0:0:
180,212,129460,2,0,L|166:129,1,80,2|0,0:0|0:0,0:0:0:0:
60,48,129835,2,0,L|73:126,1,80,2|0,0:0|0:0,0:0:0:0:
180,212,130210,2,0,P|257:203|307:142,1,160,12|0,0:0|0:0,0:0:0:0:
73,126,130960,6,0,P|19:182|20:261,1,160,2|0,0:0|0:0,0:0:0:0:
216,332,131710,6,0,P|269:275|268:196,1,160,8|0,0:0|0:0,0:0:0:0:
172,236,132272,1,0,0:0:0:0:
216,332,132460,2,0,P|268:351|312:350,1,80,2|0,0:0|0:0,0:0:0:0:
368,280,132835,2,0,P|411:244|433:207,1,80,2|0,0:0|0:0,0:0:0:0:
392,76,133210,2,0,P|430:151|408:258,1,160,12|0,0:0|0:0,0:0:0:0:
296,176,133772,1,8,0:0:0:0:
204,76,133960,6,0,P|166:146|171:225,1,160,2|0,0:0|0:0,0:0:0:0:
20,368,134710,2,0,L|36:272,1,80,8|0,0:0|0:0,0:0:0:0:
0,192,135085,1,0,0:0:0:0:
64,108,135272,2,0,L|224:60,1,160,2|0,0:0|0:0,0:0:0:0:
292,136,135835,2,0,L|276:214,1,80,2|0,0:0|0:0,0:0:0:0:
180,312,136210,2,0,B|111:318|111:318|6:265,1,160,12|0,0:0|0:0,0:0:0:0:
143,109,136960,6,0,P|221:99|291:136,1,160,2|0,0:0|0:0,0:0:0:0:
400,316,137710,2,0,P|397:238|438:170,1,160,8|0,0:0|0:0,0:0:0:0:
508,268,138272,1,0,0:0:0:0:
400,316,138460,2,0,P|360:318|324:299,1,80,2|0,0:0|0:0,0:0:0:0:
232,224,138835,2,0,P|196:205|157:208,1,80,2|0,0:0|0:0,0:0:0:0:
32,264,139210,2,0,P|100:301|178:289,1,160,12|0,0:0|0:0,0:0:0:0:
108,92,139960,6,0,B|32:76|32:76|48:164,1,160,2|0,0:0|0:0,0:0:0:0:
404,92,140710,2,0,B|480:76|480:76|464:164,1,160,8|0,0:0|0:0,0:0:0:0:
440,260,141272,1,0,0:0:0:0:
352,320,141460,2,0,L|272:272,1,80,2|0,0:0|0:0,0:0:0:0:
296,144,141835,2,0,L|352:216,1,80,2|0,0:0|0:0,0:0:0:0:
208,188,142210,2,0,P|152:133|147:56,1,160,12|2,0:0|0:0,0:0:0:0:
248,88,142772,1,0,0:0:0:0:
208,188,142960,6,2,B|168:264|168:264|101:299,1,160,0|0,0:0|0:0,0:0:0:0:
12,112,143710,2,0,B|52:36|52:36|119:1,1,160,8|0,0:0|0:0,0:0:0:0:
236,8,144272,1,0,0:0:0:0:
336,76,144460,2,0,P|384:105|494:92,1,160,2|0,0:0|0:0,0:0:0:0:
292,240,145210,1,12,0:0:0:0:
292,344,145397,1,8,0:0:0:0:
376,280,145585,2,0,P|384:240|368:184,1,80,2|2,0:0|0:0,0:0:0:0:
272,140,145960,6,0,B|225:124|225:124|175:131|175:131|116:114,1,160,2|0,0:0|0:0,0:0:0:0:
159,14,146710,2,0,B|147:74|147:74|117:115|117:115|110:163,1,160,8|0,0:0|0:0,0:0:0:0:
144,248,147272,1,0,0:0:0:0:
64,340,147460,2,0,P|50:296|62:250,1,80,2|0,0:0|0:0,0:0:0:0:
160,336,147835,2,0,P|196:351|222:381,1,80,2|0,0:0|0:0,0:0:0:0:
348,352,148210,2,0,B|403:321|392:259|448:230,1,160,12|0,0:0|0:0,0:0:0:0:
300,40,148960,6,0,P|231:76|211:151,1,160,2|0,0:0|0:0,0:0:0:0:
280,276,149710,2,0,P|324:211|303:132,1,160,8|0,0:0|0:0,0:0:0:0:
212,152,150272,1,0,0:0:0:0:
152,236,150460,2,0,P|143:274|146:313,1,80,2|0,0:0|0:0,0:0:0:0:
72,192,150835,2,0,P|80:153|77:114,1,80,2|0,0:0|0:0,0:0:0:0:
152,40,151210,2,0,P|224:20|319:35,1,160,12|0,0:0|0:0,0:0:0:0:
240,176,151960,6,0,P|222:252|258:321,1,160,2|0,0:0|0:0,0:0:0:0:
460,272,152710,2,0,P|457:193|404:136,1,160,8|0,0:0|0:0,0:0:0:0:
308,120,153272,1,0,0:0:0:0:
216,72,153460,2,0,L|108:100,1,80,2|0,0:0|0:0,0:0:0:0:
144,228,153835,2,0,L|204:156,1,80,2|0,0:0|0:0,0:0:0:0:
288,212,154210,2,0,P|319:282|293:356,1,160,12|0,0:0|0:0,0:0:0:0:
68,276,154960,6,2,P|36:205|62:131,1,160,0|2,0:0|0:0,0:0:0:0:
284,36,155710,6,2,P|346:81|361:158,1,160,10|2,2:0|2:0,2:0:0:0:
256,140,156272,1,0,0:0:0:0:
188,60,156460,2,0,P|160:28|88:4,1,80,2|2,0:0|0:0,0:0:0:0:
96,108,156835,2,0,P|104:149|154:206,1,80,2|0,0:0|0:0,0:0:0:0:
220,252,157210,2,0,B|292:284|292:284|332:368,1,160,12|8,0:0|0:0,0:0:0:0:
432,368,157772,1,0,0:0:0:0:
512,276,157960,6,0,P|472:196|380:188,1,160,2|0,0:0|0:0,0:0:0:0:
128,332,158710,2,0,L|96:252,1,80,8|0,0:0|0:0,0:0:0:0:
68,160,159085,1,0,0:0:0:0:
148,92,159272,2,0,P|172:180|88:264,1,160,2|0,0:0|0:0,0:0:0:0:
172,336,159835,2,0,P|212:364|276:364,1,80,2|0,0:0|0:0,0:0:0:0:
352,324,160210,2,0,P|372:268|356:160,1,160,12|0,0:0|0:0,0:0:0:0:
160,14,160960,6,2,P|138:90|152:169,1,160,0|2,0:0|0:0,0:0:0:0:
360,169,161710,2,0,P|373:90|351:14,1,160,8|0,0:0|0:0,0:0:0:0:
256,104,162272,1,0,0:0:0:0:
360,169,162460,2,0,P|372:230|355:264,1,80,2|0,0:0|0:0,0:0:0:0:
256,289,162835,2,0,P|276:228|308:208,1,80,2|0,0:0|0:0,0:0:0:0:
329,335,163210,2,0,P|269:377|173:286,1,160,12|0,0:0|0:0,0:0:0:0:
84,172,163960,6,0,L|94:12,1,160,2|0,0:0|0:0,0:0:0:0:
68,268,164710,2,0,L|152:108,1,160,8|0,0:0|0:0,0:0:0:0:
184,248,165272,1,0,0:0:0:0:
308,208,165460,2,0,L|296:128,1,80,2|0,0:0|0:0,0:0:0:0:
388,52,165835,2,0,L|400:132,1,80,2|0,0:0|0:0,0:0:0:0:
412,268,166210,2,0,P|355:321|277:322,1,160,12|0,0:0|0:0,0:0:0:0:
184,248,166772,1,0,0:0:0:0:
60,268,166960,6,0,B|36:320|36:320|44:416,2,120.000004577637,6|0|0,0:0|0:0|0:0,0:0:0:0:
80,88,168272,5,0,0:0:0:0:
164,124,168460,2,0,P|228:132|296:88,1,120.000004577637
400,16,169210,1,0,0:0:0:0:
448,188,169585,1,2,0:0:0:0:
420,272,169772,1,0,0:0:0:0:
340,304,169960,2,0,L|240:288,1,80
104,320,170710,2,0,L|56:224,1,80
60,88,171460,1,0,0:0:0:0:
216,128,171835,6,0,P|244:104|264:52,2,80
176,52,172960,1,0,0:0:0:0:
148,184,173335,1,0,0:0:0:0:
259,263,173710,1,0,0:0:0:0:
380,204,174085,2,0,P|408:200|476:228,2,80
408,284,175210,1,0,0:0:0:0:
320,280,175585,2,0,P|327:318|350:351,2,80
256,220,176710,5,0,0:0:0:0:
176,328,177085,1,0,0:0:0:0:
68,244,177460,2,0,L|56:164,1,80
132,52,178210,1,0,0:0:0:0:
156,184,178585,1,0,0:0:0:0:
256,100,178960,6,0,L|288:20,1,80
368,164,179749,2,0,L|336:244,1,80
372,68,180644,6,0,L|468:36,1,80
414,212,181678,6,0,L|318:244,1,80
256,192,183123,5,0,0:0:0:0:
256,176,183214,2,0,L|256:160,2,10
