osu file format v14

[General]
AudioFilename: audio.mp3
AudioLeadIn: 0
PreviewTime: 40540
Countdown: 1
SampleSet: Soft
StackLeniency: 0.7
Mode: 0
LetterboxInBreaks: 0
WidescreenStoryboard: 0

[Editor]
DistanceSpacing: 0.9
BeatDivisor: 4
GridSize: 4
TimelineZoom: 3.299999

[Metadata]
Title:TREAT OR TREAT?
TitleUnicode:TREAT OR TREAT?
Artist:4U
ArtistUnicode:4U
Creator:_kotachi_
Version:TRICK AND TRICK!
Source:Tokyo 7th Sisters
Tags:ナナシス シスターズ
BeatmapID:2073517
BeatmapSetID:991475

[Difficulty]
HPDrainRate:5
CircleSize:3.9
OverallDifficulty:9.2
ApproachRate:9.5
SliderMultiplier:1.76
SliderTickRate:1

[Events]
//Background and Video events
0,0,"BG.jpg",0,0
//Break Periods
//Storyboard Layer 0 (Background)
//Storyboard Layer 1 (Fail)
//Storyboard Layer 2 (Pass)
//Storyboard Layer 3 (Foreground)
//Storyboard Sound Samples

[TimingPoints]
-5,294.117647058824,4,2,1,70,1,0
436,-83.3333333333333,4,2,1,70,0,0
1024,-83.3333333333333,4,2,1,5,0,0
1171,-100,4,2,1,70,0,0
2936,-83.3333333333333,4,2,1,70,0,0
3524,-100,4,2,1,70,0,0
9553,-100,4,2,1,5,0,0
9627,-100,4,2,1,70,0,0
12936,-111.111111111111,4,2,1,60,0,0
15289,-90.9090909090909,4,2,1,70,0,0
17642,-111.111111111111,4,2,1,60,0,0
19995,-90.9090909090909,4,2,1,70,0,0
22347,-111.111111111111,4,2,1,60,0,0
24700,-90.9090909090909,4,2,1,70,0,0
27053,-111.111111111111,4,2,1,60,0,0
29406,-90.9090909090908,4,2,1,60,0,0
31759,-100,4,2,1,70,0,0
33230,-66.6666666666667,4,2,2,70,0,0
34112,-100,4,2,1,70,0,0
35583,-66.6666666666667,4,2,2,70,0,0
41171,-83.3333333333333,4,2,1,80,0,1
61171,-83.3333333333333,4,2,1,70,0,0
118818,292.682926829268,4,2,1,70,1,0
128183,295.566502463054,4,2,1,70,1,0
137641,294.117647058824,4,2,1,70,1,0

[HitObjects]
106,271,436,6,0,B|107:306|107:306|70:322|70:322|98:186|98:186|168:204|168:204|196:239|196:239|294:260,1,422.399987109375
431,28,1171,5,12,0:0:0:0:
246,167,1318,1,8,0:1:0:0:
432,214,1465,1,8,0:1:0:0:
196,54,1612,5,8,0:0:0:0:
344,190,1759,1,8,0:1:0:0:
160,261,1906,1,8,0:1:0:0:
321,95,2053,5,8,0:0:0:0:
284,343,2200,1,0,0:0:0:0:
133,171,2347,1,4,0:3:0:0:
418,302,2495,5,8,0:0:0:0:
160,261,2642,1,4,0:3:0:0:
457,114,2789,1,8,0:1:0:0:
279,362,2936,6,0,L|174:349,1,105.599996777344,12|0,0:0|0:0,0:0:0:0:
321,95,3230,2,0,L|425:82,1,105.599996777344,12|0,0:0|0:0,0:0:0:0:
139,270,3524,6,0,P|104:191|143:114,2,176,12|8|10,0:1|0:0|0:1,0:0:0:0:
271,185,4259,1,8,0:1:0:0:
201,42,4406,2,0,P|157:27|117:14,1,88,8|0,0:0|0:0,0:0:0:0:
252,204,4700,5,10,0:1:0:0:
342,33,4847,1,8,0:1:0:0:
403,250,4995,1,8,0:0:0:0:
273,103,5142,2,0,B|211:122|211:122|181:160|181:160|104:179,1,176,10|8,0:1|0:1,0:0:0:0:
46,365,5583,2,0,B|88:328|88:328|59:251,1,132,8|0,0:0|0:0,0:0:0:0:
41,237,5877,6,0,P|76:293|191:285,2,176,10|8|10,0:1|0:0|0:1,0:0:0:0:
184,107,6612,1,8,0:1:0:0:
262,277,6759,2,0,P|273:327|279:372,1,88,8|0,0:0|0:0,0:0:0:0:
400,100,7053,5,10,0:1:0:0:
199,201,7200,1,8,0:1:0:0:
405,269,7347,1,8,0:0:0:0:
289,105,7495,2,0,L|197:87,1,88,10|0,0:1|0:0,0:0:0:0:
23,194,7789,1,8,0:1:0:0:
122,51,7936,2,0,B|112:101|112:101|123:132|123:132|112:185,1,132,8|0,0:0|0:0,0:0:0:0:
81,263,8230,6,0,P|162:278|266:298,2,176,12|8|10,0:1|0:0|0:1,0:0:0:0:
280,150,8965,1,8,0:1:0:0:
326,240,9112,2,0,P|337:277|341:329,1,88,8|0,0:0|0:0,0:0:0:0:
193,156,9406,6,0,P|167:107|213:31,1,132,10|0,0:1|0:0,0:0:0:0:
209,33,9700,1,8,0:0:0:0:
95,188,9847,2,0,P|53:180|-2:175,1,88,10|0,0:1|0:0,0:0:0:0:
204,130,10142,1,8,0:1:0:0:
215,358,10289,2,0,B|189:275|189:275|226:220,1,132,8|0,0:0|0:0,0:0:0:0:
204,227,10583,6,0,L|391:241,1,176,10|8,0:1|0:0,0:0:0:0:
473,303,11024,1,0,0:0:0:0:
501,123,11171,2,0,P|479:164|464:211,1,88,10|8,0:1|0:1,0:0:0:0:
304,58,11465,2,0,P|311:103|329:150,1,88,8|2,0:0|0:0,0:0:0:0:
473,303,11759,5,12,0:0:0:0:
392,83,11906,1,2,0:0:0:0:
275,274,12053,1,8,0:1:0:0:
480,89,12200,5,12,0:0:0:0:
210,168,12347,1,2,0:0:0:0:
399,384,12495,1,8,0:1:0:0:
386,61,12642,5,12,0:0:0:0:
264,302,12789,1,0,0:0:0:0:
155,103,12936,6,0,L|321:162,1,158.399995166016,12|8,0:1|0:0,0:0:0:0:
84,332,13524,5,10,0:1:0:0:
164,197,13671,1,8,0:1:0:0:
213,378,13818,1,8,0:0:0:0:
365,110,14112,5,10,0:1:0:0:
310,266,14259,1,8,0:1:0:0:
289,53,14406,1,8,0:0:0:0:
447,138,14553,2,0,L|264:161,1,158.399995166016,10|8,0:1|0:1,0:0:0:0:
378,334,14995,2,0,B|407:300|407:300|380:212,1,118.799996374512,8|0,0:0|0:0,0:0:0:0:
308,266,15289,6,0,B|195:252|245:347|121:330,1,193.600005908203,12|8,0:1|0:0,0:0:0:0:
16,118,15730,1,0,0:0:0:0:
154,247,15877,1,10,0:1:0:0:
172,44,16024,1,8,0:1:0:0:
50,247,16171,2,0,P|37:316|30:360,1,96.8000029541017,8|0,0:0|0:0,0:0:0:0:
240,121,16465,5,10,0:1:0:0:
13,84,16612,1,8,0:1:0:0:
171,268,16759,1,8,0:0:0:0:
260,32,16906,2,0,P|172:61|157:158,1,193.600005908203,10|8,0:1|0:1,0:0:0:0:
376,349,17347,2,0,L|365:205,1,145.200004431152,8|0,0:0|0:0,0:0:0:0:
417,145,17642,6,0,P|343:170|269:147,2,158.399995166016,12|8|10,0:1|0:0|0:1,0:0:0:0:
463,25,18377,1,8,0:1:0:0:
490,182,18524,1,8,0:0:0:0:
151,189,18818,5,10,0:1:0:0:
243,63,18965,1,8,0:1:0:0:
240,261,19112,1,8,0:0:0:0:
69,159,19259,2,0,L|249:143,1,158.399995166016,10|8,0:1|0:1,0:0:0:0:
369,339,19700,2,0,B|409:296|409:296|381:235,1,118.799996374512,8|0,0:0|0:0,0:0:0:0:
328,165,19995,6,0,B|401:157|401:157|446:185|446:185|525:175,1,193.600005908203,12|8,0:1|0:0,0:0:0:0:
323,67,20436,1,0,0:0:0:0:
484,3,20583,2,0,P|475:52|468:98,1,96.8000029541017,10|8,0:1|0:1,0:0:0:0:
227,293,20877,2,0,P|220:245|211:197,1,96.8000029541017,8|0,0:0|0:0,0:0:0:0:
145,31,21171,5,10,0:1:0:0:
116,247,21318,1,8,0:1:0:0:
249,119,21465,1,8,0:0:0:0:
4,175,21612,2,0,P|23:269|36:365,1,193.600005908203,10|8,0:1|0:1,0:0:0:0:
311,288,22053,2,0,B|222:267|222:267|176:306,1,145.200004431152,8|0,0:0|0:0,0:0:0:0:
116,247,22347,6,0,L|140:83,1,158.399995166016,12|8,0:1|0:0,0:0:0:0:
391,162,22936,5,10,0:1:0:0:
261,76,23083,1,8,0:1:0:0:
453,35,23230,1,8,0:0:0:0:
287,284,23524,5,10,0:1:0:0:
384,140,23671,1,8,0:1:0:0:
416,335,23818,1,8,0:0:0:0:
198,269,23965,2,0,P|241:204|321:203,1,158.399995166016,10|8,0:1|0:1,0:0:0:0:
223,356,24406,2,0,P|178:347|133:341,1,79.1999975830079,8|0,0:0|0:0,0:0:0:0:
54,179,24700,6,0,P|139:185|198:282,1,193.600005908203,12|8,0:1|0:0,0:0:0:0:
3,352,25141,1,0,0:0:0:0:
44,161,25288,1,10,0:1:0:0:
145,342,25435,1,8,0:1:0:0:
35,141,25582,2,0,P|43:93|52:45,1,96.8000029541017,8|0,0:0|0:0,0:0:0:0:
311,148,25876,5,10,0:1:0:0:
95,231,26023,1,8,0:1:0:0:
236,53,26170,1,8,0:0:0:0:
231,256,26317,2,0,B|240:190|240:190|213:139|213:139|223:56,1,193.600005908203,10|8,0:1|0:1,0:0:0:0:
480,216,26758,2,0,B|441:191|441:191|409:234|357:236,1,145.200004431152,8|0,0:0|0:0,0:0:0:0:
318,169,27053,6,0,P|318:229|323:327,2,158.399995166016,12|8|10,0:1|0:0|0:1,0:0:0:0:
407,35,27789,1,8,0:1:0:0:
466,186,27936,1,8,0:0:0:0:
464,212,28230,5,10,0:1:0:0:
405,12,28377,1,8,0:1:0:0:
308,191,28524,1,8,0:0:0:0:
192,61,28671,6,0,P|113:34|34:75,1,158.399995166016,10|8,0:1|0:1,0:0:0:0:
105,246,29112,2,0,B|119:123,1,118.799996374512,8|0,0:0|0:0,0:0:0:0:
105,125,29406,6,0,L|142:328,1,193.600005908203,12|8,0:1|0:0,0:0:0:0:
349,350,29847,1,0,0:0:0:0:
222,208,29995,2,0,L|236:109,1,96.8000029541017,10|8,0:1|0:1,0:0:0:0:
437,249,30289,2,0,L|450:344,1,96.8000029541017,8|2,0:0|0:0,0:0:0:0:
406,88,30583,5,8,0:1:0:0:
406,88,30877,5,8,0:0:0:0:
345,253,31024,1,8,1:1:0:0:
257,59,31171,5,8,1:3:0:0:
258,256,31318,1,8,0:0:0:0:
128,36,31465,5,8,0:1:0:0:
174,288,31612,1,4,0:3:0:0:
300,139,31759,5,12,0:1:0:0:
113,193,31906,1,0,0:0:0:0:
250,343,32053,2,0,L|259:231,1,88,8|0,0:0|0:0,0:0:0:0:
136,68,32347,5,8,0:1:0:0:
61,292,32495,1,8,0:1:0:0:
46,74,32642,5,8,0:0:0:0:
174,263,32789,1,0,0:0:0:0:
300,41,32936,5,8,0:0:0:0:
300,41,33230,6,0,L|295:172,1,132.000005035401,6|0,0:0|0:0,0:0:0:0:
456,335,33524,6,0,L|451:203,1,132.000005035401,6|0,0:0|0:0,0:0:0:0:
201,63,33818,6,0,L|196:194,1,132.000005035401,6|0,0:0|0:0,0:0:0:0:
312,314,34112,5,8,0:1:0:0:
372,78,34259,1,0,0:0:0:0:
196,194,34406,1,8,0:0:0:0:
374,233,34553,1,0,0:0:0:0:
200,63,34700,6,0,L|93:49,1,88,8|8,0:1|0:1,0:0:0:0:
121,293,34995,1,8,0:0:0:0:
279,141,35142,1,0,0:0:0:0:
56,198,35289,5,8,0:0:0:0:
56,198,35583,6,0,L|190:211,1,132.000005035401,6|0,0:0|0:0,0:0:0:0:
410,33,35877,6,0,L|276:46,1,132.000005035401,6|0,0:0|0:0,0:0:0:0:
367,293,36171,6,0,L|501:306,1,132.000005035401,6|0,0:0|0:0,0:0:0:0:
