osu file format v14

[General]
AudioFilename: audio.mp3
AudioLeadIn: 0
PreviewTime: 20002
Countdown: 0
SampleSet: Normal
StackLeniency: 0.7
Mode: 1
LetterboxInBreaks: 0
WidescreenStoryboard: 1

[Editor]
Bookmarks: 12015,20015,36015,52015,68015,84015,100015,116015
DistanceSpacing: 0.2
BeatDivisor: 4
GridSize: 32
TimelineZoom: 1.8

[Metadata]
Title:MACKAFUCKA
TitleUnicode:MACKAFUCKA
Artist:4Teen, MORGENSHTERN
ArtistUnicode:4Teen, MORGENSHTERN
Creator:Ryxliee
Version:CLOCKBITE'S MUZUKASHII
Source:
Tags:russian rap русский рэп hip-hop hip hop хип-хоп хип хоп моргенштерн four teen fourteen макафака Jack Black Sax-A-Boom Sax A Boom saxaboom clockbite crayzeei
BeatmapID:3515458
BeatmapSetID:1720183

[Difficulty]
HPDrainRate:6.5
CircleSize:2
OverallDifficulty:4
ApproachRate:10
SliderMultiplier:1.4
SliderTickRate:1

[Events]
//Background and Video events
0,0,"bg.jpg",0,-80
//Break Periods
//Storyboard Layer 0 (Background)
//Storyboard Layer 1 (Fail)
//Storyboard Layer 2 (Pass)
//Storyboard Layer 3 (Foreground)
//Storyboard Layer 4 (Overlay)
//Storyboard Sound Samples

[TimingPoints]
4127,500,4,1,0,75,1,0
4127,-100,4,1,0,75,0,1
20127,-100,4,1,0,75,0,0
52127,-100,4,1,0,75,0,1
68127,-100,4,1,0,75,0,0
100127,-100,4,1,0,75,0,1
116627,-100,4,1,0,75,0,0

[HitObjects]
257,174,4127,5,0,0:0:0:0:
351,237,4627,1,8,0:0:0:0:
176,152,4877,1,0,0:0:0:0:
176,152,5002,1,0,0:0:0:0:
176,152,5252,1,0,0:0:0:0:
186,139,5377,1,0,0:0:0:0:
224,88,5627,1,8,0:0:0:0:
233,179,5877,1,8,0:0:0:0:
233,179,6002,1,8,0:0:0:0:
173,161,6127,1,8,0:0:0:0:
177,167,6377,1,0,0:0:0:0:
176,170,6627,1,8,0:0:0:0:
182,154,6877,1,0,0:0:0:0:
168,150,7002,1,0,0:0:0:0:
168,150,7127,1,0,0:0:0:0:
168,150,7377,1,0,0:0:0:0:
169,151,7627,1,8,0:0:0:0:
175,91,8127,1,0,0:0:0:0:
175,91,8627,1,8,0:0:0:0:
169,128,8877,1,0,0:0:0:0:
169,128,9002,1,0,0:0:0:0:
224,137,9127,1,0,0:0:0:0:
180,124,9252,1,0,0:0:0:0:
180,124,9377,1,0,0:0:0:0:
186,123,9627,1,8,0:0:0:0:
190,104,9877,1,8,0:0:0:0:
205,135,10127,1,0,0:0:0:0:
228,113,10377,1,0,0:0:0:0:
205,134,10627,1,8,0:0:0:0:
202,147,10877,1,8,0:0:0:0:
204,146,11002,1,8,0:0:0:0:
204,144,11252,1,0,0:0:0:0:
204,144,11377,1,0,0:0:0:0:
205,134,11627,1,8,0:0:0:0:
205,136,11752,1,8,0:0:0:0:
205,136,11877,1,8,0:0:0:0:
258,175,12127,1,0,0:0:0:0:
352,238,12627,1,8,0:0:0:0:
177,153,12877,1,0,0:0:0:0:
177,153,13002,1,0,0:0:0:0:
177,153,13252,1,0,0:0:0:0:
187,140,13377,1,0,0:0:0:0:
225,89,13627,1,8,0:0:0:0:
234,180,13877,1,8,0:0:0:0:
234,180,14002,1,8,0:0:0:0:
174,162,14127,1,8,0:0:0:0:
178,168,14377,1,0,0:0:0:0:
177,171,14627,1,8,0:0:0:0:
183,155,14877,1,0,0:0:0:0:
169,151,15002,1,0,0:0:0:0:
169,151,15127,1,0,0:0:0:0:
169,151,15377,1,0,0:0:0:0:
170,152,15627,1,8,0:0:0:0:
176,92,16127,1,0,0:0:0:0:
176,92,16627,1,8,0:0:0:0:
170,129,16877,1,0,0:0:0:0:
170,129,17002,1,0,0:0:0:0:
228,81,17127,1,0,0:0:0:0:
181,125,17252,1,0,0:0:0:0:
181,125,17377,1,0,0:0:0:0:
187,124,17627,1,8,0:0:0:0:
191,105,17877,1,8,0:0:0:0:
206,136,18127,1,0,0:0:0:0:
230,108,18377,1,0,0:0:0:0:
206,135,18627,1,8,0:0:0:0:
203,148,18877,1,0,0:0:0:0:
205,147,19002,1,0,0:0:0:0:
205,145,19377,1,0,0:0:0:0:
206,135,19627,1,8,0:0:0:0:
206,137,19752,1,8,0:0:0:0:
206,137,19877,1,8,0:0:0:0:
206,137,20127,1,0,0:0:0:0:
143,149,20627,1,8,0:0:0:0:
143,149,20752,1,8,0:0:0:0:
143,149,20877,1,8,0:0:0:0:
180,79,21127,1,0,0:0:0:0:
181,86,21377,1,0,0:0:0:0:
181,86,21627,1,8,0:0:0:0:
232,169,21752,1,8,0:0:0:0:
232,169,21877,1,8,0:0:0:0:
232,169,22127,1,0,0:0:0:0:
280,171,22627,1,8,0:0:0:0:
245,177,22877,1,0,0:0:0:0:
245,177,23002,1,0,0:0:0:0:
245,178,23127,1,0,0:0:0:0:
247,175,23377,1,0,0:0:0:0:
245,177,23627,1,8,0:0:0:0:
245,177,23752,1,8,0:0:0:0:
245,177,23877,1,8,0:0:0:0:
288,169,24127,1,0,0:0:0:0:
254,177,24627,1,8,0:0:0:0:
245,177,24877,1,8,0:0:0:0:
244,177,25002,1,8,0:0:0:0:
244,177,25127,1,8,0:0:0:0:
245,190,25377,1,0,0:0:0:0:
245,190,25627,1,8,0:0:0:0:
245,190,25752,1,8,0:0:0:0:
245,190,25877,1,8,0:0:0:0:
246,191,26127,1,0,0:0:0:0:
245,190,26627,1,8,0:0:0:0:
245,190,26752,1,8,0:0:0:0:
246,191,27002,1,0,0:0:0:0:
246,191,27127,1,0,0:0:0:0:
245,190,27377,1,0,0:0:0:0:
245,190,27627,1,8,0:0:0:0:
245,190,27752,1,8,0:0:0:0:
246,191,27877,1,8,0:0:0:0:
223,185,28127,1,0,0:0:0:0:
223,185,28627,1,8,0:0:0:0:
257,254,28877,1,0,0:0:0:0:
257,254,29002,1,0,0:0:0:0:
257,254,29127,1,0,0:0:0:0:
257,254,29377,1,0,0:0:0:0:
257,254,29627,1,8,0:0:0:0:
218,186,29877,1,8,0:0:0:0:
218,186,30127,1,0,0:0:0:0:
218,186,30627,1,8,0:0:0:0:
199,159,30877,1,8,0:0:0:0:
199,160,31002,1,8,0:0:0:0:
152,112,31127,1,8,0:0:0:0:
199,160,31377,1,0,0:0:0:0:
199,160,31627,1,8,0:0:0:0:
264,179,31877,1,8,0:0:0:0:
264,179,32127,1,0,0:0:0:0:
264,179,32627,1,8,0:0:0:0:
197,222,32877,1,0,0:0:0:0:
214,177,33002,1,0,0:0:0:0:
197,222,33127,1,0,0:0:0:0:
197,222,33377,1,0,0:0:0:0:
197,222,33627,1,8,0:0:0:0:
205,226,33877,1,8,0:0:0:0:
197,222,34127,1,0,0:0:0:0:
197,222,34627,1,8,0:0:0:0:
215,168,34877,1,8,0:0:0:0:
215,168,35002,1,8,0:0:0:0:
215,168,35127,1,8,0:0:0:0:
283,189,35377,1,0,0:0:0:0:
283,189,35627,1,8,0:0:0:0:
283,189,35752,1,8,0:0:0:0:
252,193,36627,1,8,0:0:0:0:
252,193,37127,1,8,0:0:0:0:
228,193,37252,1,8,0:0:0:0:
228,194,37502,1,8,0:0:0:0:
228,195,37627,1,8,0:0:0:0:
113,216,37877,1,0,0:0:0:0:
113,216,38002,1,0,0:0:0:0:
113,216,38252,1,0,0:0:0:0:
113,216,38377,1,0,0:0:0:0:
186,208,38627,1,8,0:0:0:0:
188,229,38877,1,0,0:0:0:0:
188,227,39127,1,8,0:0:0:0:
182,227,39377,1,0,0:0:0:0:
182,227,39627,1,8,0:0:0:0:
182,227,39752,1,8,0:0:0:0:
188,227,39877,1,8,0:0:0:0:
188,229,40127,1,0,0:0:0:0:
206,142,40627,1,8,0:0:0:0:
235,153,40877,1,8,0:0:0:0:
233,161,41127,1,0,0:0:0:0:
223,164,41377,1,0,0:0:0:0:
232,166,41627,1,8,0:0:0:0:
202,186,41877,1,0,0:0:0:0:
204,188,42127,1,8,0:0:0:0:
215,178,42627,1,8,0:0:0:0:
214,214,42877,1,0,0:0:0:0:
213,215,43002,1,0,0:0:0:0:
213,215,43127,1,0,0:0:0:0:
266,235,43377,1,0,0:0:0:0:
259,222,43627,1,8,0:0:0:0:
208,161,44127,1,0,0:0:0:0:
260,137,44377,1,0,0:0:0:0:
235,133,44627,1,8,0:0:0:0:
235,133,44877,1,0,0:0:0:0:
235,133,45127,1,8,0:0:0:0:
223,194,45627,1,8,0:0:0:0:
223,194,45877,1,8,0:0:0:0:
223,194,46127,1,0,0:0:0:0:
237,172,46627,1,8,0:0:0:0:
171,188,46877,1,0,0:0:0:0:
171,188,47002,1,0,0:0:0:0:
171,188,47127,1,0,0:0:0:0:
271,240,47377,1,0,0:0:0:0:
239,221,47627,1,8,0:0:0:0:
183,176,47877,1,8,0:0:0:0:
174,172,48127,1,0,0:0:0:0:
206,144,48627,1,0,0:0:0:0:
206,144,48877,1,8,0:0:0:0:
206,144,49127,1,8,0:0:0:0:
206,144,49627,1,8,0:0:0:0:
206,144,49877,1,0,0:0:0:0:
206,144,50127,1,8,0:0:0:0:
257,174,52127,5,0,0:0:0:0:
351,237,52627,1,8,0:0:0:0:
176,152,52877,1,0,0:0:0:0:
176,152,53002,1,0,0:0:0:0:
176,152,53252,1,0,0:0:0:0:
186,139,53377,1,0,0:0:0:0:
224,88,53627,1,8,0:0:0:0:
233,179,53877,1,8,0:0:0:0:
233,179,54002,1,8,0:0:0:0:
173,161,54127,1,8,0:0:0:0:
177,167,54377,1,0,0:0:0:0:
176,170,54627,1,8,0:0:0:0:
182,154,54877,1,0,0:0:0:0:
168,150,55002,1,0,0:0:0:0:
168,150,55127,1,0,0:0:0:0:
168,150,55377,1,0,0:0:0:0:
169,151,55627,1,8,0:0:0:0:
175,91,56127,1,0,0:0:0:0:
175,91,56627,1,8,0:0:0:0:
169,128,56877,1,0,0:0:0:0:
169,128,57002,1,0,0:0:0:0:
224,137,57127,1,0,0:0:0:0:
180,124,57252,1,0,0:0:0:0:
180,124,57377,1,0,0:0:0:0:
186,123,57627,1,8,0:0:0:0:
190,104,57877,1,8,0:0:0:0:
205,135,58127,1,0,0:0:0:0:
228,113,58377,1,0,0:0:0:0:
205,134,58627,1,8,0:0:0:0:
202,147,58877,1,8,0:0:0:0:
204,146,59002,1,8,0:0:0:0:
204,144,59252,1,0,0:0:0:0:
204,144,59377,1,0,0:0:0:0:
205,134,59627,1,8,0:0:0:0:
205,136,59752,1,8,0:0:0:0:
205,136,59877,1,8,0:0:0:0:
258,175,60127,1,0,0:0:0:0:
352,238,60627,1,8,0:0:0:0:
177,153,60877,1,0,0:0:0:0:
177,153,61002,1,0,0:0:0:0:
177,153,61252,1,0,0:0:0:0:
187,140,61377,1,0,0:0:0:0:
225,89,61627,1,8,0:0:0:0:
234,180,61877,1,8,0:0:0:0:
234,180,62002,1,8,0:0:0:0:
174,162,62127,1,8,0:0:0:0:
178,168,62377,1,0,0:0:0:0:
177,171,62627,1,8,0:0:0:0:
183,155,62877,1,0,0:0:0:0:
169,151,63002,1,0,0:0:0:0:
169,151,63127,1,0,0:0:0:0:
169,151,63377,1,0,0:0:0:0:
170,152,63627,1,8,0:0:0:0:
176,92,64127,1,0,0:0:0:0:
176,92,64627,1,8,0:0:0:0:
170,129,64877,1,0,0:0:0:0:
170,129,65002,1,0,0:0:0:0:
228,81,65127,1,0,0:0:0:0:
181,125,65252,1,0,0:0:0:0:
181,125,65377,1,0,0:0:0:0:
187,124,65627,1,8,0:0:0:0:
191,105,65877,1,8,0:0:0:0:
206,136,66127,1,0,0:0:0:0:
230,108,66377,1,0,0:0:0:0:
206,135,66627,1,8,0:0:0:0:
203,148,66877,1,0,0:0:0:0:
205,147,67002,1,0,0:0:0:0:
205,145,67377,1,0,0:0:0:0:
206,135,67627,1,8,0:0:0:0:
206,137,67752,1,8,0:0:0:0:
206,137,67877,1,8,0:0:0:0:
206,137,68127,1,0,0:0:0:0:
203,104,68627,1,8,0:0:0:0:
206,137,69127,1,0,0:0:0:0:
206,137,69252,1,0,0:0:0:0:
206,137,69377,1,0,0:0:0:0:
206,137,69627,1,8,0:0:0:0:
283,165,69877,1,0,0:0:0:0:
283,165,70127,1,0,0:0:0:0:
175,187,70377,1,8,0:0:0:0:
175,187,70627,1,8,0:0:0:0:
229,170,70877,1,0,0:0:0:0:
193,151,71127,1,8,0:0:0:0:
294,193,71252,1,8,0:0:0:0:
206,162,71377,1,8,0:0:0:0:
206,163,71627,1,8,0:0:0:0:
207,166,71877,1,0,0:0:0:0:
207,166,72127,1,0,0:0:0:0:
206,163,72627,1,8,0:0:0:0:
212,150,72877,1,0,0:0:0:0:
226,154,73002,1,0,0:0:0:0:
283,200,73127,1,0,0:0:0:0:
283,200,73377,1,0,0:0:0:0:
283,200,73627,1,8,0:0:0:0:
255,194,73877,1,8,0:0:0:0:
255,194,74127,1,0,0:0:0:0:
255,194,74377,1,0,0:0:0:0:
255,194,74627,1,8,0:0:0:0:
255,194,74877,1,0,0:0:0:0:
255,194,75127,1,0,0:0:0:0:
249,255,75377,1,8,0:0:0:0:
249,255,75627,1,8,0:0:0:0:
250,173,75877,1,8,0:0:0:0:
235,194,76127,1,0,0:0:0:0:
235,194,76627,1,8,0:0:0:0:
205,191,76877,1,0,0:0:0:0:
205,191,77127,1,8,0:0:0:0:
205,191,77377,1,0,0:0:0:0:
205,191,77627,1,8,0:0:0:0:
205,191,77877,1,8,0:0:0:0:
205,191,78127,1,0,0:0:0:0:
205,191,78377,1,0,0:0:0:0:
205,191,78627,1,8,0:0:0:0:
212,198,78877,1,8,0:0:0:0:
212,198,79127,1,0,0:0:0:0:
179,171,79377,1,8,0:0:0:0:
212,198,79627,1,8,0:0:0:0:
186,200,79877,1,0,0:0:0:0:
186,201,80127,1,8,0:0:0:0:
137,162,80377,1,0,0:0:0:0:
181,207,80627,1,8,0:0:0:0:
159,175,80877,1,8,0:0:0:0:
159,175,81127,1,0,0:0:0:0:
196,167,81377,1,0,0:0:0:0:
196,167,81627,1,8,0:0:0:0:
196,167,81877,1,0,0:0:0:0:
196,167,82127,1,8,0:0:0:0:
196,167,82627,1,8,0:0:0:0:
197,175,84127,1,0,0:0:0:0:
163,183,84627,1,8,0:0:0:0:
305,140,84877,1,8,0:0:0:0:
161,149,85002,1,8,0:0:0:0:
161,149,85127,1,8,0:0:0:0:
161,149,85377,1,0,0:0:0:0:
190,153,85627,1,8,0:0:0:0:
188,159,85877,1,8,0:0:0:0:
188,159,86127,1,0,0:0:0:0:
195,216,86627,1,0,0:0:0:0:
111,181,86752,1,0,0:0:0:0:
195,216,86877,1,0,0:0:0:0:
195,216,87127,1,8,0:0:0:0:
195,216,87377,1,0,0:0:0:0:
195,216,87627,1,8,0:0:0:0:
175,211,87877,1,8,0:0:0:0:
175,211,88127,1,0,0:0:0:0:
177,211,88627,1,8,0:0:0:0:
175,211,88877,1,8,0:0:0:0:
175,211,89002,1,8,0:0:0:0:
175,211,89127,1,8,0:0:0:0:
177,211,89377,1,0,0:0:0:0:
177,211,89627,1,8,0:0:0:0:
175,211,89877,1,0,0:0:0:0:
175,211,90127,1,0,0:0:0:0:
177,211,90627,1,0,0:0:0:0:
248,206,90752,1,0,0:0:0:0:
248,206,90877,1,0,0:0:0:0:
248,206,91127,1,8,0:0:0:0:
248,206,91377,1,0,0:0:0:0:
248,206,91627,1,8,0:0:0:0:
248,206,91877,1,8,0:0:0:0:
248,206,92127,1,0,0:0:0:0:
155,109,92627,1,8,0:0:0:0:
159,158,92877,1,0,0:0:0:0:
159,158,93127,1,0,0:0:0:0:
159,158,93377,1,8,0:0:0:0:
159,158,93627,1,0,0:0:0:0:
159,158,93877,1,8,0:0:0:0:
159,158,94127,1,8,0:0:0:0:
159,158,94377,1,0,0:0:0:0:
159,158,94627,1,8,0:0:0:0:
159,158,94877,1,0,0:0:0:0:
159,158,95127,1,8,0:0:0:0:
159,158,95377,1,8,0:0:0:0:
159,158,95627,1,8,0:0:0:0:
159,158,95877,1,0,0:0:0:0:
159,158,96127,1,0,0:0:0:0:
159,146,96627,1,8,0:0:0:0:
181,133,96877,1,8,0:0:0:0:
316,198,97002,1,8,0:0:0:0:
181,133,97127,1,8,0:0:0:0:
181,133,97377,1,0,0:0:0:0:
181,133,97627,1,8,0:0:0:0:
181,133,97877,1,0,0:0:0:0:
156,144,98127,1,8,0:0:0:0:
257,174,100127,5,0,0:0:0:0:
351,237,100627,1,8,0:0:0:0:
176,152,100877,1,0,0:0:0:0:
176,152,101002,1,0,0:0:0:0:
176,152,101252,1,0,0:0:0:0:
186,139,101377,1,0,0:0:0:0:
224,88,101627,1,8,0:0:0:0:
233,179,101877,1,8,0:0:0:0:
233,179,102002,1,8,0:0:0:0:
173,161,102127,1,8,0:0:0:0:
177,167,102377,1,0,0:0:0:0:
176,170,102627,1,8,0:0:0:0:
182,154,102877,1,0,0:0:0:0:
168,150,103002,1,0,0:0:0:0:
168,150,103127,1,0,0:0:0:0:
168,150,103377,1,0,0:0:0:0:
169,151,103627,1,8,0:0:0:0:
175,91,104127,1,0,0:0:0:0:
175,91,104627,1,8,0:0:0:0:
169,128,104877,1,0,0:0:0:0:
169,128,105002,1,0,0:0:0:0:
224,137,105127,1,0,0:0:0:0:
180,124,105252,1,0,0:0:0:0:
180,124,105377,1,0,0:0:0:0:
186,123,105627,1,8,0:0:0:0:
190,104,105877,1,8,0:0:0:0:
205,135,106127,1,0,0:0:0:0:
228,113,106377,1,0,0:0:0:0:
205,134,106627,1,8,0:0:0:0:
202,147,106877,1,8,0:0:0:0:
204,146,107002,1,8,0:0:0:0:
204,144,107252,1,0,0:0:0:0:
204,144,107377,1,0,0:0:0:0:
205,134,107627,1,8,0:0:0:0:
205,136,107752,1,8,0:0:0:0:
205,136,107877,1,8,0:0:0:0:
258,175,108127,1,0,0:0:0:0:
352,238,108627,1,8,0:0:0:0:
177,153,108877,1,0,0:0:0:0:
177,153,109002,1,0,0:0:0:0:
177,153,109252,1,0,0:0:0:0:
187,140,109377,1,0,0:0:0:0:
225,89,109627,1,8,0:0:0:0:
234,180,109877,1,8,0:0:0:0:
234,180,110002,1,8,0:0:0:0:
174,162,110127,1,8,0:0:0:0:
178,168,110377,1,0,0:0:0:0:
177,171,110627,1,8,0:0:0:0:
183,155,110877,1,0,0:0:0:0:
169,151,111002,1,0,0:0:0:0:
169,151,111127,1,0,0:0:0:0:
169,151,111377,1,0,0:0:0:0:
170,152,111627,1,8,0:0:0:0:
176,92,112127,1,0,0:0:0:0:
176,92,112627,1,8,0:0:0:0:
170,129,112877,1,0,0:0:0:0:
170,129,113002,1,0,0:0:0:0:
228,81,113127,1,0,0:0:0:0:
181,125,113252,1,0,0:0:0:0:
181,125,113377,1,0,0:0:0:0:
187,124,113627,1,8,0:0:0:0:
191,105,113877,1,8,0:0:0:0:
206,136,114127,1,0,0:0:0:0:
230,108,114377,1,0,0:0:0:0:
206,135,114627,1,8,0:0:0:0:
203,148,114877,1,0,0:0:0:0:
205,147,115002,1,0,0:0:0:0:
205,145,115377,1,0,0:0:0:0:
206,135,115627,1,8,0:0:0:0:
206,137,115752,1,8,0:0:0:0:
206,137,115877,1,8,0:0:0:0:
206,137,116127,1,0,0:0:0:0:
276,208,116627,1,8,0:0:0:0:
