osu file format v14

[General]
AudioFilename: audio.mp3
AudioLeadIn: 0
PreviewTime: 83619
Countdown: 0
SampleSet: Normal
StackLeniency: 0.7
Mode: 0
LetterboxInBreaks: 0
WidescreenStoryboard: 1

[Editor]
Bookmarks: 24543,31927,39308,39337,46696,53389,54081,61466,68850,69889,70119,70466,76235,79927,87081,87543,91004,92850,98389,102081,103927,105773,109466,111312,113158,121004,127927,135312,142696,150081,157466,201773,211004,231312
DistanceSpacing: 2.6
BeatDivisor: 8
GridSize: 32
TimelineZoom: 2

[Metadata]
Title:Volume Up
TitleUnicode:Volume Up
Artist:4Minute
ArtistUnicode:4Minute
Creator:Everything Dust
Version:Up Up
Source:
Tags:
BeatmapID:1849447
BeatmapSetID:884857

[Difficulty]
HPDrainRate:5
CircleSize:3
OverallDifficulty:7
ApproachRate:9.2
SliderMultiplier:1.6
SliderTickRate:1

[Events]
//Background and Video events
0,0,"Volume Up.jpg",0,0
//Break Periods
//Storyboard Layer 0 (Background)
//Storyboard Layer 1 (Fail)
//Storyboard Layer 2 (Pass)
//Storyboard Layer 3 (Foreground)
//Storyboard Sound Samples

[TimingPoints]
24543,461.538461538462,4,1,1,100,1,0
39312,-133.333333333333,4,1,1,100,0,0
41850,-263.157894736842,4,1,1,100,0,0
42312,-133.333333333333,4,1,1,100,0,0
49235,-263.157894736842,4,1,1,100,0,0
49696,-133.333333333333,4,1,1,100,0,0
55004,-263.157894736842,4,1,1,100,0,0
55235,-133.333333333333,4,1,1,10,0,0
55350,-133.333333333333,4,1,1,100,0,0
56850,-263.157894736842,4,1,1,100,0,0
57081,-133.333333333333,4,1,1,10,0,0
57196,-133.333333333333,4,1,1,100,0,0
58696,-263.157894736842,4,1,1,100,0,0
58927,-133.333333333333,4,1,1,10,0,0
59042,-133.333333333333,4,1,1,100,0,0
60543,-263.157894736842,4,1,1,100,0,0
60774,-133.333333333333,4,1,1,10,0,0
60889,-133.333333333333,4,1,1,100,0,0
62389,-263.157894736842,4,1,1,100,0,0
62620,-133.333333333333,4,1,1,10,0,0
62735,-133.333333333333,4,1,1,100,0,0
64235,-263.157894736842,4,1,1,100,0,0
64466,-133.333333333333,4,1,1,10,0,0
64581,-133.333333333333,4,1,1,100,0,0
66081,-263.157894736842,4,1,1,100,0,0
66312,-133.333333333333,4,1,1,10,0,0
66427,-133.333333333333,4,1,1,100,0,0
67927,-263.157894736842,4,1,1,100,0,0
68158,-133.333333333333,4,1,1,10,0,0
68273,-133.333333333333,4,1,1,100,0,0
83216,-133.333333333333,4,1,1,10,0,0
83619,-100,4,1,1,100,0,1
92850,-133.333333333333,4,1,1,100,0,1
94235,-100,4,1,1,100,0,1
113158,-133.333333333333,4,1,1,100,0,0
142696,-133.333333333333,4,1,1,100,0,0
157062,-133.333333333333,4,1,1,10,0,0
157466,-100,4,1,1,100,0,1
166696,-133.333333333333,4,1,1,100,0,1
168081,-100,4,1,1,100,0,1
187004,-133.333333333333,4,1,1,100,0,0
187350,-133.333333333333,4,1,1,10,0,0
187466,-133.333333333333,4,1,1,100,0,0
187812,-133.333333333333,4,1,1,10,0,0
187927,-133.333333333333,4,1,1,100,0,0
188273,-133.333333333333,4,1,1,10,0,0
188389,-133.333333333333,4,1,1,100,0,0
188735,-133.333333333333,4,1,1,10,0,0
188850,-133.333333333333,4,1,1,100,0,0
190696,-133.333333333333,4,1,1,100,0,0
191042,-133.333333333333,4,1,1,10,0,0
191158,-133.333333333333,4,1,1,100,0,0
191504,-133.333333333333,4,1,1,10,0,0
191619,-133.333333333333,4,1,1,100,0,0
191965,-133.333333333333,4,1,1,10,0,0
192081,-133.333333333333,4,1,1,100,0,0
192427,-133.333333333333,4,1,1,10,0,0
192542,-133.333333333333,4,1,1,100,0,0
193466,-133.333333333333,4,1,1,100,0,0
193812,-133.333333333333,4,1,1,10,0,0
193927,-133.333333333333,4,1,1,100,0,0
194273,-133.333333333333,4,1,1,10,0,0
194389,-133.333333333333,4,1,1,100,0,0
194735,-133.333333333333,4,1,1,10,0,0
194851,-133.333333333333,4,1,1,100,0,0
195197,-133.333333333333,4,1,1,10,0,0
195312,-133.333333333333,4,1,1,100,0,0
195658,-133.333333333333,4,1,1,10,0,0
195774,-133.333333333333,4,1,1,100,0,0
196120,-133.333333333333,4,1,1,10,0,0
196235,-133.333333333333,4,1,1,100,0,0
197158,-133.333333333333,4,1,1,10,0,0
197389,-133.333333333333,4,1,1,100,0,0
197619,-133.333333333333,4,1,1,100,0,0
197850,-133.333333333333,4,1,1,10,0,0
197966,-133.333333333333,4,1,1,100,0,0
198254,-133.333333333333,4,1,1,10,0,0
198369,-133.333333333333,4,1,1,100,0,0
199004,-133.333333333333,4,1,1,10,0,0
199293,-133.333333333333,4,1,1,100,0,0
199754,-133.333333333333,4,1,1,100,0,0
200014,-133.333333333333,4,1,1,10,0,0
200158,-200,4,1,1,40,0,0
200273,-200,4,1,1,80,0,0
201312,-133.333333333333,4,1,1,10,0,0
201773,-100,4,1,1,100,0,0
216139,-133.333333333333,4,1,1,10,0,0
216543,-100,4,1,1,100,0,1
225773,-133.333333333333,4,1,1,100,0,1
227158,-100,4,1,1,100,0,1
246081,-100,4,1,1,100,0,0

[Colours]
Combo1 : 69,60,255
Combo2 : 244,37,0
Combo3 : 255,211,62

[HitObjects]
320,192,24543,5,0,2:0:0:0:
192,192,24773,1,0,2:0:0:0:
416,192,25119,1,0,2:0:0:0:
96,192,25466,1,0,2:0:0:0:
352,192,25812,1,0,2:0:0:0:
160,192,26158,1,0,2:0:0:0:
160,192,26389,5,0,2:0:0:0:
284,225,26619,1,0,2:0:0:0:
68,167,26965,1,0,2:0:0:0:
377,249,27312,1,0,2:0:0:0:
130,183,27658,1,0,2:0:0:0:
315,233,28004,1,0,2:0:0:0:
382,183,28235,5,0,2:0:0:0:
270,246,28465,1,0,2:0:0:0:
464,134,28811,1,0,2:0:0:0:
186,293,29158,1,0,2:0:0:0:
407,165,29504,1,0,2:0:0:0:
242,262,29850,1,0,2:0:0:0:
105,165,30081,5,0,2:0:0:0:
197,254,30311,1,0,2:0:0:0:
39,96,30657,1,0,2:0:0:0:
266,321,31004,1,0,2:0:0:0:
86,141,31350,1,0,2:0:0:0:
220,277,31696,1,0,2:0:0:0:
192,192,31927,5,0,2:0:0:0:
320,192,32157,1,0,2:0:0:0:
96,192,32503,1,0,2:0:0:0:
416,192,32850,1,0,2:0:0:0:
160,192,33196,1,0,2:0:0:0:
352,192,33542,1,0,2:0:0:0:
352,192,33773,5,0,2:0:0:0:
228,225,34003,1,0,2:0:0:0:
444,167,34349,1,0,2:0:0:0:
135,249,34696,1,0,2:0:0:0:
382,183,35042,1,0,2:0:0:0:
197,233,35388,1,0,2:0:0:0:
130,183,35619,5,0,2:0:0:0:
242,246,35849,1,0,2:0:0:0:
48,134,36195,1,0,2:0:0:0:
326,293,36542,1,0,2:0:0:0:
105,165,36888,1,0,2:0:0:0:
270,262,37234,1,0,2:0:0:0:
407,165,37465,5,0,2:0:0:0:
315,254,37695,1,0,2:0:0:0:
473,96,38041,1,0,2:0:0:0:
246,321,38388,1,0,2:0:0:0:
426,141,38734,1,0,2:0:0:0:
292,277,39080,1,0,2:0:0:0:
96,256,39312,6,0,L|160:256,1,60.0000022888184,0|0,2:0|2:0,2:0:0:0:
416,256,39773,1,0,2:0:0:0:
416,224,40235,2,0,L|328:224,1,60.0000022888184,0|0,2:0|2:0,2:0:0:0:
96,224,40696,1,0,2:0:0:0:
96,256,41158,6,0,L|160:256,1,60.0000022888184,0|0,2:0|2:0,2:0:0:0:
416,256,41619,1,0,2:0:0:0:
416,224,41850,2,0,L|352:224,1,60.7999992578125,0|0,2:0|2:0,2:0:0:0:
96,224,42543,1,0,2:0:0:0:
128,352,42773,1,0,2:0:0:0:
184,144,43004,5,0,2:0:0:0:
160,232,43235,1,0,2:0:0:0:
184,144,43581,1,0,2:0:0:0:
160,232,43927,1,0,2:0:0:0:
184,144,44273,1,0,2:0:0:0:
160,232,44619,1,0,2:0:0:0:
216,200,44850,5,0,2:0:0:0:
128,176,45081,1,0,2:0:0:0:
216,200,45427,1,0,2:0:0:0:
128,176,45773,1,0,2:0:0:0:
216,200,46119,1,0,2:0:0:0:
128,176,46465,1,0,2:0:0:0:
96,256,46696,6,0,L|176:256,1,60.0000022888184,0|0,2:0|2:0,2:0:0:0:
416,256,47157,1,0,2:0:0:0:
416,224,47619,2,0,L|328:224,1,60.0000022888184,0|0,2:0|2:0,2:0:0:0:
96,224,48080,1,0,2:0:0:0:
96,256,48542,6,0,L|160:256,1,60.0000022888184,0|0,2:0|2:0,2:0:0:0:
416,256,49003,1,0,2:0:0:0:
416,224,49235,2,0,L|352:224,1,60.7999992578125,0|0,2:0|2:0,2:0:0:0:
96,224,49927,1,0,2:0:0:0:
128,352,50157,1,0,2:0:0:0:
184,144,50388,5,0,2:0:0:0:
160,232,50619,1,0,2:0:0:0:
184,144,50965,1,0,2:0:0:0:
160,232,51311,1,0,2:0:0:0:
184,144,51657,1,0,2:0:0:0:
160,232,52003,1,0,2:0:0:0:
216,200,52234,5,0,2:0:0:0:
128,176,52465,1,0,2:0:0:0:
216,200,52811,1,0,2:0:0:0:
128,176,53157,1,0,2:0:0:0:
216,200,53503,1,0,2:0:0:0:
128,176,53849,1,0,2:0:0:0:
96,352,54081,5,4,1:3:0:0:
320,128,54543,1,8,1:0:0:0:
96,352,54773,1,4,1:3:0:0:
192,352,55004,6,0,L|224:352,1,30.3999996289063,0|0,1:3|1:0,1:0:0:0:
288,256,55350,1,0,1:0:0:0:
320,128,55466,5,8,1:0:0:0:
224,224,55696,5,0,1:0:0:0:
416,352,55927,5,4,1:3:0:0:
192,128,56389,1,8,1:0:0:0:
416,352,56619,1,4,1:3:0:0:
320,352,56850,6,0,L|288:352,1,30.3999996289063,0|0,1:3|1:0,1:0:0:0:
224,256,57196,1,0,1:0:0:0:
192,128,57312,5,8,1:0:0:0:
288,224,57542,5,0,1:0:0:0:
96,352,57773,5,4,1:3:0:0:
320,128,58235,1,8,1:0:0:0:
96,352,58465,1,4,1:3:0:0:
192,352,58696,6,0,L|224:352,1,30.3999996289063,0|0,1:3|1:0,1:0:0:0:
288,256,59042,1,0,1:0:0:0:
320,128,59158,5,8,1:0:0:0:
224,224,59388,5,0,1:0:0:0:
416,352,59619,5,4,1:3:0:0:
192,128,60081,1,8,1:0:0:0:
416,352,60311,1,4,1:3:0:0:
320,352,60543,6,0,L|288:352,1,30.3999996289063,0|0,1:0|1:0,1:0:0:0:
224,256,60888,1,0,1:0:0:0:
192,128,61004,5,8,1:0:0:0:
288,224,61234,5,0,1:0:0:0:
96,352,61466,5,4,1:3:0:0:
320,128,61928,1,8,1:0:0:0:
96,352,62158,1,4,1:3:0:0:
192,352,62389,6,0,L|224:352,1,30.3999996289063,0|0,1:0|1:0,1:0:0:0:
288,256,62735,1,0,1:0:0:0:
320,128,62851,5,8,1:0:0:0:
224,224,63081,5,0,1:0:0:0:
416,352,63312,5,4,1:3:0:0:
192,128,63774,1,8,1:0:0:0:
416,352,64004,1,4,1:3:0:0:
320,352,64235,6,0,L|288:352,1,30.3999996289063,0|0,1:0|1:0,1:0:0:0:
224,256,64581,1,0,1:0:0:0:
192,128,64697,5,8,1:0:0:0:
288,224,64927,5,0,1:0:0:0:
96,352,65158,5,4,1:3:0:0:
320,128,65620,1,8,1:0:0:0:
96,352,65850,1,4,1:3:0:0:
192,352,66081,6,0,L|224:352,1,30.3999996289063,0|0,1:0|1:0,1:0:0:0:
288,256,66427,1,0,1:0:0:0:
320,128,66543,5,8,1:0:0:0:
224,224,66773,5,0,1:0:0:0:
416,352,67004,5,4,1:3:0:0:
192,128,67466,1,8,1:0:0:0:
416,352,67696,1,4,1:3:0:0:
320,352,67927,6,0,L|288:352,1,30.3999996289063,0|0,1:0|1:0,1:0:0:0:
224,256,68273,1,0,1:0:0:0:
192,128,68389,5,8,1:0:0:0:
352,160,68619,5,0,1:0:0:0:
96,352,68850,5,4,0:3:0:0:
384,96,69312,1,8,0:0:0:0:
256,288,69543,1,0,0:0:0:0:
384,96,69773,5,0,0:0:0:0:
416,32,69889,1,0,0:0:0:0:
256,288,70119,1,0,0:0:0:0:
224,352,70235,1,8,0:0:0:0:
384,96,70466,1,0,0:0:0:0:
64,256,70696,5,4,0:3:0:0:
288,160,70927,1,0,0:0:0:0:
352,128,71043,1,0,0:0:0:0:
416,96,71158,1,8,0:0:0:0:
176,208,71389,1,0,0:0:0:0:
389,110,71620,5,0,0:0:0:0:
437,68,71735,1,0,0:0:0:0:
463,25,71851,1,0,0:0:0:0:
466,2,71966,1,0,0:0:0:0:
230,184,72081,5,8,0:0:0:0:
304,16,72312,1,0,0:0:0:0:
144,368,72543,5,4,0:3:0:0:
336,192,72888,1,0,0:0:0:0:
384,144,73004,1,8,0:0:0:0:
80,224,73235,1,0,0:0:0:0:
272,320,73466,5,0,0:0:0:0:
336,336,73581,1,0,0:0:0:0:
80,272,73812,1,0,0:0:0:0:
16,256,73927,1,8,0:0:0:0:
304,144,74158,1,0,0:0:0:0:
144,352,74389,5,4,0:3:0:0:
256,144,74619,1,0,0:0:0:0:
288,80,74735,1,0,0:0:0:0:
320,16,74850,1,8,0:0:0:0:
80,272,75081,1,0,0:0:0:0:
288,320,75312,5,0,0:0:0:0:
352,320,75427,1,0,0:0:0:0:
400,304,75543,1,0,0:0:0:0:
416,288,75658,1,0,0:0:0:0:
352,192,75773,5,8,0:0:0:0:
480,352,76004,1,0,0:0:0:0:
128,272,76235,5,4,0:3:0:0:
416,272,76466,1,0,0:0:0:0:
96,112,76696,5,8,0:0:0:0:
304,352,76927,1,0,0:0:0:0:
176,32,77158,5,0,0:0:0:0:
80,336,77619,5,8,0:0:0:0:
464,208,77850,1,0,0:0:0:0:
32,128,78081,5,4,0:3:0:0:
448,352,78542,5,8,0:0:0:0:
96,320,78773,1,0,0:0:0:0:
384,160,79004,5,0,0:0:0:0:
448,128,79119,1,0,0:0:0:0:
192,272,79350,1,0,0:0:0:0:
128,304,79465,5,8,0:0:0:0:
416,208,79696,1,0,0:0:0:0:
64,128,79927,6,0,L|96:112,1,30.0000011444092,4|0,0:3|0:0,0:0:0:0:
448,336,80158,2,0,L|416:352,1,30.0000011444092
304,32,80389,6,0,L|336:16,1,30.0000011444092,8|0,0:0|0:0,0:0:0:0:
112,336,80620,2,0,L|96:304,1,30.0000011444092
416,96,80850,6,0,L|448:88,3,30.0000011444092
368,288,81312,6,0,L|336:272,1,30.0000011444092,8|0,0:0|0:0,0:0:0:0:
288,64,81543,2,0,L|304:64,3,15.0000005722046
112,176,81773,6,0,L|128:176,3,15.0000005722046
368,288,82004,2,0,L|388:288,3,15.0000005722046
288,64,82235,6,0,L|304:64,3,15.0000005722046,8|0|0|0,0:0|0:0|0:0|0:0,0:0:0:0:
224,256,82466,2,0,L|240:256,3,15.0000005722046
352,96,82696,6,0,L|384:88,3,30.0000011444092
241,315,83158,5,0,0:0:0:0:
237,324,83216,1,4,0:3:0:0:
320,96,83619,5,0,0:0:0:0:
256,224,83850,1,0,0:0:0:0:
224,288,83966,1,0,0:0:0:0:
192,352,84081,5,8,0:0:0:0:
352,224,84196,1,0,0:0:0:0:
96,224,84542,5,0,0:0:0:0:
320,320,84773,1,0,0:0:0:0:
384,352,84889,1,0,0:0:0:0:
448,384,85004,5,8,0:0:0:0:
160,384,85235,1,0,0:0:0:0:
96,384,85350,1,0,0:0:0:0:
32,384,85466,5,0,0:0:0:0:
288,224,85697,1,0,0:0:0:0:
352,192,85813,1,0,0:0:0:0:
416,160,85928,5,8,0:0:0:0:
288,320,86043,1,0,0:0:0:0:
320,64,86389,5,0,0:0:0:0:
128,192,86620,1,0,0:0:0:0:
64,224,86736,1,0,0:0:0:0:
0,256,86851,5,8,0:0:0:0:
278,325,87082,1,0,0:0:0:0:
354,338,87197,1,0,0:0:0:0:
428,352,87312,5,0,0:0:0:0:
160,224,87543,1,0,0:0:0:0:
96,192,87659,1,0,0:0:0:0:
32,160,87774,5,8,0:0:0:0:
160,320,87889,1,0,0:0:0:0:
128,64,88235,5,0,0:0:0:0:
64,256,88466,1,0,0:0:0:0:
32,320,88582,1,0,0:0:0:0:
0,384,88697,5,8,0:0:0:0:
288,288,88928,1,0,0:0:0:0:
352,256,89043,1,0,0:0:0:0:
416,224,89158,5,0,0:0:0:0:
140,149,89389,1,0,0:0:0:0:
70,133,89505,1,0,0:0:0:0:
0,116,89620,5,8,0:0:0:0:
201,76,89735,1,0,0:0:0:0:
12,251,90081,5,0,0:0:0:0:
288,160,90312,1,0,0:0:0:0:
352,128,90428,1,0,0:0:0:0:
416,96,90543,5,8,0:0:0:0:
160,224,90774,1,0,0:0:0:0:
96,256,90889,1,0,0:0:0:0:
32,288,91004,5,0,0:0:0:0:
322,195,91235,1,0,0:0:0:0:
384,173,91350,1,0,0:0:0:0:
445,150,91466,1,8,0:0:0:0:
147,237,91696,5,0,0:0:0:0:
83,253,91812,1,0,0:0:0:0:
19,269,91927,1,0,0:0:0:0:
338,240,92158,5,0,0:0:0:0:
402,240,92273,1,0,0:0:0:0:
466,240,92389,1,8,0:0:0:0:
196,332,92619,5,0,0:0:0:0:
128,352,92735,1,0,0:0:0:0:
58,370,92850,2,0,L|112:288,1,90.0000034332277
416,272,93312,2,0,L|362:190,1,90.0000034332277,8|0,0:0|0:0,0:0:0:0:
64,176,93773,2,0,L|128:80,1,90.0000034332277
353,34,94235,1,8,0:0:0:0:
154,225,94466,1,0,0:0:0:0:
82,286,94581,1,0,0:0:0:0:
8,344,94696,5,0,0:0:0:0:
376,154,94927,1,0,0:0:0:0:
176,369,95158,5,8,0:0:0:0:
376,154,95273,1,0,0:0:0:0:
75,261,95619,5,0,0:0:0:0:
398,329,95966,1,0,0:0:0:0:
475,246,96081,5,8,0:0:0:0:
263,241,96311,1,0,0:0:0:0:
167,235,96426,1,0,0:0:0:0:
73,233,96541,5,0,0:0:0:0:
478,45,96772,1,0,0:0:0:0:
263,241,97002,5,8,0:0:0:0:
478,45,97118,1,0,0:0:0:0:
0,177,97464,5,0,0:0:0:0:
307,296,97811,1,0,0:0:0:0:
397,226,97926,5,8,0:0:0:0:
147,279,98158,1,0,0:0:0:0:
71,334,98274,1,0,0:0:0:0:
0,384,98389,5,0,0:0:0:0:
381,104,98620,1,0,0:0:0:0:
446,53,98735,1,0,0:0:0:0:
512,0,98851,1,8,0:0:0:0:
128,256,99082,5,0,0:0:0:0:
96,240,99197,1,0,0:0:0:0:
64,192,99312,5,0,0:0:0:0:
112,192,99428,1,0,0:0:0:0:
144,224,99543,1,0,0:0:0:0:
141,289,99659,1,0,0:0:0:0:
86,346,99774,5,8,0:0:0:0:
346,335,100005,1,0,0:0:0:0:
431,329,100120,1,0,0:0:0:0:
512,320,100235,5,0,0:0:0:0:
163,221,100466,1,0,0:0:0:0:
85,198,100581,1,0,0:0:0:0:
12,172,100697,5,8,0:0:0:0:
384,192,100927,1,0,0:0:0:0:
416,208,101042,1,0,0:0:0:0:
448,256,101157,5,0,0:0:0:0:
400,256,101273,1,0,0:0:0:0:
368,224,101388,1,0,0:0:0:0:
371,159,101504,1,0,0:0:0:0:
426,102,101619,5,8,0:0:0:0:
171,266,101851,1,0,0:0:0:0:
103,309,101966,1,0,0:0:0:0:
32,352,102081,5,0,0:0:0:0:
288,192,102312,1,0,0:0:0:0:
32,352,102542,1,8,0:0:0:0:
288,192,102773,5,0,0:0:0:0:
325,169,102888,1,0,0:0:0:0:
348,129,103004,5,0,0:0:0:0:
334,88,103119,1,0,0:0:0:0:
284,85,103235,1,0,0:0:0:0:
226,132,103350,1,0,0:0:0:0:
194,200,103465,5,8,0:0:0:0:
339,269,103696,1,0,0:0:0:0:
408,310,103811,1,0,0:0:0:0:
480,352,103926,5,0,0:0:0:0:
224,192,104157,1,0,0:0:0:0:
480,352,104387,1,8,0:0:0:0:
224,192,104618,5,0,0:0:0:0:
187,169,104733,1,0,0:0:0:0:
164,129,104849,5,0,0:0:0:0:
178,88,104964,1,0,0:0:0:0:
228,85,105080,1,0,0:0:0:0:
286,132,105195,1,0,0:0:0:0:
318,200,105310,5,8,0:0:0:0:
147,105,105543,5,0,0:0:0:0:
71,50,105659,1,0,0:0:0:0:
0,0,105774,5,0,0:0:0:0:
381,280,106005,1,0,0:0:0:0:
446,331,106120,1,0,0:0:0:0:
512,384,106236,1,8,0:0:0:0:
128,128,106467,5,0,0:0:0:0:
96,144,106582,1,0,0:0:0:0:
64,192,106697,5,0,0:0:0:0:
112,192,106813,1,0,0:0:0:0:
144,160,106928,1,0,0:0:0:0:
141,95,107044,1,0,0:0:0:0:
86,38,107159,5,8,0:0:0:0:
346,49,107390,1,0,0:0:0:0:
431,55,107505,1,0,0:0:0:0:
512,64,107620,5,0,0:0:0:0:
163,163,107851,1,0,0:0:0:0:
85,186,107966,1,0,0:0:0:0:
12,212,108082,5,8,0:0:0:0:
384,192,108312,1,0,0:0:0:0:
416,176,108427,1,0,0:0:0:0:
448,128,108542,5,0,0:0:0:0:
400,128,108658,1,0,0:0:0:0:
368,160,108773,1,0,0:0:0:0:
371,225,108889,1,0,0:0:0:0:
426,282,109004,5,8,0:0:0:0:
173,115,109236,1,0,0:0:0:0:
104,74,109351,1,0,0:0:0:0:
32,32,109466,5,0,0:0:0:0:
288,192,109697,1,0,0:0:0:0:
32,32,109927,1,8,0:0:0:0:
288,192,110158,5,0,0:0:0:0:
325,215,110273,1,0,0:0:0:0:
348,255,110389,5,0,0:0:0:0:
334,296,110504,1,0,0:0:0:0:
284,299,110620,1,0,0:0:0:0:
226,252,110735,1,0,0:0:0:0:
194,184,110850,5,8,0:0:0:0:
339,115,111081,1,0,0:0:0:0:
408,74,111196,1,0,0:0:0:0:
480,32,111311,5,0,0:0:0:0:
224,192,111542,1,0,0:0:0:0:
480,32,111772,1,8,0:0:0:0:
224,192,112003,5,0,0:0:0:0:
187,215,112118,1,0,0:0:0:0:
164,255,112234,5,0,0:0:0:0:
178,296,112349,1,0,0:0:0:0:
228,299,112465,1,0,0:0:0:0:
286,252,112580,1,0,0:0:0:0:
318,184,112696,5,8,0:0:0:0:
361,52,112927,1,0,0:0:0:0:
301,126,113043,1,0,0:0:0:0:
232,200,113158,5,0,2:0:0:0:
384,192,113619,5,0,2:0:0:0:
384,192,114543,1,0,2:0:0:0:
384,192,115466,1,0,2:0:0:0:
384,192,116389,1,0,2:0:0:0:
192,192,116619,5,0,2:0:0:0:
320,192,116850,1,0,2:0:0:0:
128,192,117312,5,0,2:0:0:0:
128,192,118236,1,0,2:0:0:0:
128,192,119159,1,0,2:0:0:0:
128,192,120081,1,0,2:0:0:0:
320,192,120311,5,0,2:0:0:0:
192,192,120542,1,0,2:0:0:0:
320,192,120773,1,0,2:0:0:0:
96,192,121119,1,0,2:0:0:0:
416,192,121466,1,0,2:0:0:0:
160,192,121812,1,0,2:0:0:0:
352,192,122158,1,0,2:0:0:0:
352,192,122389,5,0,2:0:0:0:
228,225,122619,1,0,2:0:0:0:
444,167,122965,1,0,2:0:0:0:
135,249,123312,1,0,2:0:0:0:
382,183,123658,1,0,2:0:0:0:
197,233,124004,1,0,2:0:0:0:
130,183,124235,5,0,2:0:0:0:
242,246,124465,1,0,2:0:0:0:
48,134,124811,1,0,2:0:0:0:
326,293,125158,1,0,2:0:0:0:
105,165,125504,1,0,2:0:0:0:
270,262,125850,1,0,2:0:0:0:
407,165,126081,5,0,2:0:0:0:
315,254,126311,1,0,2:0:0:0:
473,96,126657,1,0,2:0:0:0:
246,321,127004,1,0,2:0:0:0:
426,141,127350,1,0,2:0:0:0:
292,277,127696,5,0,2:0:0:0:
115,283,127927,5,4,1:3:0:0:
259,141,128389,1,8,1:0:0:0:
61,334,128619,1,4,1:3:0:0:
259,141,129312,1,8,1:0:0:0:
397,283,129773,5,4,1:3:0:0:
253,141,130235,1,8,1:0:0:0:
451,334,130465,1,4,1:3:0:0:
253,141,131158,1,8,1:0:0:0:
115,283,131619,5,4,1:3:0:0:
259,141,132081,1,8,1:0:0:0:
61,334,132311,1,4,1:3:0:0:
259,141,133004,1,8,1:0:0:0:
397,283,133466,5,4,1:3:0:0:
253,141,133928,1,8,1:0:0:0:
451,334,134158,1,4,1:3:0:0:
451,334,134619,5,0,1:0:0:0:
253,141,134851,1,8,1:0:0:0:
387,165,135081,1,0,1:0:0:0:
88,344,135312,5,4,1:3:0:0:
304,144,135774,1,8,1:0:0:0:
88,344,136004,1,4,1:3:0:0:
165,154,136235,5,0,1:0:0:0:
145,160,136581,1,0,1:0:0:0:
304,144,136697,5,8,1:0:0:0:
125,165,136927,5,0,1:0:0:0:
424,344,137158,5,4,1:3:0:0:
208,144,137620,1,8,1:0:0:0:
424,344,137850,1,4,1:3:0:0:
347,154,138081,5,0,1:0:0:0:
367,160,138427,1,0,1:0:0:0:
208,144,138543,5,8,1:0:0:0:
387,165,138773,5,0,1:0:0:0:
88,344,139004,5,4,1:3:0:0:
304,144,139466,1,8,1:0:0:0:
88,344,139696,1,4,1:3:0:0:
165,154,139927,5,0,1:0:0:0:
145,160,140273,1,0,1:0:0:0:
304,144,140389,5,8,1:0:0:0:
125,165,140619,5,0,1:0:0:0:
424,344,140850,5,4,1:3:0:0:
208,144,141312,1,8,1:0:0:0:
424,344,141542,1,4,1:3:0:0:
347,154,141773,5,0,1:0:0:0:
367,160,142119,1,0,1:0:0:0:
208,144,142235,5,8,1:0:0:0:
387,165,142465,5,0,1:0:0:0:
416,352,142696,5,4,0:3:0:0:
128,96,143158,1,8,0:0:0:0:
256,288,143389,1,0,0:0:0:0:
128,96,143619,5,0,0:0:0:0:
96,32,143735,1,0,0:0:0:0:
256,288,143965,1,0,0:0:0:0:
288,352,144081,1,8,0:0:0:0:
128,96,144312,1,0,0:0:0:0:
448,256,144542,5,4,0:3:0:0:
224,160,144773,1,0,0:0:0:0:
160,128,144889,1,0,0:0:0:0:
96,96,145004,1,8,0:0:0:0:
336,208,145235,1,0,0:0:0:0:
123,110,145466,5,0,0:0:0:0:
75,68,145581,1,0,0:0:0:0:
49,25,145697,1,0,0:0:0:0:
46,2,145812,1,0,0:0:0:0:
282,184,145927,5,8,0:0:0:0:
208,16,146158,1,0,0:0:0:0:
368,368,146389,5,4,0:3:0:0:
176,192,146734,1,0,0:0:0:0:
128,144,146850,1,8,0:0:0:0:
432,224,147081,1,0,0:0:0:0:
240,320,147312,5,0,0:0:0:0:
176,336,147427,1,0,0:0:0:0:
432,272,147658,1,0,0:0:0:0:
496,256,147773,1,8,0:0:0:0:
208,144,148004,1,0,0:0:0:0:
368,352,148235,5,4,0:3:0:0:
256,144,148465,1,0,0:0:0:0:
224,80,148581,1,0,0:0:0:0:
192,16,148696,1,8,0:0:0:0:
432,272,148927,1,0,0:0:0:0:
224,320,149158,5,0,0:0:0:0:
160,320,149273,1,0,0:0:0:0:
112,304,149389,1,0,0:0:0:0:
96,288,149504,1,0,0:0:0:0:
160,192,149619,5,8,0:0:0:0:
32,352,149850,1,0,0:0:0:0:
384,272,150081,5,4,0:3:0:0:
96,272,150312,1,0,0:0:0:0:
416,112,150542,5,8,0:0:0:0:
208,352,150773,1,0,0:0:0:0:
336,32,151004,5,0,0:0:0:0:
432,336,151465,5,8,0:0:0:0:
48,208,151696,1,0,0:0:0:0:
480,128,151927,5,4,0:3:0:0:
64,352,152388,5,8,0:0:0:0:
416,320,152619,1,0,0:0:0:0:
128,160,152850,5,0,0:0:0:0:
64,128,152965,1,0,0:0:0:0:
320,272,153196,1,0,0:0:0:0:
384,304,153311,5,8,0:0:0:0:
96,208,153542,1,0,0:0:0:0:
448,128,153773,6,0,L|416:112,1,30.0000011444092,4|0,0:3|0:0,0:0:0:0:
64,336,154004,2,0,L|96:352,1,30.0000011444092
208,32,154235,6,0,L|176:16,1,30.0000011444092,8|0,0:0|0:0,0:0:0:0:
400,336,154466,2,0,L|416:304,1,30.0000011444092
96,96,154696,6,0,L|64:88,3,30.0000011444092
144,288,155158,6,0,L|176:272,1,30.0000011444092,8|0,0:0|0:0,0:0:0:0:
224,64,155389,2,0,L|208:64,3,15.0000005722046
400,176,155619,6,0,L|384:176,3,15.0000005722046
144,288,155850,2,0,L|124:288,3,15.0000005722046
224,64,156081,6,0,L|208:64,3,15.0000005722046,8|0|0|0,0:0|0:0|0:0|0:0,0:0:0:0:
288,256,156312,2,0,L|272:256,3,15.0000005722046
160,96,156542,6,0,L|128:88,3,30.0000011444092
271,315,157004,5,0,0:0:0:0:
275,324,157062,1,4,0:3:0:0:
192,96,157466,5,0,0:0:0:0:
256,224,157697,1,0,0:0:0:0:
288,288,157813,1,0,0:0:0:0:
320,352,157928,5,8,0:0:0:0:
160,224,158043,1,0,0:0:0:0:
416,224,158389,5,0,0:0:0:0:
192,320,158620,1,0,0:0:0:0:
128,352,158736,1,0,0:0:0:0:
64,384,158851,5,8,0:0:0:0:
352,384,159082,1,0,0:0:0:0:
416,384,159197,1,0,0:0:0:0:
480,384,159313,5,0,0:0:0:0:
224,224,159544,1,0,0:0:0:0:
160,192,159660,1,0,0:0:0:0:
96,160,159775,5,8,0:0:0:0:
224,320,159890,1,0,0:0:0:0:
192,64,160236,5,0,0:0:0:0:
384,192,160467,1,0,0:0:0:0:
448,224,160583,1,0,0:0:0:0:
512,256,160698,5,8,0:0:0:0:
234,325,160929,1,0,0:0:0:0:
158,338,161044,1,0,0:0:0:0:
84,352,161159,5,0,0:0:0:0:
352,224,161390,1,0,0:0:0:0:
416,192,161506,1,0,0:0:0:0:
480,160,161621,5,8,0:0:0:0:
352,320,161736,1,0,0:0:0:0:
384,64,162082,5,0,0:0:0:0:
448,256,162313,1,0,0:0:0:0:
480,320,162429,1,0,0:0:0:0:
512,384,162544,5,8,0:0:0:0:
224,288,162775,1,0,0:0:0:0:
160,256,162890,1,0,0:0:0:0:
96,224,163005,5,0,0:0:0:0:
372,149,163236,1,0,0:0:0:0:
442,133,163352,1,0,0:0:0:0:
512,116,163467,5,8,0:0:0:0:
311,76,163581,1,0,0:0:0:0:
500,251,163928,5,0,0:0:0:0:
224,160,164159,1,0,0:0:0:0:
160,128,164275,1,0,0:0:0:0:
96,96,164390,5,8,0:0:0:0:
352,224,164621,1,0,0:0:0:0:
416,256,164736,1,0,0:0:0:0:
480,288,164851,5,0,0:0:0:0:
190,195,165082,1,0,0:0:0:0:
128,173,165197,1,0,0:0:0:0:
67,150,165313,1,8,0:0:0:0:
365,237,165543,5,0,0:0:0:0:
429,253,165659,1,0,0:0:0:0:
493,269,165774,1,0,0:0:0:0:
174,240,166005,5,0,0:0:0:0:
110,240,166120,1,0,0:0:0:0:
46,240,166236,1,8,0:0:0:0:
316,332,166466,5,0,0:0:0:0:
384,352,166582,1,0,0:0:0:0:
454,370,166697,2,0,L|400:288,1,90.0000034332277
96,272,167159,2,0,L|150:190,1,90.0000034332277,8|0,0:0|0:0,0:0:0:0:
448,176,167620,2,0,L|384:80,1,90.0000034332277
159,34,168082,1,8,0:0:0:0:
358,225,168312,1,0,0:0:0:0:
430,286,168427,1,0,0:0:0:0:
504,344,168542,5,0,0:0:0:0:
136,154,168773,1,0,0:0:0:0:
336,369,169004,5,8,0:0:0:0:
136,154,169119,1,0,0:0:0:0:
437,261,169465,5,0,0:0:0:0:
114,329,169812,1,0,0:0:0:0:
37,246,169927,5,8,0:0:0:0:
249,241,170157,1,0,0:0:0:0:
345,235,170272,1,0,0:0:0:0:
439,233,170387,5,0,0:0:0:0:
34,45,170618,1,0,0:0:0:0:
249,241,170848,5,8,0:0:0:0:
34,45,170964,1,0,0:0:0:0:
512,177,171310,5,0,0:0:0:0:
205,296,171658,1,0,0:0:0:0:
115,226,171773,5,8,0:0:0:0:
365,279,172005,1,0,0:0:0:0:
441,334,172121,1,0,0:0:0:0:
512,384,172236,5,0,0:0:0:0:
131,104,172467,1,0,0:0:0:0:
66,53,172582,1,0,0:0:0:0:
0,0,172698,1,8,0:0:0:0:
384,256,172929,5,0,0:0:0:0:
416,240,173044,1,0,0:0:0:0:
448,192,173159,5,0,0:0:0:0:
400,192,173275,1,0,0:0:0:0:
368,224,173390,1,0,0:0:0:0:
371,289,173506,1,0,0:0:0:0:
426,346,173621,5,8,0:0:0:0:
166,335,173852,1,0,0:0:0:0:
81,329,173967,1,0,0:0:0:0:
0,320,174082,5,0,0:0:0:0:
349,221,174313,1,0,0:0:0:0:
427,198,174428,1,0,0:0:0:0:
500,172,174544,5,8,0:0:0:0:
128,192,174774,1,0,0:0:0:0:
96,208,174889,1,0,0:0:0:0:
64,256,175004,5,0,0:0:0:0:
112,256,175120,1,0,0:0:0:0:
144,224,175235,1,0,0:0:0:0:
141,159,175351,1,0,0:0:0:0:
86,102,175466,5,8,0:0:0:0:
341,266,175698,1,0,0:0:0:0:
409,309,175813,1,0,0:0:0:0:
480,352,175928,5,0,0:0:0:0:
224,192,176159,1,0,0:0:0:0:
480,352,176389,1,8,0:0:0:0:
224,192,176620,5,0,0:0:0:0:
187,169,176735,1,0,0:0:0:0:
164,129,176851,5,0,0:0:0:0:
178,88,176966,1,0,0:0:0:0:
228,85,177082,1,0,0:0:0:0:
286,132,177197,1,0,0:0:0:0:
318,200,177312,5,8,0:0:0:0:
173,269,177543,1,0,0:0:0:0:
104,310,177658,1,0,0:0:0:0:
32,352,177773,5,0,0:0:0:0:
288,192,178004,1,0,0:0:0:0:
32,352,178234,1,8,0:0:0:0:
288,192,178465,5,0,0:0:0:0:
325,169,178580,1,0,0:0:0:0:
348,129,178696,5,0,0:0:0:0:
334,88,178811,1,0,0:0:0:0:
284,85,178927,1,0,0:0:0:0:
226,132,179042,1,0,0:0:0:0:
194,200,179157,5,8,0:0:0:0:
365,105,179390,5,0,0:0:0:0:
441,50,179506,1,0,0:0:0:0:
512,0,179621,5,0,0:0:0:0:
131,280,179852,1,0,0:0:0:0:
66,331,179967,1,0,0:0:0:0:
0,384,180083,1,8,0:0:0:0:
384,128,180314,5,0,0:0:0:0:
416,144,180429,1,0,0:0:0:0:
448,192,180544,5,0,0:0:0:0:
400,192,180660,1,0,0:0:0:0:
368,160,180775,1,0,0:0:0:0:
371,95,180891,1,0,0:0:0:0:
426,38,181006,5,8,0:0:0:0:
166,49,181237,1,0,0:0:0:0:
81,55,181352,1,0,0:0:0:0:
0,64,181467,5,0,0:0:0:0:
349,163,181698,1,0,0:0:0:0:
427,186,181813,1,0,0:0:0:0:
500,212,181929,5,8,0:0:0:0:
128,192,182159,1,0,0:0:0:0:
96,176,182274,1,0,0:0:0:0:
64,128,182389,5,0,0:0:0:0:
112,128,182505,1,0,0:0:0:0:
144,160,182620,1,0,0:0:0:0:
141,225,182736,1,0,0:0:0:0:
86,282,182851,5,8,0:0:0:0:
339,115,183083,1,0,0:0:0:0:
408,74,183198,1,0,0:0:0:0:
480,32,183313,5,0,0:0:0:0:
224,192,183544,1,0,0:0:0:0:
480,32,183774,1,8,0:0:0:0:
224,192,184005,5,0,0:0:0:0:
187,215,184120,1,0,0:0:0:0:
164,255,184236,5,0,0:0:0:0:
178,296,184351,1,0,0:0:0:0:
228,299,184467,1,0,0:0:0:0:
286,252,184582,1,0,0:0:0:0:
318,184,184697,5,8,0:0:0:0:
173,115,184928,1,0,0:0:0:0:
104,74,185043,1,0,0:0:0:0:
32,32,185158,5,0,0:0:0:0:
288,192,185389,1,0,0:0:0:0:
32,32,185619,1,8,0:0:0:0:
288,192,185850,5,0,0:0:0:0:
325,215,185965,1,0,0:0:0:0:
348,255,186081,5,0,0:0:0:0:
334,296,186196,1,0,0:0:0:0:
284,299,186312,1,0,0:0:0:0:
226,252,186427,1,0,0:0:0:0:
194,184,186543,5,8,0:0:0:0:
151,52,186774,1,0,0:0:0:0:
211,126,186890,1,0,0:0:0:0:
227,218,187004,6,0,L|267:306,1,90.0000034332277,0|0,2:0|2:0,2:0:0:0:
443,242,187466,2,0,L|475:130,1,90.0000034332277,0|0,2:0|2:0,2:0:0:0:
219,210,187927,2,0,L|187:322,1,90.0000034332277,0|0,2:0|2:0,2:0:0:0:
435,234,188389,2,0,L|395:146,1,90.0000034332277,0|0,2:0|2:0,2:0:0:0:
251,114,188850,5,0,2:0:0:0:
208,96,190004,5,0,2:0:0:0:
144,160,190235,1,0,2:0:0:0:
208,224,190466,1,0,2:0:0:0:
144,288,190696,6,0,L|184:376,1,90.0000034332277,0|0,2:0|2:0,2:0:0:0:
360,312,191158,2,0,L|392:200,1,90.0000034332277,0|0,2:0|2:0,2:0:0:0:
136,280,191619,2,0,L|104:392,1,90.0000034332277,0|0,2:0|2:0,2:0:0:0:
352,304,192081,2,0,L|312:216,1,90.0000034332277,0|0,2:0|2:0,2:0:0:0:
256,96,192543,5,0,2:0:0:0:
96,208,193466,6,0,L|136:296,1,90.0000034332277,0|0,2:0|2:0,2:0:0:0:
312,232,193928,2,0,L|344:120,1,90.0000034332277,0|0,2:0|2:0,2:0:0:0:
144,96,194389,6,0,L|87:174,1,90.0000034332277,0|0,2:0|2:0,2:0:0:0:
231,295,194851,2,0,L|343:266,1,90.0000034332277,0|0,2:0|2:0,2:0:0:0:
146,85,195312,2,0,L|33:113,1,90.0000034332277,0|0,2:0|2:0,2:0:0:0:
234,284,195774,2,0,L|290:205,1,90.0000034332277,0|0,2:0|2:0,2:0:0:0:
384,64,196235,6,0,B|416:19|416:19|400:208,1,240.000009155274,0|0,2:0|2:0,2:0:0:0:
176,160,197389,5,0,2:0:0:0:
304,144,197619,2,0,L|336:208,1,60.0000022888184,0|0,2:0|2:0,2:0:0:0:
256,320,197966,2,0,L|192:272,1,75.000002861023,0|0,2:0|2:0,2:0:0:0:
128,96,198369,2,0,L|288:160,1,165.000006294251,0|0,2:0|2:0,2:0:0:0:
176,272,199293,5,0,2:0:0:0:
304,224,199523,1,0,2:0:0:0:
80,240,199754,2,0,L|48:176,1,67.5000025749207,0|0,2:0|2:0,2:0:0:0:
116,110,200158,1,0,2:0:0:0:
88,55,200273,2,0,L|291:145,1,220,0|0,2:0|2:0,2:0:0:0:
80,336,201773,5,0,0:0:0:0:
271,167,202235,1,8,0:0:0:0:
80,336,202466,1,0,0:0:0:0:
424,217,202696,5,0,0:0:0:0:
224,320,202927,1,0,0:0:0:0:
424,217,203158,1,8,0:0:0:0:
124,237,203389,5,0,0:0:0:0:
432,336,203850,1,0,0:0:0:0:
124,237,204081,5,8,0:0:0:0:
272,352,204312,5,0,0:0:0:0:
480,112,204773,1,0,0:0:0:0:
272,352,205004,5,8,0:0:0:0:
480,112,205235,5,0,0:0:0:0:
64,256,205466,1,0,0:0:0:0:
352,288,205927,5,8,0:0:0:0:
64,256,206158,1,0,0:0:0:0:
224,336,206389,5,0,0:0:0:0:
80,112,206619,1,0,0:0:0:0:
224,336,206850,1,8,0:0:0:0:
368,112,207081,5,0,0:0:0:0:
80,272,207543,1,0,0:0:0:0:
368,112,207773,5,8,0:0:0:0:
80,144,208004,5,0,0:0:0:0:
352,336,208466,1,0,0:0:0:0:
80,144,208696,5,8,0:0:0:0:
336,64,209158,5,0,0:0:0:0:
160,288,209619,5,8,0:0:0:0:
336,64,209850,1,0,0:0:0:0:
96,192,210081,6,0,L|151:214,1,40
144,302,210312,2,0,L|198:297,1,40
290,348,210543,2,0,L|334:329,1,40,8|0,0:0|0:0,0:0:0:0:
442,208,210773,2,0,L|393:182,1,40
333,79,211003,6,0,L|311:67,3,20
192,128,211235,2,0,L|236:141,1,40
352,192,211466,2,0,L|308:205,1,40,8|0,0:0|0:0,0:0:0:0:
192,256,211696,2,0,L|236:269,1,40
327,313,211926,6,0,L|351:313,3,20
192,256,212158,2,0,L|236:243,1,40
352,192,212388,2,0,L|308:179,1,40,8|0,0:0|0:0,0:0:0:0:
224,64,212619,2,0,L|248:64,3,20
32,224,212850,6,0,L|88:224,1,40
256,224,213080,2,0,L|280:224,3,20
176,336,213312,6,0,L|215:296,1,40,8|0,0:0|0:0,0:0:0:0:
320,176,213543,2,0,L|303:159,3,20
288,320,213773,6,0,L|288:280,1,40
288,96,214004,2,0,L|288:72,3,20
352,192,214235,6,0,L|320:160,1,40,8|0,0:0|0:0,0:0:0:0:
160,64,214466,2,0,L|192:96,1,40
160,320,214696,6,0,L|192:288,1,40
416,160,214927,2,0,L|384:192,1,40
160,96,215158,6,0,L|128:128,1,40,8|0,0:0|0:0,0:0:0:0:
352,352,215389,2,0,L|384:320,1,40
320,64,215619,6,0,L|288:96,1,40
96,320,215850,2,0,L|128:352,1,40
384,288,216081,5,0,0:0:0:0:
397,283,216139,1,0,0:0:0:0:
14,307,216543,5,0,0:0:0:0:
253,243,216774,1,0,0:0:0:0:
321,219,216890,1,0,0:0:0:0:
388,195,217004,5,8,0:0:0:0:
184,177,217120,1,0,0:0:0:0:
329,362,217466,5,0,0:0:0:0:
189,138,217697,1,0,0:0:0:0:
152,75,217813,1,0,0:0:0:0:
117,14,217928,5,8,0:0:0:0:
341,182,218159,1,0,0:0:0:0:
390,223,218274,1,0,0:0:0:0:
439,264,218390,5,0,0:0:0:0:
140,222,218621,1,0,0:0:0:0:
70,205,218737,1,0,0:0:0:0:
0,189,218852,5,8,0:0:0:0:
201,148,218967,1,0,0:0:0:0:
12,324,219313,5,0,0:0:0:0:
242,349,219544,1,0,0:0:0:0:
311,366,219660,1,0,0:0:0:0:
381,382,219775,5,8,0:0:0:0:
187,118,220006,1,0,0:0:0:0:
133,61,220121,1,0,0:0:0:0:
81,6,220236,5,0,0:0:0:0:
334,162,220467,1,0,0:0:0:0:
396,198,220583,1,0,0:0:0:0:
457,235,220698,5,8,0:0:0:0:
254,214,220813,1,0,0:0:0:0:
486,102,221159,5,0,0:0:0:0:
363,262,221390,1,0,0:0:0:0:
323,322,221506,1,0,0:0:0:0:
282,381,221621,5,8,0:0:0:0:
120,226,221850,1,0,0:0:0:0:
71,173,221965,1,0,0:0:0:0:
23,120,222080,5,0,0:0:0:0:
307,149,222311,1,0,0:0:0:0:
379,159,222426,1,0,0:0:0:0:
450,168,222542,5,8,0:0:0:0:
277,59,222657,1,0,0:0:0:0:
390,290,223003,5,0,0:0:0:0:
165,106,223234,1,0,0:0:0:0:
117,53,223350,1,0,0:0:0:0:
69,0,223465,5,8,0:0:0:0:
352,224,223696,1,0,0:0:0:0:
416,256,223813,1,0,0:0:0:0:
480,288,223928,5,0,0:0:0:0:
190,195,224159,1,0,0:0:0:0:
128,173,224274,1,0,0:0:0:0:
67,150,224390,1,8,0:0:0:0:
365,237,224620,5,0,0:0:0:0:
429,253,224736,1,0,0:0:0:0:
493,269,224851,1,0,0:0:0:0:
174,240,225082,5,0,0:0:0:0:
110,240,225197,1,0,0:0:0:0:
46,240,225313,1,8,0:0:0:0:
316,332,225543,5,0,0:0:0:0:
384,352,225659,1,0,0:0:0:0:
454,370,225774,2,0,L|400:288,1,90.0000034332277
96,272,226236,2,0,L|150:190,1,90.0000034332277,8|0,0:0|0:0,0:0:0:0:
448,176,226697,2,0,L|384:80,1,90.0000034332277
159,34,227159,1,8,0:0:0:0:
358,225,227390,1,0,0:0:0:0:
430,286,227505,1,0,0:0:0:0:
504,344,227620,5,0,0:0:0:0:
136,154,227851,1,0,0:0:0:0:
336,369,228082,5,8,0:0:0:0:
136,154,228197,1,0,0:0:0:0:
437,261,228543,5,0,0:0:0:0:
114,329,228890,1,0,0:0:0:0:
37,246,229005,5,8,0:0:0:0:
304,176,229235,1,0,0:0:0:0:
259,260,229350,1,0,0:0:0:0:
217,344,229465,5,0,0:0:0:0:
478,45,229696,1,0,0:0:0:0:
416,281,229926,5,8,0:0:0:0:
478,45,230042,1,0,0:0:0:0:
0,177,230388,5,0,0:0:0:0:
307,296,230735,1,0,0:0:0:0:
397,226,230850,5,8,0:0:0:0:
147,279,231082,1,0,0:0:0:0:
71,334,231198,1,0,0:0:0:0:
0,384,231313,5,0,0:0:0:0:
381,104,231544,1,0,0:0:0:0:
446,53,231659,1,0,0:0:0:0:
512,0,231775,1,8,0:0:0:0:
128,256,232006,5,0,0:0:0:0:
96,240,232121,1,0,0:0:0:0:
64,192,232236,5,0,0:0:0:0:
112,192,232352,1,0,0:0:0:0:
144,224,232467,1,0,0:0:0:0:
141,289,232583,1,0,0:0:0:0:
86,346,232698,5,8,0:0:0:0:
346,335,232929,1,0,0:0:0:0:
431,329,233044,1,0,0:0:0:0:
512,320,233159,5,0,0:0:0:0:
163,221,233390,1,0,0:0:0:0:
85,198,233505,1,0,0:0:0:0:
12,172,233621,5,8,0:0:0:0:
384,192,233851,1,0,0:0:0:0:
416,208,233966,1,0,0:0:0:0:
448,256,234081,5,0,0:0:0:0:
400,256,234197,1,0,0:0:0:0:
368,224,234312,1,0,0:0:0:0:
371,159,234428,1,0,0:0:0:0:
426,102,234543,5,8,0:0:0:0:
171,266,234775,1,0,0:0:0:0:
103,309,234890,1,0,0:0:0:0:
32,352,235005,5,0,0:0:0:0:
288,192,235236,1,0,0:0:0:0:
32,352,235466,1,8,0:0:0:0:
288,192,235697,5,0,0:0:0:0:
325,169,235812,1,0,0:0:0:0:
348,129,235928,5,0,0:0:0:0:
334,88,236043,1,0,0:0:0:0:
284,85,236159,1,0,0:0:0:0:
226,132,236274,1,0,0:0:0:0:
194,200,236389,5,8,0:0:0:0:
339,269,236620,1,0,0:0:0:0:
408,310,236735,1,0,0:0:0:0:
480,352,236850,5,0,0:0:0:0:
224,192,237081,1,0,0:0:0:0:
480,352,237311,1,8,0:0:0:0:
224,192,237542,5,0,0:0:0:0:
187,169,237657,1,0,0:0:0:0:
164,129,237773,5,0,0:0:0:0:
178,88,237888,1,0,0:0:0:0:
228,85,238004,1,0,0:0:0:0:
286,132,238119,1,0,0:0:0:0:
318,200,238234,5,8,0:0:0:0:
147,105,238467,5,0,0:0:0:0:
71,50,238583,1,0,0:0:0:0:
0,0,238698,5,0,0:0:0:0:
381,280,238929,1,0,0:0:0:0:
446,331,239044,1,0,0:0:0:0:
512,384,239160,1,8,0:0:0:0:
128,128,239391,5,0,0:0:0:0:
96,144,239506,1,0,0:0:0:0:
64,192,239621,5,0,0:0:0:0:
112,192,239737,1,0,0:0:0:0:
144,160,239852,1,0,0:0:0:0:
141,95,239968,1,0,0:0:0:0:
86,38,240083,5,8,0:0:0:0:
346,49,240314,1,0,0:0:0:0:
431,55,240429,1,0,0:0:0:0:
512,64,240544,5,0,0:0:0:0:
163,163,240775,1,0,0:0:0:0:
85,186,240890,1,0,0:0:0:0:
12,212,241006,5,8,0:0:0:0:
384,192,241236,1,0,0:0:0:0:
416,176,241351,1,0,0:0:0:0:
448,128,241466,5,0,0:0:0:0:
400,128,241582,1,0,0:0:0:0:
368,160,241697,1,0,0:0:0:0:
371,225,241813,1,0,0:0:0:0:
426,282,241928,5,8,0:0:0:0:
173,115,242160,1,0,0:0:0:0:
104,74,242275,1,0,0:0:0:0:
32,32,242390,5,0,0:0:0:0:
288,192,242621,1,0,0:0:0:0:
32,32,242851,1,8,0:0:0:0:
288,192,243082,5,0,0:0:0:0:
325,215,243197,1,0,0:0:0:0:
348,255,243313,5,0,0:0:0:0:
334,296,243428,1,0,0:0:0:0:
284,299,243544,1,0,0:0:0:0:
226,252,243659,1,0,0:0:0:0:
194,184,243774,5,8,0:0:0:0:
339,115,244005,1,0,0:0:0:0:
408,74,244120,1,0,0:0:0:0:
480,32,244235,5,0,0:0:0:0:
224,192,244466,1,0,0:0:0:0:
480,32,244696,1,8,0:0:0:0:
224,192,244927,5,0,0:0:0:0:
187,215,245042,1,0,0:0:0:0:
164,255,245158,5,0,0:0:0:0:
178,296,245273,1,0,0:0:0:0:
228,299,245389,1,0,0:0:0:0:
286,252,245504,1,0,0:0:0:0:
318,184,245619,5,8,0:0:0:0:
361,52,245851,1,0,0:0:0:0:
301,126,245967,1,0,0:0:0:0:
