osu file format v14

[General]
AudioFilename: audio.mp3
AudioLeadIn: 0
PreviewTime: 60014
Countdown: 0
SampleSet: Soft
StackLeniency: 0.7
Mode: 3
LetterboxInBreaks: 0
SpecialStyle: 0
WidescreenStoryboard: 0

[Editor]
DistanceSpacing: 0.5
BeatDivisor: 4
GridSize: 16
TimelineZoom: 1.1

[Metadata]
Title:Hanazakari Weekend
TitleUnicode:花ざかりWeekend✿
Artist:4Luxury
ArtistUnicode:4Luxury
Creator:_Star
Version:4K Normal
Source:アイドルマスター ミリオンライブ!
Tags:idolm@ster the idolmaster million live im@s imas シアターデイズ theater days generation 桜守歌織 香里有佐 豊川風花 末柄里恵 北上麗花 平山笑美 馬場このみ 高橋未奈美 Kouri Arisa Suegara Rie Hirayama Emi Takahasi Minami
BeatmapID:1817278
BeatmapSetID:869548

[Difficulty]
HPDrainRate:7
CircleSize:4
OverallDifficulty:7
ApproachRate:5
SliderMultiplier:1.4
SliderTickRate:1

[Events]
//Background and Video events
0,0,"bg.jpg",0,0
//Break Periods
//Storyboard Layer 0 (Background)
//Storyboard Layer 1 (Fail)
//Storyboard Layer 2 (Pass)
//Storyboard Layer 3 (Foreground)
//Storyboard Layer 4 (Overlay)
//Storyboard Sound Samples

[TimingPoints]
2642,437.956204379562,4,2,1,80,1,0
60233,-100,4,2,1,80,0,1
88262,-100,4,2,1,80,0,0
118043,-100,4,2,1,80,0,1
132058,-100,4,2,1,80,0,0

[HitObjects]
448,192,2641,5,0,0:0:0:0:
192,192,2860,1,0,0:0:0:0:
320,192,3079,1,0,0:0:0:0:
64,192,3298,1,0,0:0:0:0:
448,192,3517,1,0,0:0:0:0:
192,192,3736,1,0,0:0:0:0:
320,192,3846,1,0,0:0:0:0:
448,192,3955,1,0,0:0:0:0:
64,192,4393,1,0,0:0:0:0:
320,192,4612,1,2,0:0:0:0:
192,192,4831,1,2,0:0:0:0:
448,192,5050,1,2,0:0:0:0:
320,192,5160,1,2,0:0:0:0:
192,192,5269,1,2,0:0:0:0:
448,192,5488,1,2,0:0:0:0:
320,192,5598,1,2,0:0:0:0:
192,192,5707,1,2,0:0:0:0:
64,192,5926,128,2,6364:0:0:0:0:
320,192,5926,128,4,6364:0:0:0:0:
192,192,6583,1,0,1:0:0:0:
320,192,6583,1,0,0:0:0:0:
64,192,7021,1,2,0:0:0:0:
320,192,7240,1,8,0:0:0:0:
448,192,7240,1,0,0:0:0:0:
320,192,7459,1,8,0:0:0:0:
448,192,7459,1,0,0:0:0:0:
192,192,7897,1,2,0:0:0:0:
320,192,8335,1,0,1:0:0:0:
448,192,8773,1,2,0:0:0:0:
64,192,8992,1,0,0:0:0:0:
192,192,8992,1,8,0:0:0:0:
192,192,9211,1,8,0:0:0:0:
64,192,9211,1,0,0:0:0:0:
320,192,9649,1,2,0:0:0:0:
192,192,10087,1,0,1:0:0:0:
448,192,10525,1,2,0:0:0:0:
64,192,10744,1,0,0:0:0:0:
192,192,10744,1,8,0:0:0:0:
320,192,10963,1,8,0:0:0:0:
448,192,10963,1,0,0:0:0:0:
192,192,11401,1,2,0:0:0:0:
448,192,11839,1,0,1:0:0:0:
320,192,12277,1,2,0:0:0:0:
64,192,12496,1,0,0:0:0:0:
192,192,12496,1,8,0:0:0:0:
320,192,12714,1,8,0:0:0:0:
448,192,12714,1,0,0:0:0:0:
192,192,13152,128,6,13590:0:0:0:0:
320,192,13809,128,6,14247:0:0:0:0:
448,192,14685,128,4,15342:0:0:0:0:
64,192,14685,128,2,15342:0:0:0:0:
192,192,15780,1,0,0:0:0:0:
320,192,15780,1,0,1:0:0:0:
320,192,16218,1,0,1:0:0:0:
192,192,16218,1,0,0:0:0:0:
448,192,16656,1,4,0:0:0:0:
64,192,16656,1,0,1:0:0:0:
192,192,17094,1,0,1:0:0:0:
320,192,17532,1,2,0:0:0:0:
64,192,17970,1,0,1:0:0:0:
192,192,18408,128,0,18846:0:0:0:0:
320,192,18408,128,2,18846:0:0:0:0:
448,192,19284,1,2,0:0:0:0:
320,192,19722,1,0,1:0:0:0:
448,192,19941,1,0,0:0:0:0:
192,192,20160,1,0,0:0:0:0:
320,192,20160,1,2,0:0:0:0:
64,192,20598,1,0,1:0:0:0:
320,192,21036,1,2,0:0:0:0:
192,192,21474,1,0,1:0:0:0:
320,192,21912,1,2,0:0:0:0:
64,192,21912,1,0,0:0:0:0:
192,192,22350,1,0,1:0:0:0:
448,192,22350,1,0,0:0:0:0:
64,192,22787,1,0,0:0:0:0:
320,192,22787,1,2,0:0:0:0:
192,192,23006,1,0,0:0:0:0:
448,192,23225,1,0,1:0:0:0:
320,192,23444,1,0,0:0:0:0:
64,192,23663,1,0,0:0:0:0:
448,192,23663,1,2,0:0:0:0:
192,192,24101,1,0,1:0:0:0:
320,192,24539,1,2,0:0:0:0:
448,192,24977,1,0,1:0:0:0:
64,192,25415,128,0,25853:0:0:0:0:
192,192,25415,128,2,25853:0:0:0:0:
320,192,26291,1,2,0:0:0:0:
64,192,26729,1,0,1:0:0:0:
448,192,27167,1,0,0:0:0:0:
192,192,27167,1,2,0:0:0:0:
320,192,27605,1,0,1:0:0:0:
64,192,28043,1,2,0:0:0:0:
192,192,28481,1,0,1:0:0:0:
64,192,28919,128,0,29357:0:0:0:0:
320,192,28919,128,2,29357:0:0:0:0:
448,192,29795,128,0,30233:0:0:0:0:
192,192,29795,128,2,30233:0:0:0:0:
320,192,30671,1,4,0:0:0:0:
64,192,30671,1,2,0:0:0:0:
192,192,31109,1,0,1:0:0:0:
448,192,31547,1,2,0:0:0:0:
320,192,31985,1,0,1:0:0:0:
192,192,32423,128,2,32860:0:0:0:0:
64,192,32423,128,0,32860:0:0:0:0:
64,192,33298,1,2,0:0:0:0:
192,192,33736,1,0,1:0:0:0:
64,192,33955,1,0,0:0:0:0:
320,192,34174,1,0,0:0:0:0:
192,192,34174,1,2,0:0:0:0:
448,192,34612,1,0,1:0:0:0:
192,192,35050,1,2,0:0:0:0:
320,192,35488,1,0,1:0:0:0:
192,192,35926,1,2,0:0:0:0:
448,192,35926,1,0,0:0:0:0:
320,192,36364,1,0,0:0:0:0:
64,192,36364,1,0,1:0:0:0:
448,192,36802,1,0,0:0:0:0:
192,192,36802,1,2,0:0:0:0:
320,192,37021,1,0,0:0:0:0:
64,192,37240,1,0,1:0:0:0:
192,192,37459,1,0,0:0:0:0:
448,192,37678,1,0,0:0:0:0:
64,192,37678,1,2,0:0:0:0:
320,192,38116,1,0,1:0:0:0:
192,192,38554,1,2,0:0:0:0:
448,192,38992,1,0,1:0:0:0:
192,192,39430,128,2,39868:0:0:0:0:
64,192,39430,128,0,39868:0:0:0:0:
320,192,40306,1,2,0:0:0:0:
64,192,40744,1,0,1:0:0:0:
448,192,41182,1,0,0:0:0:0:
192,192,41182,1,2,0:0:0:0:
64,192,41620,1,0,1:0:0:0:
320,192,42058,1,2,0:0:0:0:
192,192,42496,1,2,0:0:0:0:
320,192,42714,128,6,43152:0:0:0:0:
448,192,43371,1,0,1:0:0:0:
192,192,43590,1,6,0:0:0:0:
64,192,44028,1,0,0:0:0:0:
448,192,44028,1,0,1:0:0:0:
192,192,44247,1,0,0:0:0:0:
320,192,44247,1,0,1:0:0:0:
64,192,44685,1,4,0:0:0:0:
320,192,44685,1,0,1:0:0:0:
192,192,45123,1,0,1:0:0:0:
320,192,45561,1,2,0:0:0:0:
64,192,45999,1,0,1:0:0:0:
192,192,46218,1,2,0:0:0:0:
448,192,46218,1,0,0:0:0:0:
448,192,46656,1,2,0:0:0:0:
64,192,46875,1,0,0:0:0:0:
320,192,46875,1,0,1:0:0:0:
320,192,47313,1,0,1:0:0:0:
448,192,47313,1,0,0:0:0:0:
192,192,47532,1,0,1:0:0:0:
64,192,47532,1,0,0:0:0:0:
320,192,47751,1,0,1:0:0:0:
448,192,47751,1,0,0:0:0:0:
64,192,48189,1,0,0:0:0:0:
320,192,48189,1,2,0:0:0:0:
192,192,48627,1,0,1:0:0:0:
448,192,49065,1,2,0:0:0:0:
320,192,49503,1,0,1:0:0:0:
192,192,49722,1,2,0:0:0:0:
448,192,49722,1,0,0:0:0:0:
192,192,50160,1,2,0:0:0:0:
64,192,50379,1,0,0:0:0:0:
320,192,50379,1,0,1:0:0:0:
192,192,50817,1,0,1:0:0:0:
448,192,50817,1,0,0:0:0:0:
64,192,51036,1,0,0:0:0:0:
320,192,51036,1,0,1:0:0:0:
192,192,51255,1,0,1:0:0:0:
448,192,51255,1,0,0:0:0:0:
320,192,51693,1,2,0:0:0:0:
64,192,52131,1,0,1:0:0:0:
448,192,52569,1,2,0:0:0:0:
320,192,52787,1,0,1:0:0:0:
192,192,53006,1,0,1:0:0:0:
64,192,53225,1,0,1:0:0:0:
320,192,53225,1,4,0:0:0:0:
192,192,53663,1,0,1:0:0:0:
448,192,53663,1,4,0:0:0:0:
320,192,54101,1,4,0:0:0:0:
64,192,54101,1,0,1:0:0:0:
192,192,54539,1,0,1:0:0:0:
448,192,54539,1,4,0:0:0:0:
192,192,54977,128,4,55415:0:3:0:0:
320,192,54977,128,4,55415:0:0:0:0:
448,192,55634,1,0,0:0:0:0:
64,192,55634,1,0,1:0:0:0:
192,192,56072,1,2,0:0:0:0:
320,192,56291,1,4,0:3:0:0:
448,192,56510,1,0,1:0:0:0:
320,192,56729,128,0,57167:1:0:0:0:
64,192,57167,1,0,1:0:0:0:
192,192,57386,1,0,0:0:0:0:
448,192,57605,1,0,0:0:0:0:
64,192,57824,1,0,0:0:0:0:
320,192,58043,1,4,0:3:0:0:
192,192,58262,1,2,0:0:0:0:
64,192,58481,128,0,58919:1:0:0:0:
448,192,58481,128,4,58919:0:0:0:0:
192,192,59138,1,0,1:0:0:0:
320,192,59357,1,0,0:0:0:0:
64,192,59576,1,0,1:0:0:0:
448,192,59576,1,0,0:0:0:0:
192,192,59795,1,4,0:3:0:0:
320,192,59795,1,0,0:0:0:0:
64,192,60233,128,4,60671:0:0:0:0:
448,192,60233,128,2,60671:0:0:0:0:
192,192,60890,1,0,1:0:0:0:
320,192,61109,1,0,0:0:0:0:
64,192,61328,1,2,0:0:0:0:
448,192,61547,1,0,0:0:0:0:
320,192,61547,1,8,0:0:0:0:
320,192,61766,1,8,0:0:0:0:
448,192,61766,1,0,0:0:0:0:
192,192,61985,1,0,0:0:0:0:
448,192,62204,1,2,0:0:0:0:
64,192,62423,1,0,0:0:0:0:
320,192,62642,1,0,1:0:0:0:
192,192,62860,1,0,0:0:0:0:
448,192,63079,1,2,0:0:0:0:
192,192,63298,1,8,0:0:0:0:
64,192,63298,1,0,0:0:0:0:
192,192,63517,1,8,0:0:0:0:
64,192,63517,1,0,0:0:0:0:
320,192,63736,1,0,0:0:0:0:
64,192,63955,1,2,0:0:0:0:
448,192,64174,1,0,0:0:0:0:
192,192,64393,1,0,1:0:0:0:
320,192,64612,1,0,0:0:0:0:
64,192,64831,1,2,0:0:0:0:
320,192,65050,1,8,0:0:0:0:
448,192,65050,1,0,0:0:0:0:
320,192,65269,1,8,0:0:0:0:
448,192,65269,1,0,0:0:0:0:
192,192,65488,128,4,65707:0:0:0:0:
64,192,65488,128,0,65707:1:0:0:0:
192,192,65926,128,0,66145:1:0:0:0:
320,192,65926,128,4,66145:0:0:0:0:
448,192,66364,128,4,66583:0:0:0:0:
320,192,66364,128,0,66583:1:0:0:0:
64,192,66802,128,0,67021:1:0:0:0:
192,192,66802,128,4,67021:0:0:0:0:
320,192,67240,1,4,0:3:0:0:
448,192,67240,1,4,0:0:0:0:
64,192,67897,1,0,1:0:0:0:
192,192,68116,1,0,0:0:0:0:
320,192,68335,1,2,0:0:0:0:
192,192,68554,1,8,0:0:0:0:
64,192,68554,1,0,0:0:0:0:
192,192,68773,1,8,0:0:0:0:
64,192,68773,1,0,0:0:0:0:
448,192,68992,128,0,69430:0:0:0:0:
192,192,69211,1,2,0:0:0:0:
320,192,69649,1,0,1:0:0:0:
192,192,69868,1,0,0:0:0:0:
64,192,70087,1,2,0:0:0:0:
320,192,70306,1,8,0:0:0:0:
448,192,70306,1,0,0:0:0:0:
320,192,70525,1,8,0:0:0:0:
448,192,70525,1,0,0:0:0:0:
192,192,70744,128,2,71182:0:0:0:0:
448,192,71401,128,2,71620:0:0:0:0:
320,192,71839,1,2,0:0:0:0:
64,192,72058,1,2,0:0:0:0:
448,192,72277,1,0,1:0:0:0:
192,192,72496,128,2,72714:0:0:0:0:
320,192,72496,128,4,72714:0:0:0:0:
64,192,72933,1,2,0:0:0:0:
192,192,73152,1,0,1:0:0:0:
448,192,73371,128,4,73809:0:0:0:0:
320,192,73371,128,0,73809:1:0:0:0:
64,192,74247,1,0,1:0:0:0:
192,192,74247,1,4,0:0:0:0:
320,192,74466,1,0,0:0:0:0:
192,192,74685,1,0,0:0:0:0:
448,192,74904,1,0,1:0:0:0:
64,192,75123,1,0,0:0:0:0:
320,192,75342,1,2,0:0:0:0:
192,192,75561,1,8,0:0:0:0:
64,192,75561,1,0,0:0:0:0:
192,192,75780,1,8,0:0:0:0:
64,192,75780,1,0,0:0:0:0:
448,192,75999,1,0,0:0:0:0:
192,192,76218,1,2,0:0:0:0:
320,192,76437,1,0,0:0:0:0:
64,192,76656,1,0,1:0:0:0:
448,192,76875,1,0,0:0:0:0:
192,192,77094,1,2,0:0:0:0:
320,192,77313,1,0,0:0:0:0:
448,192,77313,1,8,0:0:0:0:
448,192,77532,1,8,0:0:0:0:
320,192,77532,1,0,0:0:0:0:
64,192,77751,1,0,0:0:0:0:
320,192,77970,1,2,0:0:0:0:
192,192,78189,1,0,0:0:0:0:
448,192,78408,1,0,1:0:0:0:
320,192,78627,1,0,0:0:0:0:
448,192,78846,1,2,0:0:0:0:
192,192,79065,1,8,0:0:0:0:
64,192,79065,1,0,0:0:0:0:
192,192,79284,1,8,0:0:0:0:
64,192,79284,1,0,0:0:0:0:
320,192,79503,128,0,79722:1:0:0:0:
64,192,79503,128,4,79722:0:0:0:0:
192,192,79941,128,4,80160:0:0:0:0:
448,192,79941,128,0,80160:1:0:0:0:
448,192,80379,128,0,80598:1:0:0:0:
64,192,80379,128,4,80598:0:0:0:0:
192,192,80817,128,4,81036:0:3:0:0:
320,192,80817,128,0,81036:1:0:0:0:
64,192,81255,1,4,0:0:0:0:
448,192,81255,1,4,0:3:0:0:
320,192,81912,1,0,1:0:0:0:
192,192,82131,1,0,0:0:0:0:
64,192,82350,1,2,0:0:0:0:
448,192,82569,1,8,0:0:0:0:
320,192,82569,1,0,0:0:0:0:
320,192,82787,1,8,0:0:0:0:
448,192,82787,1,0,0:0:0:0:
64,192,83006,128,0,83444:0:0:0:0:
320,192,83225,1,2,0:0:0:0:
448,192,83444,1,0,0:0:0:0:
192,192,83663,1,0,1:0:0:0:
320,192,83882,1,0,0:0:0:0:
64,192,84101,1,0,0:0:0:0:
192,192,84101,1,2,0:0:0:0:
320,192,84320,1,8,0:0:0:0:
448,192,84320,1,0,0:0:0:0:
448,192,84539,1,8,0:0:0:0:
320,192,84539,1,0,0:0:0:0:
192,192,84758,1,0,0:0:0:0:
64,192,84758,1,0,0:0:0:0:
320,192,84977,1,2,0:0:0:0:
192,192,85196,1,0,0:0:0:0:
448,192,85415,1,0,1:0:0:0:
64,192,85634,1,0,0:0:0:0:
320,192,85853,1,2,0:0:0:0:
192,192,86072,1,0,0:0:0:0:
448,192,86291,1,0,1:0:0:0:
192,192,86510,128,0,86729:1:0:0:0:
64,192,86510,128,2,86729:0:3:0:0:
448,192,86948,128,0,87167:1:0:0:0:
320,192,86948,128,4,87167:0:0:0:0:
64,192,87386,128,2,87605:0:3:0:0:
192,192,87386,128,0,87605:1:0:0:0:
320,192,87824,128,4,88043:0:0:0:0:
448,192,87824,128,0,88043:1:0:0:0:
64,192,88262,1,4,0:0:0:0:
448,192,88262,1,0,1:0:0:0:
320,192,88919,128,0,89357:1:0:0:0:
64,192,88919,128,2,89357:0:0:0:0:
192,192,89576,1,8,0:0:0:0:
448,192,89576,1,0,0:0:0:0:
192,192,89795,1,8,0:0:0:0:
448,192,89795,1,0,0:0:0:0:
320,192,90233,1,2,0:0:0:0:
192,192,90452,1,0,0:0:0:0:
64,192,90671,1,0,1:0:0:0:
192,192,90890,1,0,0:0:0:0:
320,192,91109,1,2,0:0:0:0:
448,192,91328,1,0,0:0:0:0:
64,192,91328,1,8,0:0:0:0:
64,192,91547,1,8,0:0:0:0:
448,192,91547,1,0,0:0:0:0:
192,192,91985,128,0,92423:0:0:0:0:
320,192,91985,128,2,92423:0:0:0:0:
448,192,92860,1,2,0:0:0:0:
192,192,93079,1,8,0:0:0:0:
64,192,93079,1,0,0:0:0:0:
64,192,93298,1,0,0:0:0:0:
192,192,93298,1,8,0:0:0:0:
320,192,93736,1,2,0:0:0:0:
320,192,93955,1,0,0:0:0:0:
192,192,94174,1,0,1:0:0:0:
192,192,94393,1,0,0:0:0:0:
448,192,94612,1,2,0:0:0:0:
320,192,94722,1,2,0:0:0:0:
64,192,94941,1,2,0:0:0:0:
448,192,95160,1,2,0:3:0:0:
320,192,95269,1,2,0:0:0:0:
192,192,95379,1,4,0:3:0:0:
64,192,95488,1,6,0:0:0:0:
192,192,95926,128,0,96364:1:0:0:0:
64,192,96364,1,2,0:0:0:0:
448,192,96802,1,0,1:0:0:0:
320,192,97021,128,2,97240:0:0:0:0:
192,192,97240,1,2,0:0:0:0:
64,192,97459,1,0,0:0:0:0:
192,192,97569,1,0,0:0:0:0:
320,192,97678,1,0,1:0:0:0:
64,192,97897,1,0,0:0:0:0:
320,192,98116,1,2,0:0:0:0:
192,192,98335,1,8,0:0:0:0:
448,192,98335,1,0,0:0:0:0:
320,192,98554,1,0,0:0:0:0:
64,192,98554,1,8,0:0:0:0:
448,192,98992,1,2,0:0:0:0:
320,192,99211,1,0,0:0:0:0:
192,192,99320,1,0,0:0:0:0:
64,192,99430,1,0,1:0:0:0:
320,192,99649,1,0,0:0:0:0:
192,192,99758,1,0,0:0:0:0:
64,192,99868,1,2,0:0:0:0:
320,192,100087,1,2,0:0:0:0:
192,192,100196,1,2,0:0:0:0:
64,192,100306,1,0,1:0:0:0:
448,192,100525,1,2,0:0:0:0:
192,192,100744,128,4,101620:0:0:0:0:
320,192,100744,128,0,101620:1:0:0:0:
64,192,101620,1,0,0:0:0:0:
448,192,101620,1,2,0:0:0:0:
448,192,102277,1,0,1:0:0:0:
64,192,102277,1,4,0:0:0:0:
320,192,102714,1,0,0:0:0:0:
448,192,102933,1,0,0:0:0:0:
320,192,103152,1,0,0:0:0:0:
192,192,103371,1,0,0:0:0:0:
64,192,103590,1,0,0:0:0:0:
320,192,104028,1,0,0:0:0:0:
192,192,104466,1,0,0:0:0:0:
448,192,104685,1,0,0:0:0:0:
64,192,104904,1,0,0:0:0:0:
320,192,105561,1,0,0:0:0:0:
192,192,105780,1,0,0:0:0:0:
448,192,106218,1,0,0:0:0:0:
64,192,106437,1,0,0:0:0:0:
448,192,106656,1,0,0:0:0:0:
64,192,106875,1,0,0:0:0:0:
192,192,107094,1,0,0:0:0:0:
320,192,107313,1,0,0:0:0:0:
448,192,107532,1,0,0:0:0:0:
320,192,107970,1,0,0:0:0:0:
192,192,108408,1,0,0:0:0:0:
64,192,108846,1,0,0:0:0:0:
320,192,109284,1,2,0:0:0:0:
448,192,109284,1,4,0:0:0:0:
192,192,109941,1,2,0:0:0:0:
320,192,110160,1,0,0:0:0:0:
64,192,110379,1,2,0:0:0:0:
448,192,110598,1,0,0:0:0:0:
192,192,110817,1,2,0:0:0:0:
320,192,111036,128,0,111474:0:0:0:0:
64,192,111255,1,2,0:0:0:0:
320,192,111693,1,2,0:0:0:0:
192,192,111912,1,0,0:0:0:0:
64,192,112131,1,2,0:0:0:0:
448,192,112569,1,2,0:0:0:0:
64,192,112787,128,0,113225:0:0:0:0:
320,192,113006,1,4,0:0:0:0:
448,192,113444,1,2,0:0:0:0:
192,192,113882,1,2,0:0:0:0:
320,192,114101,1,2,0:0:0:0:
448,192,114320,1,2,0:0:0:0:
64,192,114539,128,2,114977:0:0:0:0:
192,192,115196,1,0,1:0:0:0:
320,192,115415,128,6,115853:0:0:0:0:
64,192,116291,1,4,0:0:0:0:
192,192,116291,1,2,0:0:0:0:
320,192,116729,1,2,0:0:0:0:
448,192,116729,1,4,0:0:0:0:
64,192,116948,1,4,0:0:0:0:
192,192,116948,1,2,0:0:0:0:
320,192,117167,1,2,0:0:0:0:
448,192,117167,1,0,0:0:0:0:
64,192,117605,1,0,1:0:0:0:
192,192,117605,1,2,0:0:0:0:
64,192,118043,128,0,118481:1:0:0:0:
448,192,118043,128,4,118481:0:0:0:0:
320,192,118700,1,0,1:0:0:0:
192,192,118919,1,0,0:0:0:0:
448,192,119138,1,2,0:0:0:0:
192,192,119357,1,8,0:0:0:0:
64,192,119357,1,0,0:0:0:0:
64,192,119576,1,0,0:0:0:0:
192,192,119576,1,8,0:0:0:0:
320,192,119795,1,0,0:0:0:0:
64,192,120014,1,2,0:0:0:0:
448,192,120233,1,0,0:0:0:0:
192,192,120452,1,0,1:0:0:0:
320,192,120671,1,0,0:0:0:0:
64,192,120890,1,2,0:0:0:0:
448,192,121109,1,0,0:0:0:0:
320,192,121109,1,8,0:0:0:0:
448,192,121328,1,0,0:0:0:0:
320,192,121328,1,8,0:0:0:0:
192,192,121547,1,0,0:0:0:0:
448,192,121766,1,2,0:0:0:0:
64,192,121985,1,0,0:0:0:0:
320,192,122204,1,0,1:0:0:0:
192,192,122423,1,0,0:0:0:0:
448,192,122641,1,2,0:0:0:0:
192,192,122860,1,8,0:0:0:0:
64,192,122860,1,0,0:0:0:0:
192,192,123079,1,8,0:0:0:0:
64,192,123079,1,0,0:0:0:0:
320,192,123298,128,0,123517:1:0:0:0:
448,192,123298,128,4,123517:0:0:0:0:
192,192,123736,128,0,123955:1:0:0:0:
320,192,123736,128,4,123955:0:0:0:0:
64,192,124174,128,0,124393:1:0:0:0:
192,192,124174,128,4,124393:0:0:0:0:
320,192,124612,128,4,124831:0:3:0:0:
448,192,124612,128,0,124831:1:0:0:0:
64,192,125050,1,0,1:0:0:0:
192,192,125050,1,4,0:0:0:0:
448,192,125707,1,0,1:0:0:0:
320,192,125926,1,0,0:0:0:0:
192,192,126145,1,2,0:0:0:0:
320,192,126364,1,8,0:0:0:0:
448,192,126364,1,0,0:0:0:0:
448,192,126583,1,8,0:0:0:0:
320,192,126583,1,0,0:0:0:0:
64,192,126802,128,0,127240:0:0:0:0:
320,192,127021,1,2,0:0:0:0:
192,192,127459,1,0,1:0:0:0:
320,192,127678,1,0,0:0:0:0:
448,192,127897,1,2,0:0:0:0:
64,192,128116,1,0,0:0:0:0:
192,192,128116,1,8,0:0:0:0:
320,192,128335,1,8,0:0:0:0:
448,192,128335,1,0,0:0:0:0:
64,192,128554,128,0,128992:0:0:0:0:
448,192,128554,128,0,128992:0:0:0:0:
320,192,129211,1,0,1:0:0:0:
192,192,129430,1,0,0:0:0:0:
320,192,129649,1,2,0:0:0:0:
192,192,129868,1,8,0:0:0:0:
448,192,130087,1,8,0:0:0:0:
64,192,130306,128,2,130525:0:0:0:0:
192,192,130306,128,4,130525:0:0:0:0:
320,192,130744,128,4,130963:0:3:0:0:
448,192,130744,128,4,130963:0:0:0:0:
64,192,131182,128,4,131401:0:3:0:0:
192,192,131182,128,4,131401:0:0:0:0:
320,192,131620,128,2,131839:0:3:0:0:
448,192,131620,128,0,131839:1:0:0:0:
64,192,132058,1,0,1:0:0:0:
448,192,132058,1,4,0:0:0:0:
320,192,132714,1,0,1:0:0:0:
192,192,133152,1,2,0:0:0:0:
448,192,133371,1,8,0:0:0:0:
320,192,133371,1,0,0:0:0:0:
448,192,133590,1,8,0:0:0:0:
320,192,133590,1,0,0:0:0:0:
64,192,134028,1,2,0:0:0:0:
448,192,134466,1,0,1:0:0:0:
320,192,134904,1,2,0:0:0:0:
64,192,135123,1,0,0:0:0:0:
192,192,135123,1,8,0:0:0:0:
192,192,135342,1,8,0:0:0:0:
64,192,135342,1,0,0:0:0:0:
448,192,135780,1,2,0:0:0:0:
64,192,136218,1,0,1:0:0:0:
448,192,136656,1,2,0:0:0:0:
320,192,136875,1,8,0:0:0:0:
192,192,136875,1,0,0:0:0:0:
192,192,137094,1,0,0:0:0:0:
320,192,137094,1,8,0:0:0:0:
192,192,137532,1,2,0:0:0:0:
320,192,137970,1,0,1:0:0:0:
192,192,138408,1,2,0:0:0:0:
64,192,138627,1,8,0:0:0:0:
448,192,138627,1,0,0:0:0:0:
448,192,138846,1,0,0:0:0:0:
64,192,138846,1,8,0:0:0:0:
320,192,139284,1,0,1:0:0:0:
64,192,139612,1,2,0:3:0:0:
448,192,139941,1,4,0:3:0:0:
192,192,140269,1,2,0:0:0:0:
320,192,140598,1,2,0:0:0:0:
64,192,141036,128,2,141912:0:0:0:0:
448,192,141036,128,0,141912:0:0:0:0:
192,192,142787,1,0,1:0:0:0:
320,192,142787,1,4,0:3:0:0:
320,192,143116,1,4,0:3:0:0:
192,192,143116,1,0,1:0:0:0:
64,192,143444,1,0,1:0:0:0:
448,192,143444,1,4,0:3:0:0:
192,192,143882,1,0,1:0:0:0:
320,192,143882,1,4,0:3:0:0:
192,192,144101,1,0,1:0:0:0:
320,192,144101,1,4,0:3:0:0:
64,192,144320,1,0,1:0:0:0:
448,192,144320,1,4,0:3:0:0:
