osu file format v14

[General]
AudioFilename: gengaozo_foon.mp3
AudioLeadIn: 2
PreviewTime: 76869
Countdown: 0
SampleSet: Normal
StackLeniency: 0.7
Mode: 1
LetterboxInBreaks: 0
WidescreenStoryboard: 0

[Editor]
DistanceSpacing: 0.9
BeatDivisor: 8
GridSize: 32
TimelineZoom: 6.799996

[Metadata]
Title:Gengaozo_Foon
TitleUnicode:Gengaozo_Foon
Artist:455-38B
ArtistUnicode:455-38B
Creator:whosthebox
Version:Oni
Source:BMS
Tags:gengaozo foon bms overjoy
BeatmapID:1616788
BeatmapSetID:768816

[Difficulty]
HPDrainRate:4
CircleSize:7
OverallDifficulty:7
ApproachRate:10
SliderMultiplier:2
SliderTickRate:1

[Events]
//Background and Video events
0,0,"background.jpg",0,0
//Break Periods
//Storyboard Layer 0 (Background)
//Storyboard Layer 1 (Fail)
//Storyboard Layer 2 (Pass)
//Storyboard Layer 3 (Foreground)
//Storyboard Layer 4 (Overlay)
//Storyboard Sound Samples

[TimingPoints]
1575,392.1569,4,1,0,75,1,0
1575,-125,4,1,0,75,0,0
1771,-125,4,1,0,45,0,0
13927,-111.111111111111,4,1,0,45,0,0
14124,-111.111111111111,4,1,0,60,0,0
20594,-105.263157894737,4,1,0,60,0,0
26869,-100,4,1,0,75,0,0
38829,-96.1538461538461,4,1,0,75,0,0
38927,-92.5925925925926,4,1,0,75,0,0
39025,-89.2857142857143,4,1,0,75,0,0
39124,-86.2068965517241,4,1,0,75,0,0
39222,-83.3333333333333,4,1,0,75,0,0
51378,-81.9672131147541,4,1,0,75,0,0
51427,-81.3008130081301,4,1,0,75,0,0
51476,-80.6451612903226,4,1,0,75,0,0
51525,-80,4,1,0,75,0,0
51575,-79.3650793650794,4,1,0,75,0,0
51624,-78.7401574803149,4,1,0,75,0,0
51673,-78.125,4,1,0,75,0,0
51722,-77.5193798449612,4,1,0,75,0,0
51771,-76.9230769230769,4,1,0,75,0,0
63045,-75.187969924812,4,1,0,75,0,0
63143,-73.5294117647059,4,1,0,75,0,0
63241,-71.9424460431655,4,1,0,75,0,0
63339,-70.4225352112676,4,1,0,75,0,0
63437,-68.9655172413793,4,1,0,75,0,0
63535,-67.5675675675676,4,1,0,75,0,0
63633,-66.2251655629139,4,1,0,75,0,0
63731,-64.9350649350649,4,1,0,75,0,0
63829,-63.6942675159236,4,1,0,75,0,0
63927,-62.5,4,1,0,75,0,0
64025,-61.3496932515337,4,1,0,75,0,0
64124,-60.2409638554217,4,1,0,75,0,0
64222,-59.1715976331361,4,1,0,75,0,0
64320,-57.1428571428571,4,1,0,75,0,1
76869,-57.1428571428571,4,1,0,75,0,0
77065,-66.6666666666667,4,1,0,75,0,0
77163,-68.4931506849315,4,1,0,75,0,0
77261,-71.4285714285714,4,1,0,75,0,0
77359,-73.5294117647059,4,1,0,75,0,0
77457,-75.187969924812,4,1,0,75,0,0
77555,-75.7575757575758,4,1,0,75,0,0
77653,-76.3358778625954,4,1,0,75,0,0
77751,-76.9230769230769,4,1,0,75,0,0
87751,-71.4285714285714,4,1,0,75,0,0
89614,-83.3333333333333,4,1,0,75,0,0
100398,-66.6666666666667,4,1,0,75,0,0
101967,-74.0740740740741,4,1,0,75,0,0
102261,-83.3333333333333,4,1,0,75,0,0
114516,-76.9230769230769,4,1,0,75,0,0
139222,-75.7575757575758,4,1,0,75,0,1
139271,-75.7575757575758,4,1,0,75,0,0
139320,-74.6268656716418,4,1,0,75,0,1
139369,-74.6268656716418,4,1,0,75,0,0
139418,-73.5294117647059,4,1,0,75,0,1
139467,-73.5294117647059,4,1,0,75,0,0
139516,-72.463768115942,4,1,0,75,0,1
139565,-72.463768115942,4,1,0,75,0,0
139614,-71.4285714285714,4,1,0,75,0,1
139663,-71.4285714285714,4,1,0,75,0,0
152163,-57.1428571428571,4,1,0,75,0,1
164712,-57.1428571428571,4,1,0,75,0,0
164908,-66.6666666666667,4,1,0,75,0,0
165006,-68.4931506849315,4,1,0,75,0,0
165104,-71.4285714285714,4,1,0,75,0,0
165202,-73.5294117647059,4,1,0,75,0,0
165300,-75.187969924812,4,1,0,75,0,0
165398,-75.7575757575758,4,1,0,75,0,0
165496,-76.3358778625954,4,1,0,75,0,0
165594,-76.9230769230769,4,1,0,75,0,0
175594,-66.6666666666667,4,1,0,75,0,0
177163,-25,4,1,0,75,0,0

[HitObjects]
256,192,1575,5,4,0:0:0:0:
256,192,1771,1,8,0:0:0:0:
256,192,1869,1,8,0:0:0:0:
256,192,1967,1,0,0:0:0:0:
256,192,2163,1,8,0:0:0:0:
256,192,2261,1,8,0:0:0:0:
256,192,2359,1,0,0:0:0:0:
256,192,2555,1,8,0:0:0:0:
256,192,2653,1,8,0:0:0:0:
256,192,2751,1,0,0:0:0:0:
256,192,2947,1,8,0:0:0:0:
256,192,3045,1,8,0:0:0:0:
256,192,3143,1,0,0:0:0:0:
256,192,3339,1,8,0:0:0:0:
256,192,3437,1,8,0:0:0:0:
256,192,3535,1,0,0:0:0:0:
256,192,3731,1,8,0:0:0:0:
256,192,3829,1,8,0:0:0:0:
256,192,3927,1,0,0:0:0:0:
256,192,4124,1,8,0:0:0:0:
256,192,4222,1,8,0:0:0:0:
256,192,4320,1,0,0:0:0:0:
256,192,4516,1,8,0:0:0:0:
256,192,4614,1,8,0:0:0:0:
256,192,4712,1,0,0:0:0:0:
256,192,4908,1,8,0:0:0:0:
256,192,5006,1,8,0:0:0:0:
256,192,5104,1,0,0:0:0:0:
256,192,5300,1,8,0:0:0:0:
256,192,5398,1,8,0:0:0:0:
256,192,5496,1,0,0:0:0:0:
256,192,5692,1,8,0:0:0:0:
256,192,5790,1,8,0:0:0:0:
256,192,5888,1,0,0:0:0:0:
256,192,6084,1,8,0:0:0:0:
256,192,6182,1,8,0:0:0:0:
256,192,6280,1,0,0:0:0:0:
256,192,6476,1,8,0:0:0:0:
256,192,6575,1,8,0:0:0:0:
256,192,6673,1,0,0:0:0:0:
256,192,6869,1,8,0:0:0:0:
256,192,6967,1,8,0:0:0:0:
256,192,7065,1,0,0:0:0:0:
256,192,7261,1,8,0:0:0:0:
256,192,7359,1,8,0:0:0:0:
256,192,7457,1,0,0:0:0:0:
256,192,7653,1,8,0:0:0:0:
256,192,7751,1,8,0:0:0:0:
256,192,7849,1,0,0:0:0:0:
256,192,8045,1,8,0:0:0:0:
256,192,8143,1,8,0:0:0:0:
256,192,8241,1,0,0:0:0:0:
256,192,8437,1,8,0:0:0:0:
256,192,8535,1,8,0:0:0:0:
256,192,8633,1,0,0:0:0:0:
256,192,8829,1,8,0:0:0:0:
256,192,8927,1,8,0:0:0:0:
256,192,9025,1,0,0:0:0:0:
256,192,9222,1,8,0:0:0:0:
256,192,9320,1,8,0:0:0:0:
256,192,9418,1,0,0:0:0:0:
256,192,9614,1,8,0:0:0:0:
256,192,9712,1,8,0:0:0:0:
256,192,9810,1,0,0:0:0:0:
256,192,10006,1,8,0:0:0:0:
256,192,10104,1,8,0:0:0:0:
256,192,10202,1,0,0:0:0:0:
256,192,10398,1,8,0:0:0:0:
256,192,10496,1,8,0:0:0:0:
256,192,10594,1,0,0:0:0:0:
256,192,10790,1,8,0:0:0:0:
256,192,10888,1,8,0:0:0:0:
256,192,10986,1,0,0:0:0:0:
256,192,11182,1,8,0:0:0:0:
256,192,11280,1,8,0:0:0:0:
256,192,11378,1,0,0:0:0:0:
256,192,11575,1,8,0:0:0:0:
256,192,11673,1,8,0:0:0:0:
256,192,11771,1,0,0:0:0:0:
256,192,11967,1,8,0:0:0:0:
256,192,12065,1,8,0:0:0:0:
256,192,12163,1,0,0:0:0:0:
256,192,12359,1,8,0:0:0:0:
256,192,12457,1,8,0:0:0:0:
256,192,12555,1,0,0:0:0:0:
256,192,12751,1,8,0:0:0:0:
256,192,12849,1,8,0:0:0:0:
256,192,12947,1,0,0:0:0:0:
256,192,13143,1,8,0:0:0:0:
256,192,13241,1,8,0:0:0:0:
256,192,13339,1,0,0:0:0:0:
256,192,13535,1,8,0:0:0:0:
256,192,13633,1,8,0:0:0:0:
256,192,13731,1,0,0:0:0:0:
256,192,13927,1,8,0:0:0:0:
256,192,14025,1,8,0:0:0:0:
256,192,14124,1,0,0:0:0:0:
256,192,14222,1,0,0:0:0:0:
256,192,14320,1,8,0:0:0:0:
256,192,14418,1,0,0:0:0:0:
256,192,14516,1,8,0:0:0:0:
256,192,14614,1,0,0:0:0:0:
256,192,14712,1,8,0:0:0:0:
256,192,14810,1,8,0:0:0:0:
256,192,14908,1,0,0:0:0:0:
256,192,15006,1,8,0:0:0:0:
256,192,15104,1,8,0:0:0:0:
256,192,15202,1,0,0:0:0:0:
256,192,15300,1,8,0:0:0:0:
256,192,15398,1,0,0:0:0:0:
256,192,15496,1,8,0:0:0:0:
256,192,15594,1,8,0:0:0:0:
256,192,15692,1,0,0:0:0:0:
256,192,15888,1,8,0:0:0:0:
256,192,15986,1,0,0:0:0:0:
256,192,16084,1,8,0:0:0:0:
256,192,16182,1,0,0:0:0:0:
256,192,16280,1,8,0:0:0:0:
256,192,16378,1,8,0:0:0:0:
256,192,16476,1,0,0:0:0:0:
256,192,16575,1,8,0:0:0:0:
256,192,16673,1,8,0:0:0:0:
256,192,16771,1,0,0:0:0:0:
256,192,16869,1,8,0:0:0:0:
256,192,16967,1,8,0:0:0:0:
256,192,17065,1,8,0:0:0:0:
256,192,17163,1,8,0:0:0:0:
256,192,17261,1,0,0:0:0:0:
256,192,17457,1,8,0:0:0:0:
256,192,17555,1,0,0:0:0:0:
256,192,17653,1,8,0:0:0:0:
256,192,17751,1,0,0:0:0:0:
256,192,17849,1,8,0:0:0:0:
256,192,17947,1,0,0:0:0:0:
256,192,18045,1,0,0:0:0:0:
256,192,18143,1,8,0:0:0:0:
256,192,18241,1,8,0:0:0:0:
256,192,18339,1,0,0:0:0:0:
256,192,18437,1,8,0:0:0:0:
256,192,18535,1,0,0:0:0:0:
256,192,18633,1,8,0:0:0:0:
256,192,18731,1,8,0:0:0:0:
256,192,18829,1,0,0:0:0:0:
256,192,19025,1,8,0:0:0:0:
256,192,19124,1,0,0:0:0:0:
256,192,19222,1,8,0:0:0:0:
256,192,19320,1,8,0:0:0:0:
256,192,19418,1,0,0:0:0:0:
256,192,19516,1,8,0:0:0:0:
256,192,19614,1,8,0:0:0:0:
256,192,19712,1,0,0:0:0:0:
256,192,19810,1,8,0:0:0:0:
256,192,19908,1,0,0:0:0:0:
256,192,20006,1,8,0:0:0:0:
256,192,20104,1,8,0:0:0:0:
256,192,20202,1,8,0:0:0:0:
256,192,20300,1,0,0:0:0:0:
256,192,20398,1,8,0:0:0:0:
256,192,20594,1,8,0:0:0:0:
256,192,20692,1,0,0:0:0:0:
256,192,20790,1,8,0:0:0:0:
256,192,20888,1,8,0:0:0:0:
256,192,20986,1,0,0:0:0:0:
256,192,21084,1,8,0:0:0:0:
256,192,21182,1,8,0:0:0:0:
256,192,21280,1,0,0:0:0:0:
256,192,21378,1,8,0:0:0:0:
256,192,21476,1,0,0:0:0:0:
256,192,21575,1,8,0:0:0:0:
256,192,21673,1,0,0:0:0:0:
256,192,21771,1,8,0:0:0:0:
256,192,21869,1,8,0:0:0:0:
256,192,21967,1,8,0:0:0:0:
256,192,22065,1,0,0:0:0:0:
256,192,22163,1,8,0:0:0:0:
256,192,22261,1,0,0:0:0:0:
256,192,22359,1,8,0:0:0:0:
256,192,22457,1,0,0:0:0:0:
256,192,22555,1,8,0:0:0:0:
256,192,22653,1,8,0:0:0:0:
256,192,22751,1,0,0:0:0:0:
256,192,22849,1,8,0:0:0:0:
256,192,22947,1,8,0:0:0:0:
256,192,23045,1,0,0:0:0:0:
256,192,23143,1,8,0:0:0:0:
256,192,23241,1,8,0:0:0:0:
256,192,23339,1,8,0:0:0:0:
256,192,23437,1,8,0:0:0:0:
256,192,23535,1,0,0:0:0:0:
256,192,23731,1,8,0:0:0:0:
256,192,23829,1,0,0:0:0:0:
256,192,23927,1,8,0:0:0:0:
256,192,24025,1,8,0:0:0:0:
256,192,24124,1,0,0:0:0:0:
256,192,24222,1,8,0:0:0:0:
256,192,24320,1,8,0:0:0:0:
256,192,24418,1,0,0:0:0:0:
256,192,24516,1,8,0:0:0:0:
256,192,24614,1,0,0:0:0:0:
256,192,24712,1,8,0:0:0:0:
256,192,24810,1,0,0:0:0:0:
256,192,24908,1,8,0:0:0:0:
256,192,25006,1,8,0:0:0:0:
256,192,25104,1,0,0:0:0:0:
256,192,25202,1,0,0:0:0:0:
256,192,25300,1,8,0:0:0:0:
256,192,25398,1,0,0:0:0:0:
256,192,25496,1,8,0:0:0:0:
256,192,25594,1,8,0:0:0:0:
256,192,25692,1,0,0:0:0:0:
256,192,25790,1,8,0:0:0:0:
256,192,25888,1,8,0:0:0:0:
256,192,25986,1,0,0:0:0:0:
256,192,26084,1,8,0:0:0:0:
256,192,26182,1,0,0:0:0:0:
256,192,26280,1,8,0:0:0:0:
256,192,26378,1,8,0:0:0:0:
256,192,26476,1,8,0:0:0:0:
256,192,26575,1,8,0:0:0:0:
256,192,26673,1,4,0:0:0:0:
256,192,26869,1,8,0:0:0:0:
256,192,26967,1,0,0:0:0:0:
256,192,27065,1,8,0:0:0:0:
256,192,27163,1,8,0:0:0:0:
256,192,27261,1,0,0:0:0:0:
256,192,27359,1,8,0:0:0:0:
256,192,27457,1,8,0:0:0:0:
256,192,27555,1,0,0:0:0:0:
256,192,27653,1,8,0:0:0:0:
256,192,27751,1,0,0:0:0:0:
256,192,27849,1,8,0:0:0:0:
256,192,27947,1,0,0:0:0:0:
256,192,28045,1,8,0:0:0:0:
256,192,28143,1,8,0:0:0:0:
256,192,28241,1,0,0:0:0:0:
256,192,28339,1,0,0:0:0:0:
256,192,28437,1,8,0:0:0:0:
256,192,28535,1,0,0:0:0:0:
256,192,28633,1,8,0:0:0:0:
256,192,28731,1,8,0:0:0:0:
256,192,28829,1,0,0:0:0:0:
256,192,28927,1,8,0:0:0:0:
256,192,29025,1,8,0:0:0:0:
256,192,29124,1,0,0:0:0:0:
256,192,29222,1,8,0:0:0:0:
256,192,29320,1,0,0:0:0:0:
256,192,29418,1,8,0:0:0:0:
256,192,29516,1,0,0:0:0:0:
256,192,29614,1,8,0:0:0:0:
256,192,29712,1,8,0:0:0:0:
256,192,29810,1,0,0:0:0:0:
256,192,29908,1,0,0:0:0:0:
256,192,30006,1,8,0:0:0:0:
256,192,30104,1,0,0:0:0:0:
256,192,30202,1,8,0:0:0:0:
256,192,30300,1,8,0:0:0:0:
256,192,30398,1,0,0:0:0:0:
256,192,30496,1,8,0:0:0:0:
256,192,30594,1,8,0:0:0:0:
256,192,30692,1,0,0:0:0:0:
256,192,30790,1,8,0:0:0:0:
256,192,30888,1,0,0:0:0:0:
256,192,30986,1,8,0:0:0:0:
256,192,31084,1,0,0:0:0:0:
256,192,31182,1,8,0:0:0:0:
256,192,31280,1,8,0:0:0:0:
256,192,31378,1,0,0:0:0:0:
256,192,31476,1,0,0:0:0:0:
256,192,31575,1,8,0:0:0:0:
256,192,31673,1,0,0:0:0:0:
256,192,31771,1,8,0:0:0:0:
256,192,31869,1,8,0:0:0:0:
256,192,31967,1,0,0:0:0:0:
256,192,32065,1,8,0:0:0:0:
256,192,32163,1,8,0:0:0:0:
256,192,32261,1,0,0:0:0:0:
256,192,32359,1,8,0:0:0:0:
256,192,32457,1,8,0:0:0:0:
256,192,32555,1,0,0:0:0:0:
256,192,32653,1,0,0:0:0:0:
256,192,32751,1,8,0:0:0:0:
256,192,32849,1,8,0:0:0:0:
256,192,32947,1,0,0:0:0:0:
256,192,33143,1,8,0:0:0:0:
256,192,33241,1,0,0:0:0:0:
256,192,33339,1,8,0:0:0:0:
256,192,33437,1,8,0:0:0:0:
256,192,33535,1,0,0:0:0:0:
256,192,33633,1,8,0:0:0:0:
256,192,33731,1,8,0:0:0:0:
256,192,33829,1,0,0:0:0:0:
256,192,33927,1,8,0:0:0:0:
256,192,34025,1,0,0:0:0:0:
256,192,34124,1,8,0:0:0:0:
256,192,34222,1,0,0:0:0:0:
256,192,34320,1,8,0:0:0:0:
256,192,34418,1,8,0:0:0:0:
256,192,34516,1,0,0:0:0:0:
256,192,34614,1,0,0:0:0:0:
256,192,34712,1,8,0:0:0:0:
256,192,34810,1,0,0:0:0:0:
256,192,34908,1,8,0:0:0:0:
256,192,35006,1,8,0:0:0:0:
256,192,35104,1,0,0:0:0:0:
256,192,35202,1,8,0:0:0:0:
256,192,35300,1,0,0:0:0:0:
256,192,35398,1,0,0:0:0:0:
256,192,35496,1,8,0:0:0:0:
256,192,35594,1,0,0:0:0:0:
256,192,35692,1,8,0:0:0:0:
256,192,35790,1,0,0:0:0:0:
256,192,35888,1,8,0:0:0:0:
256,192,35986,1,8,0:0:0:0:
256,192,36084,1,0,0:0:0:0:
256,192,36182,1,0,0:0:0:0:
256,192,36280,1,8,0:0:0:0:
256,192,36378,1,0,0:0:0:0:
256,192,36476,1,8,0:0:0:0:
256,192,36575,1,8,0:0:0:0:
256,192,36673,1,0,0:0:0:0:
256,192,36771,1,8,0:0:0:0:
256,192,36869,1,8,0:0:0:0:
256,192,36967,1,0,0:0:0:0:
256,192,37065,1,8,0:0:0:0:
256,192,37163,1,0,0:0:0:0:
256,192,37261,1,8,0:0:0:0:
256,192,37359,1,0,0:0:0:0:
256,192,37457,1,8,0:0:0:0:
256,192,37555,1,8,0:0:0:0:
256,192,37653,1,0,0:0:0:0:
256,192,37849,1,8,0:0:0:0:
256,192,37947,1,0,0:0:0:0:
256,192,38045,1,8,0:0:0:0:
256,192,38143,1,0,0:0:0:0:
256,192,38241,1,0,0:0:0:0:
256,192,38339,1,8,0:0:0:0:
256,192,38437,1,0,0:0:0:0:
256,192,38535,1,0,0:0:0:0:
256,192,38633,1,8,0:0:0:0:
256,192,38829,1,0,0:0:0:0:
256,192,38927,1,0,0:0:0:0:
256,192,39025,1,8,0:0:0:0:
256,192,39124,1,0,0:0:0:0:
256,192,39222,1,8,0:0:0:0:
256,192,39320,1,0,0:0:0:0:
256,192,39418,1,8,0:0:0:0:
256,192,39516,1,0,0:0:0:0:
256,192,39565,1,0,0:0:0:0:
256,192,39614,1,8,0:0:0:0:
256,192,39712,1,8,0:0:0:0:
256,192,39810,1,0,0:0:0:0:
256,192,39908,1,8,0:0:0:0:
256,192,39957,1,8,0:0:0:0:
256,192,40006,1,8,0:0:0:0:
256,192,40104,1,0,0:0:0:0:
256,192,40202,1,8,0:0:0:0:
256,192,40300,1,8,0:0:0:0:
256,192,40398,1,0,0:0:0:0:
256,192,40496,1,0,0:0:0:0:
256,192,40545,1,0,0:0:0:0:
256,192,40594,1,8,0:0:0:0:
256,192,40692,1,8,0:0:0:0:
256,192,40790,1,0,0:0:0:0:
256,192,40888,1,0,0:0:0:0:
256,192,40986,1,8,0:0:0:0:
256,192,41035,1,8,0:0:0:0:
256,192,41084,1,0,0:0:0:0:
256,192,41133,1,0,0:0:0:0:
256,192,41182,1,8,0:0:0:0:
256,192,41280,1,8,0:0:0:0:
256,192,41378,1,0,0:0:0:0:
256,192,41476,1,8,0:0:0:0:
256,192,41575,1,8,0:0:0:0:
256,192,41673,1,0,0:0:0:0:
256,192,41722,1,0,0:0:0:0:
256,192,41771,1,8,0:0:0:0:
256,192,41869,1,8,0:0:0:0:
256,192,41967,1,0,0:0:0:0:
256,192,42065,1,0,0:0:0:0:
256,192,42163,1,8,0:0:0:0:
256,192,42261,1,8,0:0:0:0:
256,192,42310,1,8,0:0:0:0:
256,192,42359,1,0,0:0:0:0:
256,192,42457,1,0,0:0:0:0:
256,192,42555,1,8,0:0:0:0:
256,192,42653,1,0,0:0:0:0:
256,192,42751,1,8,0:0:0:0:
256,192,42800,1,8,0:0:0:0:
256,192,42849,1,8,0:0:0:0:
256,192,42947,1,0,0:0:0:0:
256,192,43045,1,8,0:0:0:0:
256,192,43143,1,8,0:0:0:0:
256,192,43241,1,0,0:0:0:0:
256,192,43290,1,0,0:0:0:0:
256,192,43339,1,8,0:0:0:0:
256,192,43437,1,8,0:0:0:0:
256,192,43535,1,0,0:0:0:0:
256,192,43633,1,0,0:0:0:0:
256,192,43731,1,8,0:0:0:0:
256,192,43829,1,8,0:0:0:0:
256,192,43878,1,8,0:0:0:0:
256,192,43927,1,0,0:0:0:0:
256,192,44025,1,0,0:0:0:0:
256,192,44124,1,8,0:0:0:0:
256,192,44222,1,0,0:0:0:0:
256,192,44320,1,8,0:0:0:0:
256,192,44418,1,8,0:0:0:0:
256,192,44516,1,0,0:0:0:0:
256,192,44565,1,0,0:0:0:0:
256,192,44614,1,8,0:0:0:0:
256,192,44712,1,8,0:0:0:0:
256,192,44810,1,0,0:0:0:0:
256,192,44908,1,8,0:0:0:0:
256,192,44957,1,8,0:0:0:0:
256,192,45006,1,8,0:0:0:0:
256,192,45104,1,0,0:0:0:0:
256,192,45202,1,0,0:0:0:0:
256,192,45300,1,8,0:0:0:0:
256,192,45398,1,8,0:0:0:0:
256,192,45447,1,8,0:0:0:0:
256,192,45496,1,0,0:0:0:0:
256,192,45594,1,0,0:0:0:0:
256,192,45692,1,8,0:0:0:0:
256,192,45741,1,8,0:0:0:0:
256,192,45790,1,0,0:0:0:0:
256,192,45839,1,0,0:0:0:0:
256,192,45888,1,8,0:0:0:0:
256,192,45986,1,8,0:0:0:0:
256,192,46084,1,0,0:0:0:0:
256,192,46182,1,8,0:0:0:0:
256,192,46231,1,8,0:0:0:0:
256,192,46280,1,8,0:0:0:0:
256,192,46378,1,0,0:0:0:0:
256,192,46476,1,8,0:0:0:0:
256,192,46575,1,8,0:0:0:0:
256,192,46673,1,0,0:0:0:0:
256,192,46771,1,0,0:0:0:0:
256,192,46869,1,8,0:0:0:0:
256,192,46967,1,8,0:0:0:0:
256,192,47016,1,8,0:0:0:0:
256,192,47065,1,0,0:0:0:0:
256,192,47163,1,0,0:0:0:0:
256,192,47261,1,8,0:0:0:0:
256,192,47359,1,0,0:0:0:0:
256,192,47408,1,0,0:0:0:0:
256,192,47457,1,8,0:0:0:0:
256,192,47555,1,8,0:0:0:0:
256,192,47653,1,0,0:0:0:0:
256,192,47702,1,0,0:0:0:0:
256,192,47751,1,8,0:0:0:0:
256,192,47849,1,8,0:0:0:0:
256,192,47947,1,0,0:0:0:0:
256,192,48045,1,8,0:0:0:0:
256,192,48094,1,8,0:0:0:0:
256,192,48143,1,8,0:0:0:0:
256,192,48241,1,0,0:0:0:0:
256,192,48339,1,0,0:0:0:0:
256,192,48437,1,8,0:0:0:0:
256,192,48535,1,8,0:0:0:0:
256,192,48584,1,8,0:0:0:0:
256,192,48633,1,0,0:0:0:0:
256,192,48731,1,0,0:0:0:0:
256,192,48829,1,8,0:0:0:0:
256,192,48878,1,8,0:0:0:0:
256,192,48927,1,0,0:0:0:0:
256,192,48976,1,0,0:0:0:0:
256,192,49025,1,8,0:0:0:0:
256,192,49124,1,8,0:0:0:0:
256,192,49222,1,0,0:0:0:0:
256,192,49320,1,8,0:0:0:0:
256,192,49418,1,8,0:0:0:0:
256,192,49467,1,8,0:0:0:0:
256,192,49516,1,0,0:0:0:0:
256,192,49614,1,8,0:0:0:0:
256,192,49712,1,8,0:0:0:0:
256,192,49810,1,0,0:0:0:0:
256,192,49859,1,0,0:0:0:0:
256,192,49908,1,0,0:0:0:0:
256,192,50006,1,8,0:0:0:0:
256,192,50104,1,8,0:0:0:0:
256,192,50153,1,8,0:0:0:0:
256,192,50202,1,0,0:0:0:0:
256,192,50300,1,0,0:0:0:0:
256,192,50398,1,8,0:0:0:0:
256,192,50496,1,0,0:0:0:0:
256,192,50545,1,0,0:0:0:0:
256,192,50594,1,8,0:0:0:0:
256,192,50692,1,8,0:0:0:0:
256,192,50790,1,0,0:0:0:0:
256,192,50888,1,8,0:0:0:0:
256,192,50937,1,8,0:0:0:0:
256,192,50986,1,8,0:0:0:0:
256,192,51084,1,0,0:0:0:0:
256,192,51182,1,8,0:0:0:0:
256,192,51280,1,8,0:0:0:0:
256,192,51378,1,0,0:0:0:0:
256,192,51427,1,0,0:0:0:0:
256,192,51476,1,0,0:0:0:0:
256,192,51525,1,0,0:0:0:0:
256,192,51575,1,0,0:0:0:0:
256,192,51624,1,0,0:0:0:0:
256,192,51673,1,0,0:0:0:0:
256,192,51722,1,0,0:0:0:0:
256,192,51771,1,8,0:0:0:0:
256,192,51869,1,0,0:0:0:0:
256,192,51967,1,8,0:0:0:0:
256,192,52065,1,0,0:0:0:0:
256,192,52163,1,8,0:0:0:0:
256,192,52261,1,8,0:0:0:0:
256,192,52359,1,0,0:0:0:0:
256,192,52457,1,8,0:0:0:0:
256,192,52555,1,0,0:0:0:0:
256,192,52653,1,8,0:0:0:0:
256,192,52751,1,8,0:0:0:0:
256,192,52849,1,0,0:0:0:0:
256,192,52947,1,8,0:0:0:0:
256,192,53045,1,8,0:0:0:0:
256,192,53143,1,8,0:0:0:0:
256,192,53241,1,0,0:0:0:0:
256,192,53339,1,0,0:0:0:0:
256,192,53437,1,0,0:0:0:0:
256,192,53535,1,8,0:0:0:0:
256,192,53633,1,8,0:0:0:0:
256,192,53731,1,0,0:0:0:0:
256,192,53829,1,0,0:0:0:0:
256,192,53927,1,8,0:0:0:0:
256,192,54025,1,8,0:0:0:0:
256,192,54124,1,0,0:0:0:0:
256,192,54222,1,0,0:0:0:0:
256,192,54320,1,8,0:0:0:0:
256,192,54418,1,8,0:0:0:0:
256,192,54516,1,0,0:0:0:0:
256,192,54614,1,8,0:0:0:0:
256,192,54712,1,8,0:0:0:0:
256,192,54810,1,8,0:0:0:0:
256,192,54908,1,0,0:0:0:0:
256,192,55104,1,8,0:0:0:0:
256,192,55202,1,0,0:0:0:0:
256,192,55300,1,8,0:0:0:0:
256,192,55398,1,8,0:0:0:0:
256,192,55496,1,0,0:0:0:0:
256,192,55594,1,8,0:0:0:0:
256,192,55692,1,0,0:0:0:0:
256,192,55790,1,8,0:0:0:0:
256,192,55888,1,8,0:0:0:0:
256,192,55986,1,0,0:0:0:0:
256,192,56084,1,8,0:0:0:0:
256,192,56182,1,8,0:0:0:0:
256,192,56280,1,8,0:0:0:0:
256,192,56378,1,0,0:0:0:0:
256,192,56476,1,0,0:0:0:0:
256,192,56575,1,0,0:0:0:0:
256,192,56673,1,8,0:0:0:0:
256,192,56771,1,8,0:0:0:0:
256,192,56869,1,0,0:0:0:0:
256,192,56967,1,0,0:0:0:0:
256,192,57065,1,8,0:0:0:0:
256,192,57163,1,8,0:0:0:0:
256,192,57261,1,0,0:0:0:0:
256,192,57359,1,0,0:0:0:0:
256,192,57457,1,8,0:0:0:0:
256,192,57555,1,8,0:0:0:0:
256,192,57653,1,0,0:0:0:0:
256,192,57751,1,8,0:0:0:0:
256,192,57849,1,8,0:0:0:0:
256,192,57947,1,8,0:0:0:0:
256,192,58045,1,0,0:0:0:0:
256,192,58241,1,8,0:0:0:0:
256,192,58339,1,0,0:0:0:0:
256,192,58437,1,8,0:0:0:0:
256,192,58535,1,8,0:0:0:0:
256,192,58633,1,0,0:0:0:0:
256,192,58731,1,8,0:0:0:0:
256,192,58829,1,0,0:0:0:0:
256,192,58927,1,8,0:0:0:0:
256,192,59025,1,8,0:0:0:0:
256,192,59124,1,0,0:0:0:0:
256,192,59222,1,8,0:0:0:0:
256,192,59320,1,8,0:0:0:0:
256,192,59418,1,8,0:0:0:0:
256,192,59516,1,0,0:0:0:0:
256,192,59614,1,0,0:0:0:0:
256,192,59712,1,0,0:0:0:0:
256,192,59810,1,8,0:0:0:0:
256,192,59908,1,8,0:0:0:0:
256,192,60006,1,0,0:0:0:0:
256,192,60104,1,0,0:0:0:0:
256,192,60202,1,8,0:0:0:0:
256,192,60300,1,8,0:0:0:0:
256,192,60398,1,0,0:0:0:0:
256,192,60496,1,0,0:0:0:0:
256,192,60594,1,8,0:0:0:0:
256,192,60692,1,8,0:0:0:0:
256,192,60790,1,0,0:0:0:0:
256,192,60888,1,8,0:0:0:0:
256,192,60986,1,8,0:0:0:0:
256,192,61084,1,8,0:0:0:0:
256,192,61182,1,0,0:0:0:0:
256,192,61378,1,8,0:0:0:0:
256,192,61476,1,0,0:0:0:0:
256,192,61575,1,8,0:0:0:0:
256,192,61673,1,0,0:0:0:0:
256,192,61771,1,8,0:0:0:0:
256,192,61869,1,8,0:0:0:0:
256,192,61967,1,0,0:0:0:0:
256,192,62065,1,8,0:0:0:0:
256,192,62163,1,8,0:0:0:0:
256,192,62261,1,0,0:0:0:0:
256,192,62359,1,8,0:0:0:0:
256,192,62457,1,8,0:0:0:0:
256,192,62555,1,8,0:0:0:0:
256,192,62653,1,0,0:0:0:0:
256,192,62751,1,0,0:0:0:0:
256,192,62849,1,0,0:0:0:0:
256,192,62947,1,0,0:0:0:0:
256,192,63045,1,8,0:0:0:0:
256,192,63143,1,8,0:0:0:0:
256,192,63241,1,0,0:0:0:0:
256,192,63339,1,8,0:0:0:0:
256,192,63437,1,0,0:0:0:0:
256,192,63535,1,8,0:0:0:0:
256,192,63633,1,8,0:0:0:0:
256,192,63731,1,8,0:0:0:0:
256,192,63829,1,0,0:0:0:0:
256,192,63927,1,8,0:0:0:0:
256,192,64025,1,8,0:0:0:0:
256,192,64124,1,8,0:0:0:0:
256,192,64222,1,8,0:0:0:0:
256,192,64320,1,0,0:0:0:0:
256,192,64369,1,0,0:0:0:0:
256,192,64418,1,0,0:0:0:0:
256,192,64516,1,8,0:0:0:0:
256,192,64565,1,8,0:0:0:0:
256,192,64614,1,0,0:0:0:0:
256,192,64663,1,0,0:0:0:0:
256,192,64712,1,8,0:0:0:0:
256,192,64810,1,0,0:0:0:0:
256,192,64908,1,8,0:0:0:0:
256,192,64957,1,0,0:0:0:0:
256,192,65006,1,8,0:0:0:0:
256,192,65104,1,8,0:0:0:0:
256,192,65202,1,0,0:0:0:0:
256,192,65300,1,8,0:0:0:0:
256,192,65349,1,8,0:0:0:0:
256,192,65398,1,0,0:0:0:0:
256,192,65447,1,0,0:0:0:0:
256,192,65496,1,8,0:0:0:0:
256,192,65594,1,8,0:0:0:0:
256,192,65692,1,8,0:0:0:0:
256,192,65790,1,0,0:0:0:0:
256,192,65839,1,0,0:0:0:0:
256,192,65888,1,0,0:0:0:0:
256,192,65937,1,0,0:0:0:0:
256,192,65986,1,0,0:0:0:0:
256,192,66035,1,0,0:0:0:0:
256,192,66084,1,0,0:0:0:0:
256,192,66133,1,0,0:0:0:0:
256,192,66182,1,8,0:0:0:0:
256,192,66280,1,0,0:0:0:0:
256,192,66329,1,0,0:0:0:0:
256,192,66378,1,8,0:0:0:0:
256,192,66476,1,8,0:0:0:0:
256,192,66575,1,0,0:0:0:0:
256,192,66673,1,8,0:0:0:0:
256,192,66722,1,8,0:0:0:0:
256,192,66771,1,0,0:0:0:0:
256,192,66820,1,0,0:0:0:0:
256,192,66869,1,8,0:0:0:0:
256,192,66918,1,0,0:0:0:0:
256,192,66967,1,8,0:0:0:0:
256,192,67016,1,8,0:0:0:0:
256,192,67065,1,0,0:0:0:0:
256,192,67114,1,0,0:0:0:0:
256,192,67163,1,8,0:0:0:0:
256,192,67212,1,0,0:0:0:0:
256,192,67261,1,8,0:0:0:0:
256,192,67310,1,0,0:0:0:0:
256,192,67359,1,8,0:0:0:0:
256,192,67408,1,8,0:0:0:0:
256,192,67457,1,0,0:0:0:0:
256,192,67555,1,0,0:0:0:0:
256,192,67604,1,0,0:0:0:0:
256,192,67653,1,8,0:0:0:0:
256,192,67751,1,8,0:0:0:0:
256,192,67849,1,8,0:0:0:0:
256,192,67898,1,8,0:0:0:0:
256,192,67947,1,0,0:0:0:0:
256,192,68045,1,8,0:0:0:0:
256,192,68094,1,8,0:0:0:0:
256,192,68143,1,0,0:0:0:0:
256,192,68192,1,0,0:0:0:0:
256,192,68241,1,8,0:0:0:0:
256,192,68339,1,8,0:0:0:0:
256,192,68437,1,0,0:0:0:0:
256,192,68535,1,0,0:0:0:0:
256,192,68584,1,0,0:0:0:0:
256,192,68633,1,8,0:0:0:0:
256,192,68731,1,8,0:0:0:0:
256,192,68829,1,8,0:0:0:0:
256,192,68927,1,0,0:0:0:0:
256,192,68976,1,0,0:0:0:0:
256,192,69025,1,0,0:0:0:0:
256,192,69075,1,0,0:0:0:0:
256,192,69124,1,0,0:0:0:0:
256,192,69173,1,0,0:0:0:0:
256,192,69222,1,0,0:0:0:0:
256,192,69271,1,0,0:0:0:0:
256,192,69320,1,8,0:0:0:0:
256,192,69418,1,8,0:0:0:0:
256,192,69516,1,0,0:0:0:0:
256,192,69565,1,0,0:0:0:0:
256,192,69614,1,8,0:0:0:0:
256,192,69663,1,8,0:0:0:0:
256,192,69712,1,0,0:0:0:0:
256,192,69761,1,0,0:0:0:0:
256,192,69810,1,8,0:0:0:0:
256,192,69908,1,8,0:0:0:0:
256,192,69957,1,8,0:0:0:0:
256,192,70006,1,0,0:0:0:0:
256,192,70055,1,0,0:0:0:0:
256,192,70104,1,8,0:0:0:0:
256,192,70153,1,0,0:0:0:0:
256,192,70202,1,8,0:0:0:0:
256,192,70251,1,8,0:0:0:0:
256,192,70300,1,0,0:0:0:0:
256,192,70349,1,0,0:0:0:0:
256,192,70398,1,8,0:0:0:0:
256,192,70447,1,0,0:0:0:0:
256,192,70496,1,8,0:0:0:0:
256,192,70545,1,8,0:0:0:0:
256,192,70594,1,0,0:0:0:0:
256,192,70692,1,0,0:0:0:0:
256,192,70790,1,8,0:0:0:0:
256,192,70888,1,0,0:0:0:0:
256,192,70937,1,0,0:0:0:0:
256,192,70986,1,8,0:0:0:0:
256,192,71084,1,8,0:0:0:0:
256,192,71182,1,8,0:0:0:0:
256,192,71231,1,0,0:0:0:0:
256,192,71280,1,8,0:0:0:0:
256,192,71329,1,8,0:0:0:0:
256,192,71378,1,0,0:0:0:0:
256,192,71427,1,0,0:0:0:0:
256,192,71476,1,8,0:0:0:0:
256,192,71525,1,8,0:0:0:0:
256,192,71575,1,0,0:0:0:0:
256,192,71673,1,0,0:0:0:0:
256,192,71722,1,0,0:0:0:0:
256,192,71771,1,8,0:0:0:0:
256,192,71869,1,8,0:0:0:0:
256,192,71967,1,8,0:0:0:0:
256,192,72065,1,0,0:0:0:0:
256,192,72114,1,0,0:0:0:0:
256,192,72163,1,0,0:0:0:0:
256,192,72212,1,0,0:0:0:0:
256,192,72261,1,0,0:0:0:0:
256,192,72310,1,0,0:0:0:0:
256,192,72359,1,0,0:0:0:0:
256,192,72408,1,0,0:0:0:0:
256,192,72457,1,8,0:0:0:0:
256,192,72555,1,8,0:0:0:0:
256,192,72604,1,0,0:0:0:0:
256,192,72653,1,8,0:0:0:0:
256,192,72702,1,8,0:0:0:0:
256,192,72751,1,0,0:0:0:0:
256,192,72800,1,0,0:0:0:0:
256,192,72849,1,8,0:0:0:0:
256,192,72898,1,8,0:0:0:0:
256,192,72947,1,0,0:0:0:0:
256,192,72996,1,0,0:0:0:0:
256,192,73045,1,8,0:0:0:0:
256,192,73094,1,0,0:0:0:0:
256,192,73143,1,8,0:0:0:0:
256,192,73192,1,0,0:0:0:0:
256,192,73241,1,8,0:0:0:0:
256,192,73290,1,8,0:0:0:0:
256,192,73339,1,0,0:0:0:0:
256,192,73388,1,0,0:0:0:0:
256,192,73437,1,8,0:0:0:0:
256,192,73486,1,0,0:0:0:0:
256,192,73535,1,8,0:0:0:0:
256,192,73584,1,0,0:0:0:0:
256,192,73633,1,8,0:0:0:0:
256,192,73682,1,8,0:0:0:0:
256,192,73731,1,0,0:0:0:0:
256,192,73829,1,0,0:0:0:0:
256,192,73927,1,8,0:0:0:0:
256,192,73976,1,8,0:0:0:0:
256,192,74025,1,0,0:0:0:0:
256,192,74075,1,0,0:0:0:0:
256,192,74124,1,8,0:0:0:0:
256,192,74173,1,8,0:0:0:0:
256,192,74222,1,0,0:0:0:0:
256,192,74271,1,0,0:0:0:0:
256,192,74320,1,8,0:0:0:0:
256,192,74369,1,8,0:0:0:0:
256,192,74418,1,0,0:0:0:0:
256,192,74467,1,0,0:0:0:0:
256,192,74516,1,8,0:0:0:0:
256,192,74565,1,0,0:0:0:0:
256,192,74614,1,8,0:0:0:0:
256,192,74663,1,0,0:0:0:0:
256,192,74712,1,8,0:0:0:0:
256,192,74761,1,8,0:0:0:0:
256,192,74810,1,0,0:0:0:0:
256,192,74859,1,0,0:0:0:0:
256,192,74908,1,8,0:0:0:0:
256,192,75006,1,8,0:0:0:0:
256,192,75104,1,8,0:0:0:0:
256,192,75202,1,0,0:0:0:0:
256,192,75251,1,0,0:0:0:0:
256,192,75300,1,0,0:0:0:0:
256,192,75349,1,0,0:0:0:0:
256,192,75398,1,0,0:0:0:0:
256,192,75447,1,0,0:0:0:0:
256,192,75496,1,0,0:0:0:0:
256,192,75545,1,0,0:0:0:0:
256,192,75594,1,8,0:0:0:0:
256,192,75643,1,0,0:0:0:0:
256,192,75692,1,8,0:0:0:0:
256,192,75741,1,8,0:0:0:0:
256,192,75790,1,0,0:0:0:0:
256,192,75839,1,0,0:0:0:0:
256,192,75888,1,8,0:0:0:0:
256,192,75937,1,8,0:0:0:0:
256,192,75986,1,0,0:0:0:0:
256,192,76035,1,0,0:0:0:0:
256,192,76084,1,8,0:0:0:0:
256,192,76133,1,0,0:0:0:0:
256,192,76182,1,8,0:0:0:0:
256,192,76231,1,8,0:0:0:0:
256,192,76280,1,0,0:0:0:0:
256,192,76329,1,0,0:0:0:0:
256,192,76378,1,8,0:0:0:0:
256,192,76427,1,8,0:0:0:0:
256,192,76476,1,0,0:0:0:0:
256,192,76525,1,0,0:0:0:0:
256,192,76575,1,8,0:0:0:0:
256,192,76624,1,0,0:0:0:0:
256,192,76673,1,8,0:0:0:0:
256,192,76722,1,8,0:0:0:0:
256,192,76771,1,0,0:0:0:0:
256,192,76820,1,0,0:0:0:0:
256,192,76869,1,12,0:0:0:0:
256,192,77065,1,8,0:0:0:0:
256,192,77163,1,8,0:0:0:0:
256,192,77261,1,8,0:0:0:0:
256,192,77359,1,0,0:0:0:0:
256,192,77457,1,8,0:0:0:0:
256,192,77555,1,0,0:0:0:0:
256,192,77653,1,8,0:0:0:0:
256,192,77751,1,8,0:0:0:0:
256,192,77849,1,0,0:0:0:0:
256,192,77947,1,0,0:0:0:0:
256,192,78045,1,8,0:0:0:0:
256,192,78143,1,8,0:0:0:0:
256,192,78241,1,8,0:0:0:0:
256,192,78339,1,0,0:0:0:0:
256,192,78437,1,0,0:0:0:0:
256,192,78535,1,0,0:0:0:0:
256,192,78633,1,0,0:0:0:0:
256,192,78731,1,8,0:0:0:0:
256,192,78829,1,8,0:0:0:0:
256,192,78927,1,0,0:0:0:0:
256,192,79025,1,8,0:0:0:0:
256,192,79124,1,0,0:0:0:0:
256,192,79222,1,8,0:0:0:0:
256,192,79320,1,8,0:0:0:0:
256,192,79418,1,8,0:0:0:0:
256,192,79516,1,0,0:0:0:0:
256,192,79614,1,8,0:0:0:0:
256,192,79712,1,8,0:0:0:0:
256,192,79810,1,8,0:0:0:0:
256,192,79908,1,8,0:0:0:0:
256,192,80006,1,0,0:0:0:0:
256,192,80104,1,0,0:0:0:0:
256,192,80202,1,8,0:0:0:0:
256,192,80300,1,8,0:0:0:0:
256,192,80398,1,8,0:0:0:0:
256,192,80496,1,0,0:0:0:0:
256,192,80594,1,8,0:0:0:0:
256,192,80692,1,0,0:0:0:0:
256,192,80790,1,8,0:0:0:0:
256,192,80888,1,8,0:0:0:0:
256,192,80986,1,0,0:0:0:0:
256,192,81084,1,0,0:0:0:0:
256,192,81182,1,8,0:0:0:0:
256,192,81280,1,8,0:0:0:0:
256,192,81378,1,8,0:0:0:0:
256,192,81476,1,0,0:0:0:0:
256,192,81575,1,0,0:0:0:0:
256,192,81673,1,0,0:0:0:0:
256,192,81771,1,0,0:0:0:0:
256,192,81869,1,8,0:0:0:0:
256,192,81967,1,8,0:0:0:0:
256,192,82065,1,0,0:0:0:0:
256,192,82163,1,8,0:0:0:0:
256,192,82261,1,0,0:0:0:0:
256,192,82359,1,8,0:0:0:0:
256,192,82457,1,8,0:0:0:0:
256,192,82555,1,8,0:0:0:0:
256,192,82653,1,0,0:0:0:0:
256,192,82751,1,8,0:0:0:0:
256,192,82849,1,8,0:0:0:0:
256,192,82947,1,8,0:0:0:0:
256,192,83045,1,8,0:0:0:0:
256,192,83143,1,0,0:0:0:0:
256,192,83241,1,0,0:0:0:0:
256,192,83339,1,8,0:0:0:0:
256,192,83437,1,8,0:0:0:0:
256,192,83535,1,8,0:0:0:0:
256,192,83633,1,0,0:0:0:0:
256,192,83731,1,8,0:0:0:0:
256,192,83829,1,0,0:0:0:0:
256,192,83927,1,8,0:0:0:0:
256,192,84025,1,8,0:0:0:0:
256,192,84124,1,0,0:0:0:0:
256,192,84222,1,0,0:0:0:0:
256,192,84320,1,8,0:0:0:0:
256,192,84418,1,8,0:0:0:0:
256,192,84516,1,8,0:0:0:0:
256,192,84614,1,0,0:0:0:0:
256,192,84712,1,0,0:0:0:0:
256,192,84810,1,0,0:0:0:0:
256,192,84908,1,0,0:0:0:0:
256,192,85006,1,8,0:0:0:0:
256,192,85104,1,8,0:0:0:0:
256,192,85202,1,0,0:0:0:0:
256,192,85300,1,8,0:0:0:0:
256,192,85398,1,0,0:0:0:0:
256,192,85496,1,8,0:0:0:0:
256,192,85594,1,8,0:0:0:0:
256,192,85692,1,8,0:0:0:0:
256,192,85790,1,0,0:0:0:0:
256,192,85888,1,8,0:0:0:0:
256,192,85986,1,8,0:0:0:0:
256,192,86084,1,8,0:0:0:0:
256,192,86182,1,8,0:0:0:0:
256,192,86280,1,0,0:0:0:0:
256,192,86378,1,0,0:0:0:0:
256,192,86476,1,8,0:0:0:0:
256,192,86575,1,8,0:0:0:0:
256,192,86673,1,8,0:0:0:0:
256,192,86771,1,0,0:0:0:0:
256,192,86869,1,8,0:0:0:0:
256,192,86967,1,0,0:0:0:0:
256,192,87065,1,8,0:0:0:0:
256,192,87163,1,8,0:0:0:0:
256,192,87261,1,0,0:0:0:0:
256,192,87359,1,0,0:0:0:0:
256,192,87457,1,8,0:0:0:0:
256,192,87555,1,8,0:0:0:0:
256,192,87653,1,8,0:0:0:0:
256,192,87751,1,0,0:0:0:0:
256,192,87800,1,0,0:0:0:0:
256,192,87849,1,0,0:0:0:0:
256,192,87898,1,0,0:0:0:0:
256,192,87947,1,0,0:0:0:0:
256,192,87996,1,0,0:0:0:0:
256,192,88045,1,0,0:0:0:0:
256,192,88094,1,0,0:0:0:0:
256,192,88143,1,8,0:0:0:0:
256,192,88192,1,8,0:0:0:0:
256,192,88241,1,0,0:0:0:0:
256,192,88290,1,0,0:0:0:0:
256,192,88339,1,8,0:0:0:0:
256,192,88388,1,0,0:0:0:0:
256,192,88437,1,8,0:0:0:0:
256,192,88486,1,8,0:0:0:0:
256,192,88535,1,0,0:0:0:0:
256,192,88584,1,0,0:0:0:0:
256,192,88633,1,8,0:0:0:0:
256,192,88682,1,0,0:0:0:0:
256,192,88731,1,8,0:0:0:0:
256,192,88780,1,0,0:0:0:0:
256,192,88829,1,8,0:0:0:0:
256,192,88878,1,8,0:0:0:0:
256,192,88927,1,0,0:0:0:0:
256,192,88976,1,0,0:0:0:0:
256,192,89025,1,8,0:0:0:0:
256,192,89075,1,0,0:0:0:0:
256,192,89124,1,8,0:0:0:0:
256,192,89173,1,8,0:0:0:0:
256,192,89222,1,0,0:0:0:0:
256,192,89271,1,0,0:0:0:0:
256,192,89320,1,8,0:0:0:0:
256,192,89614,1,8,0:0:0:0:
256,192,89712,1,0,0:0:0:0:
256,192,89810,1,8,0:0:0:0:
256,192,89908,1,8,0:0:0:0:
256,192,90006,1,0,0:0:0:0:
256,192,90104,1,0,0:0:0:0:
256,192,90202,1,8,0:0:0:0:
256,192,90300,1,0,0:0:0:0:
256,192,90398,1,0,0:0:0:0:
256,192,90496,1,8,0:0:0:0:
256,192,90594,1,0,0:0:0:0:
256,192,90692,1,0,0:0:0:0:
256,192,90790,1,8,0:0:0:0:
256,192,90888,1,8,0:0:0:0:
256,192,90986,1,0,0:0:0:0:
256,192,91084,1,0,0:0:0:0:
256,192,91182,1,8,0:0:0:0:
256,192,91280,1,0,0:0:0:0:
256,192,91378,1,8,0:0:0:0:
256,192,91476,1,8,0:0:0:0:
256,192,91575,1,0,0:0:0:0:
256,192,91673,1,0,0:0:0:0:
256,192,91771,1,8,0:0:0:0:
256,192,91869,1,0,0:0:0:0:
256,192,91967,1,0,0:0:0:0:
256,192,92065,1,8,0:0:0:0:
256,192,92163,1,0,0:0:0:0:
256,192,92261,1,0,0:0:0:0:
256,192,92359,1,8,0:0:0:0:
256,192,92457,1,8,0:0:0:0:
256,192,92555,1,0,0:0:0:0:
256,192,92653,1,0,0:0:0:0:
256,192,92751,1,8,0:0:0:0:
256,192,92849,1,0,0:0:0:0:
256,192,92947,1,0,0:0:0:0:
256,192,93045,1,8,0:0:0:0:
256,192,93143,1,0,0:0:0:0:
256,192,93241,1,0,0:0:0:0:
256,192,93339,1,8,0:0:0:0:
256,192,93437,1,0,0:0:0:0:
256,192,93535,1,0,0:0:0:0:
256,192,93633,1,8,0:0:0:0:
256,192,93731,1,0,0:0:0:0:
256,192,93829,1,0,0:0:0:0:
256,192,93927,1,8,0:0:0:0:
256,192,94025,1,8,0:0:0:0:
256,192,94124,1,0,0:0:0:0:
256,192,94222,1,8,0:0:0:0:
256,192,94320,1,8,0:0:0:0:
256,192,94418,1,0,0:0:0:0:
256,192,94516,1,8,0:0:0:0:
256,192,94614,1,8,0:0:0:0:
256,192,94712,1,0,0:0:0:0:
256,192,94810,1,8,0:0:0:0:
256,192,94908,1,8,0:0:0:0:
256,192,95006,1,0,0:0:0:0:
256,192,95104,1,8,0:0:0:0:
256,192,95202,1,8,0:0:0:0:
256,192,95300,1,0,0:0:0:0:
256,192,95398,1,8,0:0:0:0:
256,192,95496,1,8,0:0:0:0:
256,192,95594,1,8,0:0:0:0:
256,192,95692,1,0,0:0:0:0:
256,192,95790,1,8,0:0:0:0:
256,192,95888,1,8,0:0:0:0:
256,192,95986,1,0,0:0:0:0:
256,192,96084,1,8,0:0:0:0:
256,192,96182,1,8,0:0:0:0:
256,192,96280,1,0,0:0:0:0:
256,192,96378,1,0,0:0:0:0:
256,192,96476,1,8,0:0:0:0:
256,192,96575,1,0,0:0:0:0:
256,192,96673,1,0,0:0:0:0:
256,192,96771,1,8,0:0:0:0:
256,192,96869,1,0,0:0:0:0:
256,192,96967,1,0,0:0:0:0:
256,192,97065,1,8,0:0:0:0:
256,192,97163,1,8,0:0:0:0:
256,192,97261,1,0,0:0:0:0:
256,192,97359,1,8,0:0:0:0:
256,192,97457,1,8,0:0:0:0:
256,192,97555,1,0,0:0:0:0:
256,192,97653,1,8,0:0:0:0:
256,192,97751,1,8,0:0:0:0:
256,192,97849,1,8,0:0:0:0:
256,192,97947,1,0,0:0:0:0:
256,192,98045,1,8,0:0:0:0:
256,192,98143,1,8,0:0:0:0:
256,192,98241,1,0,0:0:0:0:
256,192,98339,1,8,0:0:0:0:
256,192,98437,1,8,0:0:0:0:
256,192,98535,1,0,0:0:0:0:
256,192,98633,1,8,0:0:0:0:
256,192,98731,1,8,0:0:0:0:
256,192,98829,1,0,0:0:0:0:
256,192,98927,1,0,0:0:0:0:
256,192,99025,1,8,0:0:0:0:
256,192,99124,1,0,0:0:0:0:
256,192,99222,1,0,0:0:0:0:
256,192,99320,1,8,0:0:0:0:
256,192,99418,1,0,0:0:0:0:
256,192,99516,1,0,0:0:0:0:
256,192,99614,1,8,0:0:0:0:
256,192,99712,1,0,0:0:0:0:
256,192,99810,1,0,0:0:0:0:
256,192,99908,1,8,0:0:0:0:
256,192,100006,1,0,0:0:0:0:
256,192,100104,1,8,0:0:0:0:
256,192,100202,1,8,0:0:0:0:
256,192,100300,1,8,0:0:0:0:
256,192,100398,1,0,0:0:0:0:
256,192,100447,1,0,0:0:0:0:
256,192,100496,1,8,0:0:0:0:
256,192,100545,1,8,0:0:0:0:
256,192,100594,1,0,0:0:0:0:
256,192,100643,1,0,0:0:0:0:
256,192,100692,1,8,0:0:0:0:
256,192,100741,1,0,0:0:0:0:
256,192,100790,1,8,0:0:0:0:
256,192,100839,1,8,0:0:0:0:
256,192,100888,1,0,0:0:0:0:
256,192,100937,1,0,0:0:0:0:
256,192,100986,1,8,0:0:0:0:
256,192,101035,1,0,0:0:0:0:
256,192,101084,1,8,0:0:0:0:
256,192,101133,1,8,0:0:0:0:
256,192,101182,1,0,0:0:0:0:
256,192,101231,1,0,0:0:0:0:
256,192,101280,1,8,0:0:0:0:
256,192,101329,1,0,0:0:0:0:
256,192,101378,1,8,0:0:0:0:
256,192,101427,1,0,0:0:0:0:
256,192,101476,1,8,0:0:0:0:
256,192,101525,1,8,0:0:0:0:
256,192,101575,1,0,0:0:0:0:
256,192,101607,1,0,0:0:0:0:
256,192,101640,1,0,0:0:0:0:
256,192,101673,1,8,0:0:0:0:
256,192,101722,1,8,0:0:0:0:
256,192,101771,1,0,0:0:0:0:
256,192,101967,1,8,0:0:0:0:
256,192,102261,1,8,0:0:0:0:
256,192,102555,1,0,0:0:0:0:
256,192,102849,1,8,0:0:0:0:
256,192,103143,1,0,0:0:0:0:
256,192,103339,1,0,0:0:0:0:
256,192,103535,1,8,0:0:0:0:
256,192,103829,1,8,0:0:0:0:
256,192,104124,1,0,0:0:0:0:
256,192,104418,1,8,0:0:0:0:
256,192,104712,1,8,0:0:0:0:
256,192,104908,1,8,0:0:0:0:
256,192,105104,1,0,0:0:0:0:
256,192,105398,1,8,0:0:0:0:
256,192,105692,1,0,0:0:0:0:
256,192,105986,1,8,0:0:0:0:
256,192,106280,1,0,0:0:0:0:
256,192,106476,1,0,0:0:0:0:
256,192,106673,1,8,0:0:0:0:
256,192,106967,1,8,0:0:0:0:
256,192,107261,1,0,0:0:0:0:
256,192,107555,1,8,0:0:0:0:
256,192,107849,1,8,0:0:0:0:
256,192,108045,1,8,0:0:0:0:
256,192,108241,1,0,0:0:0:0:
256,192,108535,1,8,0:0:0:0:
256,192,108829,1,0,0:0:0:0:
256,192,109124,1,8,0:0:0:0:
256,192,109418,1,0,0:0:0:0:
256,192,109614,1,0,0:0:0:0:
256,192,109810,1,8,0:0:0:0:
256,192,110104,1,8,0:0:0:0:
256,192,110398,1,0,0:0:0:0:
256,192,110692,1,8,0:0:0:0:
256,192,110986,1,8,0:0:0:0:
256,192,111182,1,8,0:0:0:0:
256,192,111378,1,0,0:0:0:0:
256,192,111673,1,8,0:0:0:0:
256,192,111967,1,0,0:0:0:0:
256,192,112261,1,8,0:0:0:0:
256,192,112555,1,0,0:0:0:0:
256,192,112751,1,0,0:0:0:0:
256,192,112947,1,8,0:0:0:0:
256,192,113241,1,8,0:0:0:0:
256,192,113535,1,0,0:0:0:0:
256,192,113829,1,8,0:0:0:0:
256,192,114124,1,8,0:0:0:0:
256,192,114320,1,8,0:0:0:0:
256,192,114516,1,0,0:0:0:0:
256,192,114565,1,0,0:0:0:0:
256,192,114614,1,0,0:0:0:0:
256,192,114663,1,0,0:0:0:0:
256,192,114712,1,0,0:0:0:0:
256,192,114761,1,0,0:0:0:0:
256,192,114810,1,0,0:0:0:0:
256,192,114859,1,0,0:0:0:0:
256,192,114908,1,8,0:0:0:0:
256,192,115006,1,0,0:0:0:0:
256,192,115104,1,8,0:0:0:0:
256,192,115202,1,0,0:0:0:0:
256,192,115300,1,0,0:0:0:0:
256,192,115398,1,8,0:0:0:0:
256,192,115496,1,0,0:0:0:0:
256,192,115594,1,0,0:0:0:0:
256,192,115692,1,8,0:0:0:0:
256,192,115790,1,0,0:0:0:0:
256,192,115888,1,8,0:0:0:0:
256,192,115986,1,0,0:0:0:0:
256,192,116084,1,8,0:0:0:0:
256,192,116182,1,8,0:0:0:0:
256,192,116280,1,0,0:0:0:0:
256,192,116378,1,8,0:0:0:0:
256,192,116476,1,8,0:0:0:0:
256,192,116575,1,0,0:0:0:0:
256,192,116673,1,8,0:0:0:0:
256,192,116771,1,0,0:0:0:0:
256,192,116869,1,0,0:0:0:0:
256,192,116967,1,8,0:0:0:0:
256,192,117065,1,0,0:0:0:0:
256,192,117163,1,0,0:0:0:0:
256,192,117261,1,8,0:0:0:0:
256,192,117359,1,0,0:0:0:0:
256,192,117457,1,8,0:0:0:0:
256,192,117555,1,0,0:0:0:0:
256,192,117653,1,8,0:0:0:0:
256,192,117751,1,8,0:0:0:0:
256,192,117849,1,0,0:0:0:0:
256,192,117947,1,8,0:0:0:0:
256,192,118045,1,0,0:0:0:0:
256,192,118143,1,0,0:0:0:0:
256,192,118241,1,8,0:0:0:0:
256,192,118339,1,0,0:0:0:0:
256,192,118437,1,0,0:0:0:0:
256,192,118535,1,8,0:0:0:0:
256,192,118633,1,0,0:0:0:0:
256,192,118731,1,0,0:0:0:0:
256,192,118829,1,8,0:0:0:0:
256,192,118927,1,8,0:0:0:0:
256,192,119025,1,8,0:0:0:0:
256,192,119124,1,0,0:0:0:0:
256,192,119222,1,8,0:0:0:0:
256,192,119320,1,0,0:0:0:0:
256,192,119418,1,0,0:0:0:0:
256,192,119516,1,8,0:0:0:0:
256,192,119614,1,0,0:0:0:0:
256,192,119712,1,0,0:0:0:0:
256,192,119810,1,8,0:0:0:0:
256,192,119908,1,8,0:0:0:0:
256,192,120006,1,0,0:0:0:0:
256,192,120104,1,8,0:0:0:0:
256,192,120202,1,0,0:0:0:0:
256,192,120300,1,0,0:0:0:0:
256,192,120398,1,8,0:0:0:0:
256,192,120496,1,8,0:0:0:0:
256,192,120594,1,8,0:0:0:0:
256,192,120692,1,0,0:0:0:0:
256,192,120790,1,8,0:0:0:0:
256,192,120888,1,8,0:0:0:0:
256,192,120986,1,0,0:0:0:0:
256,192,121084,1,8,0:0:0:0:
256,192,121182,1,8,0:0:0:0:
256,192,121280,1,0,0:0:0:0:
256,192,121378,1,8,0:0:0:0:
256,192,121476,1,0,0:0:0:0:
256,192,121575,1,0,0:0:0:0:
256,192,121673,1,8,0:0:0:0:
256,192,121771,1,0,0:0:0:0:
256,192,121869,1,0,0:0:0:0:
256,192,121967,1,8,0:0:0:0:
256,192,122065,1,0,0:0:0:0:
256,192,122163,1,8,0:0:0:0:
256,192,122261,1,0,0:0:0:0:
256,192,122359,1,8,0:0:0:0:
256,192,122457,1,8,0:0:0:0:
256,192,122555,1,0,0:0:0:0:
256,192,122653,1,8,0:0:0:0:
256,192,122751,1,8,0:0:0:0:
256,192,122849,1,0,0:0:0:0:
256,192,122947,1,8,0:0:0:0:
256,192,123045,1,0,0:0:0:0:
256,192,123143,1,0,0:0:0:0:
256,192,123241,1,8,0:0:0:0:
256,192,123339,1,8,0:0:0:0:
256,192,123437,1,0,0:0:0:0:
256,192,123535,1,8,0:0:0:0:
256,192,123633,1,8,0:0:0:0:
256,192,123731,1,8,0:0:0:0:
256,192,123829,1,0,0:0:0:0:
256,192,123927,1,8,0:0:0:0:
256,192,124025,1,8,0:0:0:0:
256,192,124124,1,0,0:0:0:0:
256,192,124222,1,8,0:0:0:0:
256,192,124320,1,0,0:0:0:0:
256,192,124418,1,0,0:0:0:0:
256,192,124516,1,8,0:0:0:0:
256,192,124614,1,8,0:0:0:0:
256,192,124712,1,0,0:0:0:0:
256,192,124810,1,8,0:0:0:0:
256,192,124908,1,0,0:0:0:0:
256,192,125006,1,0,0:0:0:0:
256,192,125104,1,8,0:0:0:0:
256,192,125202,1,0,0:0:0:0:
256,192,125300,1,8,0:0:0:0:
256,192,125398,1,0,0:0:0:0:
256,192,125496,1,8,0:0:0:0:
256,192,125594,1,8,0:0:0:0:
256,192,125692,1,0,0:0:0:0:
256,192,125790,1,8,0:0:0:0:
256,192,125888,1,8,0:0:0:0:
256,192,125986,1,0,0:0:0:0:
256,192,126084,1,8,0:0:0:0:
256,192,126182,1,0,0:0:0:0:
256,192,126280,1,0,0:0:0:0:
256,192,126378,1,8,0:0:0:0:
256,192,126476,1,0,0:0:0:0:
256,192,126575,1,0,0:0:0:0:
256,192,126673,1,8,0:0:0:0:
256,192,126771,1,0,0:0:0:0:
256,192,126869,1,8,0:0:0:0:
256,192,126967,1,0,0:0:0:0:
256,192,127065,1,8,0:0:0:0:
256,192,127163,1,8,0:0:0:0:
256,192,127261,1,0,0:0:0:0:
256,192,127359,1,8,0:0:0:0:
256,192,127457,1,8,0:0:0:0:
256,192,127555,1,0,0:0:0:0:
256,192,127653,1,8,0:0:0:0:
256,192,127751,1,0,0:0:0:0:
256,192,127849,1,0,0:0:0:0:
256,192,127947,1,8,0:0:0:0:
256,192,128045,1,0,0:0:0:0:
256,192,128143,1,0,0:0:0:0:
256,192,128241,1,8,0:0:0:0:
256,192,128339,1,8,0:0:0:0:
256,192,128437,1,8,0:0:0:0:
256,192,128535,1,0,0:0:0:0:
256,192,128633,1,8,0:0:0:0:
256,192,128731,1,8,0:0:0:0:
256,192,128829,1,0,0:0:0:0:
256,192,128927,1,8,0:0:0:0:
256,192,129025,1,8,0:0:0:0:
256,192,129124,1,0,0:0:0:0:
256,192,129222,1,8,0:0:0:0:
256,192,129320,1,0,0:0:0:0:
256,192,129418,1,0,0:0:0:0:
256,192,129516,1,8,0:0:0:0:
256,192,129614,1,0,0:0:0:0:
256,192,129712,1,0,0:0:0:0:
256,192,129810,1,8,0:0:0:0:
256,192,129908,1,0,0:0:0:0:
256,192,130006,1,8,0:0:0:0:
256,192,130104,1,0,0:0:0:0:
256,192,130202,1,8,0:0:0:0:
256,192,130300,1,8,0:0:0:0:
256,192,130398,1,0,0:0:0:0:
256,192,130496,1,8,0:0:0:0:
256,192,130594,1,8,0:0:0:0:
256,192,130692,1,0,0:0:0:0:
256,192,130790,1,8,0:0:0:0:
256,192,130888,1,0,0:0:0:0:
256,192,130986,1,0,0:0:0:0:
256,192,131084,1,8,0:0:0:0:
256,192,131182,1,8,0:0:0:0:
256,192,131280,1,0,0:0:0:0:
256,192,131378,1,8,0:0:0:0:
256,192,131476,1,0,0:0:0:0:
256,192,131575,1,8,0:0:0:0:
256,192,131673,1,0,0:0:0:0:
256,192,131771,1,8,0:0:0:0:
256,192,131869,1,8,0:0:0:0:
256,192,131967,1,0,0:0:0:0:
256,192,132065,1,8,0:0:0:0:
256,192,132163,1,8,0:0:0:0:
256,192,132261,1,0,0:0:0:0:
256,192,132359,1,8,0:0:0:0:
256,192,132457,1,8,0:0:0:0:
256,192,132555,1,0,0:0:0:0:
256,192,132653,1,8,0:0:0:0:
256,192,132751,1,0,0:0:0:0:
256,192,132849,1,0,0:0:0:0:
256,192,132947,1,8,0:0:0:0:
256,192,133045,1,8,0:0:0:0:
256,192,133143,1,8,0:0:0:0:
256,192,133241,1,0,0:0:0:0:
256,192,133339,1,8,0:0:0:0:
256,192,133437,1,0,0:0:0:0:
256,192,133535,1,0,0:0:0:0:
256,192,133633,1,8,0:0:0:0:
256,192,133731,1,8,0:0:0:0:
256,192,133829,1,0,0:0:0:0:
256,192,133927,1,8,0:0:0:0:
256,192,134025,1,0,0:0:0:0:
256,192,134124,1,0,0:0:0:0:
256,192,134222,1,8,0:0:0:0:
256,192,134320,1,0,0:0:0:0:
256,192,134418,1,0,0:0:0:0:
256,192,134516,1,8,0:0:0:0:
256,192,134614,1,0,0:0:0:0:
256,192,134712,1,8,0:0:0:0:
256,192,134810,1,0,0:0:0:0:
256,192,134908,1,8,0:0:0:0:
256,192,135006,1,8,0:0:0:0:
256,192,135104,1,0,0:0:0:0:
256,192,135202,1,8,0:0:0:0:
256,192,135300,1,8,0:0:0:0:
256,192,135398,1,0,0:0:0:0:
256,192,135496,1,8,0:0:0:0:
256,192,135594,1,0,0:0:0:0:
256,192,135692,1,0,0:0:0:0:
256,192,135790,1,8,0:0:0:0:
256,192,135888,1,8,0:0:0:0:
256,192,135986,1,0,0:0:0:0:
256,192,136084,1,8,0:0:0:0:
256,192,136182,1,0,0:0:0:0:
256,192,136280,1,8,0:0:0:0:
256,192,136378,1,0,0:0:0:0:
256,192,136476,1,8,0:0:0:0:
256,192,136575,1,8,0:0:0:0:
256,192,136673,1,0,0:0:0:0:
256,192,136771,1,8,0:0:0:0:
256,192,136869,1,8,0:0:0:0:
256,192,136967,1,0,0:0:0:0:
256,192,137065,1,8,0:0:0:0:
256,192,137163,1,8,0:0:0:0:
256,192,137261,1,0,0:0:0:0:
256,192,137359,1,8,0:0:0:0:
256,192,137457,1,8,0:0:0:0:
256,192,137555,1,0,0:0:0:0:
256,192,137653,1,8,0:0:0:0:
256,192,137751,1,0,0:0:0:0:
256,192,137849,1,8,0:0:0:0:
256,192,137947,1,0,0:0:0:0:
256,192,138045,1,8,0:0:0:0:
256,192,138143,1,8,0:0:0:0:
256,192,138241,1,0,0:0:0:0:
256,192,138339,1,8,0:0:0:0:
256,192,138437,1,8,0:0:0:0:
256,192,138535,1,0,0:0:0:0:
256,192,138633,1,8,0:0:0:0:
256,192,138731,1,0,0:0:0:0:
256,192,138829,1,0,0:0:0:0:
256,192,138927,1,8,0:0:0:0:
256,192,139025,1,0,0:0:0:0:
256,192,139124,1,8,0:0:0:0:
256,192,139222,1,4,0:0:0:0:
256,192,139320,1,4,0:0:0:0:
256,192,139418,1,4,0:0:0:0:
256,192,139516,1,4,0:0:0:0:
256,192,139614,1,12,0:0:0:0:
256,192,139712,1,8,0:0:0:0:
256,192,139810,1,0,0:0:0:0:
256,192,139908,1,8,0:0:0:0:
256,192,140006,1,8,0:0:0:0:
256,192,140104,1,0,0:0:0:0:
256,192,140202,1,8,0:0:0:0:
256,192,140300,1,0,0:0:0:0:
256,192,140398,1,0,0:0:0:0:
256,192,140496,1,8,0:0:0:0:
256,192,140594,1,8,0:0:0:0:
256,192,140692,1,0,0:0:0:0:
256,192,140790,1,8,0:0:0:0:
256,192,140888,1,0,0:0:0:0:
256,192,140986,1,8,0:0:0:0:
256,192,141084,1,0,0:0:0:0:
256,192,141182,1,8,0:0:0:0:
256,192,141280,1,8,0:0:0:0:
256,192,141378,1,0,0:0:0:0:
256,192,141476,1,8,0:0:0:0:
256,192,141575,1,8,0:0:0:0:
256,192,141673,1,0,0:0:0:0:
256,192,141771,1,8,0:0:0:0:
256,192,141869,1,0,0:0:0:0:
256,192,141967,1,0,0:0:0:0:
256,192,142065,1,8,0:0:0:0:
256,192,142163,1,8,0:0:0:0:
256,192,142261,1,0,0:0:0:0:
256,192,142359,1,8,0:0:0:0:
256,192,142457,1,8,0:0:0:0:
256,192,142555,1,8,0:0:0:0:
256,192,142653,1,0,0:0:0:0:
256,192,142751,1,8,0:0:0:0:
256,192,142849,1,8,0:0:0:0:
256,192,142947,1,0,0:0:0:0:
256,192,143045,1,8,0:0:0:0:
256,192,143143,1,8,0:0:0:0:
256,192,143241,1,0,0:0:0:0:
256,192,143339,1,8,0:0:0:0:
256,192,143437,1,0,0:0:0:0:
256,192,143535,1,0,0:0:0:0:
256,192,143633,1,8,0:0:0:0:
256,192,143731,1,8,0:0:0:0:
256,192,143829,1,0,0:0:0:0:
256,192,143927,1,8,0:0:0:0:
256,192,144025,1,0,0:0:0:0:
256,192,144124,1,8,0:0:0:0:
256,192,144222,1,0,0:0:0:0:
256,192,144320,1,8,0:0:0:0:
256,192,144418,1,8,0:0:0:0:
256,192,144516,1,0,0:0:0:0:
256,192,144614,1,8,0:0:0:0:
256,192,144712,1,8,0:0:0:0:
256,192,144810,1,0,0:0:0:0:
256,192,144908,1,8,0:0:0:0:
256,192,145006,1,0,0:0:0:0:
256,192,145104,1,0,0:0:0:0:
256,192,145202,1,8,0:0:0:0:
256,192,145300,1,8,0:0:0:0:
256,192,145398,1,0,0:0:0:0:
256,192,145496,1,8,0:0:0:0:
256,192,145594,1,8,0:0:0:0:
256,192,145692,1,8,0:0:0:0:
256,192,145790,1,0,0:0:0:0:
256,192,145888,1,8,0:0:0:0:
256,192,145986,1,8,0:0:0:0:
256,192,146084,1,0,0:0:0:0:
256,192,146182,1,8,0:0:0:0:
256,192,146280,1,8,0:0:0:0:
256,192,146378,1,0,0:0:0:0:
256,192,146476,1,8,0:0:0:0:
256,192,146575,1,0,0:0:0:0:
256,192,146673,1,0,0:0:0:0:
256,192,146771,1,8,0:0:0:0:
256,192,146869,1,8,0:0:0:0:
256,192,146967,1,0,0:0:0:0:
256,192,147065,1,8,0:0:0:0:
256,192,147163,1,0,0:0:0:0:
256,192,147261,1,8,0:0:0:0:
256,192,147359,1,0,0:0:0:0:
256,192,147457,1,8,0:0:0:0:
256,192,147555,1,8,0:0:0:0:
256,192,147653,1,0,0:0:0:0:
256,192,147751,1,8,0:0:0:0:
256,192,147849,1,8,0:0:0:0:
256,192,147947,1,0,0:0:0:0:
256,192,148045,1,8,0:0:0:0:
256,192,148143,1,0,0:0:0:0:
256,192,148241,1,0,0:0:0:0:
256,192,148339,1,8,0:0:0:0:
256,192,148437,1,8,0:0:0:0:
256,192,148535,1,0,0:0:0:0:
256,192,148633,1,8,0:0:0:0:
256,192,148731,1,8,0:0:0:0:
256,192,148829,1,8,0:0:0:0:
256,192,148927,1,0,0:0:0:0:
256,192,149025,1,8,0:0:0:0:
256,192,149124,1,8,0:0:0:0:
256,192,149222,1,0,0:0:0:0:
256,192,149320,1,8,0:0:0:0:
256,192,149418,1,8,0:0:0:0:
256,192,149516,1,0,0:0:0:0:
256,192,149614,1,8,0:0:0:0:
256,192,149712,1,8,0:0:0:0:
256,192,149810,1,0,0:0:0:0:
256,192,149908,1,8,0:0:0:0:
256,192,150006,1,8,0:0:0:0:
256,192,150104,1,0,0:0:0:0:
256,192,150202,1,8,0:0:0:0:
256,192,150300,1,0,0:0:0:0:
256,192,150398,1,8,0:0:0:0:
256,192,150496,1,0,0:0:0:0:
256,192,150594,1,8,0:0:0:0:
256,192,150692,1,8,0:0:0:0:
256,192,150790,1,0,0:0:0:0:
256,192,150888,1,8,0:0:0:0:
256,192,150986,1,8,0:0:0:0:
256,192,151084,1,0,0:0:0:0:
256,192,151182,1,8,0:0:0:0:
256,192,151280,1,8,0:0:0:0:
256,192,151378,1,0,0:0:0:0:
256,192,151476,1,8,0:0:0:0:
256,192,151575,1,8,0:0:0:0:
256,192,151673,1,0,0:0:0:0:
256,192,151771,1,8,0:0:0:0:
256,192,151869,1,0,0:0:0:0:
256,192,151967,1,8,0:0:0:0:
256,192,152065,1,0,0:0:0:0:
256,192,152163,1,0,0:0:0:0:
256,192,152212,1,0,0:0:0:0:
256,192,152261,1,0,0:0:0:0:
256,192,152359,1,8,0:0:0:0:
256,192,152408,1,8,0:0:0:0:
256,192,152457,1,0,0:0:0:0:
256,192,152506,1,0,0:0:0:0:
256,192,152555,1,8,0:0:0:0:
256,192,152653,1,0,0:0:0:0:
256,192,152751,1,8,0:0:0:0:
256,192,152800,1,0,0:0:0:0:
256,192,152849,1,8,0:0:0:0:
256,192,152947,1,8,0:0:0:0:
256,192,153045,1,0,0:0:0:0:
256,192,153143,1,8,0:0:0:0:
256,192,153192,1,8,0:0:0:0:
256,192,153241,1,0,0:0:0:0:
256,192,153290,1,0,0:0:0:0:
256,192,153339,1,8,0:0:0:0:
256,192,153437,1,8,0:0:0:0:
256,192,153535,1,8,0:0:0:0:
256,192,153633,1,0,0:0:0:0:
256,192,153682,1,0,0:0:0:0:
256,192,153731,1,0,0:0:0:0:
256,192,153780,1,0,0:0:0:0:
256,192,153829,1,0,0:0:0:0:
256,192,153878,1,0,0:0:0:0:
256,192,153927,1,0,0:0:0:0:
256,192,153976,1,0,0:0:0:0:
256,192,154025,1,8,0:0:0:0:
256,192,154124,1,0,0:0:0:0:
256,192,154173,1,0,0:0:0:0:
256,192,154222,1,8,0:0:0:0:
256,192,154320,1,8,0:0:0:0:
256,192,154418,1,0,0:0:0:0:
256,192,154516,1,8,0:0:0:0:
256,192,154565,1,8,0:0:0:0:
256,192,154614,1,0,0:0:0:0:
256,192,154663,1,0,0:0:0:0:
256,192,154712,1,8,0:0:0:0:
256,192,154761,1,0,0:0:0:0:
256,192,154810,1,8,0:0:0:0:
256,192,154859,1,8,0:0:0:0:
256,192,154908,1,0,0:0:0:0:
256,192,154957,1,0,0:0:0:0:
256,192,155006,1,8,0:0:0:0:
256,192,155055,1,0,0:0:0:0:
256,192,155104,1,8,0:0:0:0:
256,192,155153,1,0,0:0:0:0:
256,192,155202,1,8,0:0:0:0:
256,192,155251,1,8,0:0:0:0:
256,192,155300,1,0,0:0:0:0:
256,192,155398,1,0,0:0:0:0:
256,192,155447,1,0,0:0:0:0:
256,192,155496,1,8,0:0:0:0:
256,192,155594,1,8,0:0:0:0:
256,192,155692,1,8,0:0:0:0:
256,192,155741,1,8,0:0:0:0:
256,192,155790,1,0,0:0:0:0:
256,192,155888,1,8,0:0:0:0:
256,192,155937,1,8,0:0:0:0:
256,192,155986,1,0,0:0:0:0:
256,192,156035,1,0,0:0:0:0:
256,192,156084,1,8,0:0:0:0:
256,192,156182,1,8,0:0:0:0:
256,192,156280,1,0,0:0:0:0:
256,192,156378,1,0,0:0:0:0:
256,192,156427,1,0,0:0:0:0:
256,192,156476,1,8,0:0:0:0:
256,192,156575,1,8,0:0:0:0:
256,192,156673,1,8,0:0:0:0:
256,192,156771,1,0,0:0:0:0:
256,192,156820,1,0,0:0:0:0:
256,192,156869,1,0,0:0:0:0:
256,192,156918,1,0,0:0:0:0:
256,192,156967,1,0,0:0:0:0:
256,192,157016,1,0,0:0:0:0:
256,192,157065,1,0,0:0:0:0:
256,192,157114,1,0,0:0:0:0:
256,192,157163,1,8,0:0:0:0:
256,192,157261,1,8,0:0:0:0:
256,192,157359,1,0,0:0:0:0:
256,192,157408,1,0,0:0:0:0:
256,192,157457,1,8,0:0:0:0:
256,192,157506,1,8,0:0:0:0:
256,192,157555,1,0,0:0:0:0:
256,192,157604,1,0,0:0:0:0:
256,192,157653,1,8,0:0:0:0:
256,192,157751,1,8,0:0:0:0:
256,192,157800,1,8,0:0:0:0:
256,192,157849,1,0,0:0:0:0:
256,192,157898,1,0,0:0:0:0:
256,192,157947,1,8,0:0:0:0:
256,192,157996,1,0,0:0:0:0:
256,192,158045,1,8,0:0:0:0:
256,192,158094,1,8,0:0:0:0:
256,192,158143,1,0,0:0:0:0:
256,192,158192,1,0,0:0:0:0:
256,192,158241,1,8,0:0:0:0:
256,192,158290,1,0,0:0:0:0:
256,192,158339,1,8,0:0:0:0:
256,192,158388,1,8,0:0:0:0:
256,192,158437,1,0,0:0:0:0:
256,192,158535,1,0,0:0:0:0:
256,192,158633,1,8,0:0:0:0:
256,192,158731,1,0,0:0:0:0:
256,192,158780,1,0,0:0:0:0:
256,192,158829,1,8,0:0:0:0:
256,192,158927,1,8,0:0:0:0:
256,192,159025,1,8,0:0:0:0:
256,192,159075,1,0,0:0:0:0:
256,192,159124,1,8,0:0:0:0:
256,192,159173,1,8,0:0:0:0:
256,192,159222,1,0,0:0:0:0:
256,192,159271,1,0,0:0:0:0:
256,192,159320,1,8,0:0:0:0:
256,192,159369,1,8,0:0:0:0:
256,192,159418,1,0,0:0:0:0:
256,192,159516,1,0,0:0:0:0:
256,192,159565,1,0,0:0:0:0:
256,192,159614,1,8,0:0:0:0:
256,192,159712,1,8,0:0:0:0:
256,192,159810,1,8,0:0:0:0:
256,192,159908,1,0,0:0:0:0:
256,192,159957,1,0,0:0:0:0:
256,192,160006,1,0,0:0:0:0:
256,192,160055,1,0,0:0:0:0:
256,192,160104,1,0,0:0:0:0:
256,192,160153,1,0,0:0:0:0:
256,192,160202,1,0,0:0:0:0:
256,192,160251,1,0,0:0:0:0:
256,192,160300,1,8,0:0:0:0:
256,192,160398,1,8,0:0:0:0:
256,192,160447,1,0,0:0:0:0:
256,192,160496,1,8,0:0:0:0:
256,192,160545,1,8,0:0:0:0:
256,192,160594,1,0,0:0:0:0:
256,192,160643,1,0,0:0:0:0:
256,192,160692,1,8,0:0:0:0:
256,192,160741,1,8,0:0:0:0:
256,192,160790,1,0,0:0:0:0:
256,192,160839,1,0,0:0:0:0:
256,192,160888,1,8,0:0:0:0:
256,192,160937,1,0,0:0:0:0:
256,192,160986,1,8,0:0:0:0:
256,192,161035,1,0,0:0:0:0:
256,192,161084,1,8,0:0:0:0:
256,192,161133,1,8,0:0:0:0:
256,192,161182,1,0,0:0:0:0:
256,192,161231,1,0,0:0:0:0:
256,192,161280,1,8,0:0:0:0:
256,192,161329,1,0,0:0:0:0:
256,192,161378,1,8,0:0:0:0:
256,192,161427,1,0,0:0:0:0:
256,192,161476,1,8,0:0:0:0:
256,192,161525,1,8,0:0:0:0:
256,192,161575,1,0,0:0:0:0:
256,192,161673,1,0,0:0:0:0:
256,192,161771,1,8,0:0:0:0:
256,192,161820,1,8,0:0:0:0:
256,192,161869,1,0,0:0:0:0:
256,192,161918,1,0,0:0:0:0:
256,192,161967,1,8,0:0:0:0:
256,192,162016,1,8,0:0:0:0:
256,192,162065,1,0,0:0:0:0:
256,192,162114,1,0,0:0:0:0:
256,192,162163,1,8,0:0:0:0:
256,192,162212,1,8,0:0:0:0:
256,192,162261,1,0,0:0:0:0:
256,192,162310,1,0,0:0:0:0:
256,192,162359,1,8,0:0:0:0:
256,192,162408,1,0,0:0:0:0:
256,192,162457,1,8,0:0:0:0:
256,192,162506,1,0,0:0:0:0:
256,192,162555,1,8,0:0:0:0:
256,192,162604,1,8,0:0:0:0:
256,192,162653,1,0,0:0:0:0:
256,192,162702,1,0,0:0:0:0:
256,192,162751,1,8,0:0:0:0:
256,192,162849,1,8,0:0:0:0:
256,192,162947,1,8,0:0:0:0:
256,192,163045,1,0,0:0:0:0:
256,192,163094,1,0,0:0:0:0:
256,192,163143,1,0,0:0:0:0:
256,192,163192,1,0,0:0:0:0:
256,192,163241,1,0,0:0:0:0:
256,192,163290,1,0,0:0:0:0:
256,192,163339,1,0,0:0:0:0:
256,192,163388,1,0,0:0:0:0:
256,192,163437,1,8,0:0:0:0:
256,192,163486,1,0,0:0:0:0:
256,192,163535,1,8,0:0:0:0:
256,192,163584,1,8,0:0:0:0:
256,192,163633,1,0,0:0:0:0:
256,192,163682,1,0,0:0:0:0:
256,192,163731,1,8,0:0:0:0:
256,192,163780,1,8,0:0:0:0:
256,192,163829,1,0,0:0:0:0:
256,192,163878,1,0,0:0:0:0:
256,192,163927,1,8,0:0:0:0:
256,192,163976,1,0,0:0:0:0:
256,192,164025,1,8,0:0:0:0:
256,192,164075,1,8,0:0:0:0:
256,192,164124,1,0,0:0:0:0:
256,192,164173,1,0,0:0:0:0:
256,192,164222,1,8,0:0:0:0:
256,192,164271,1,8,0:0:0:0:
256,192,164320,1,0,0:0:0:0:
256,192,164369,1,0,0:0:0:0:
256,192,164418,1,8,0:0:0:0:
256,192,164467,1,0,0:0:0:0:
256,192,164516,1,8,0:0:0:0:
256,192,164565,1,8,0:0:0:0:
256,192,164614,1,0,0:0:0:0:
256,192,164663,1,0,0:0:0:0:
256,192,164712,1,12,0:0:0:0:
256,192,164908,1,8,0:0:0:0:
256,192,165006,1,8,0:0:0:0:
256,192,165104,1,8,0:0:0:0:
256,192,165202,1,0,0:0:0:0:
256,192,165300,1,8,0:0:0:0:
256,192,165398,1,0,0:0:0:0:
256,192,165496,1,8,0:0:0:0:
256,192,165594,1,8,0:0:0:0:
256,192,165692,1,0,0:0:0:0:
256,192,165790,1,0,0:0:0:0:
256,192,165888,1,8,0:0:0:0:
256,192,165986,1,8,0:0:0:0:
256,192,166084,1,8,0:0:0:0:
256,192,166182,1,0,0:0:0:0:
256,192,166280,1,0,0:0:0:0:
256,192,166378,1,0,0:0:0:0:
256,192,166476,1,0,0:0:0:0:
256,192,166575,1,8,0:0:0:0:
256,192,166673,1,8,0:0:0:0:
256,192,166771,1,0,0:0:0:0:
256,192,166869,1,8,0:0:0:0:
256,192,166967,1,0,0:0:0:0:
256,192,167065,1,8,0:0:0:0:
256,192,167163,1,8,0:0:0:0:
256,192,167261,1,8,0:0:0:0:
256,192,167359,1,0,0:0:0:0:
256,192,167457,1,8,0:0:0:0:
256,192,167555,1,8,0:0:0:0:
256,192,167653,1,8,0:0:0:0:
256,192,167751,1,8,0:0:0:0:
256,192,167849,1,0,0:0:0:0:
256,192,167947,1,0,0:0:0:0:
256,192,168045,1,8,0:0:0:0:
256,192,168143,1,8,0:0:0:0:
256,192,168241,1,8,0:0:0:0:
256,192,168339,1,0,0:0:0:0:
256,192,168437,1,8,0:0:0:0:
256,192,168535,1,0,0:0:0:0:
256,192,168633,1,8,0:0:0:0:
256,192,168731,1,8,0:0:0:0:
256,192,168829,1,0,0:0:0:0:
256,192,168927,1,0,0:0:0:0:
256,192,169025,1,8,0:0:0:0:
256,192,169124,1,8,0:0:0:0:
256,192,169222,1,8,0:0:0:0:
256,192,169320,1,0,0:0:0:0:
256,192,169418,1,0,0:0:0:0:
256,192,169516,1,0,0:0:0:0:
256,192,169614,1,0,0:0:0:0:
256,192,169712,1,8,0:0:0:0:
256,192,169810,1,8,0:0:0:0:
256,192,169908,1,0,0:0:0:0:
256,192,170006,1,8,0:0:0:0:
256,192,170104,1,0,0:0:0:0:
256,192,170202,1,8,0:0:0:0:
256,192,170300,1,8,0:0:0:0:
256,192,170398,1,8,0:0:0:0:
256,192,170496,1,0,0:0:0:0:
256,192,170594,1,8,0:0:0:0:
256,192,170692,1,8,0:0:0:0:
256,192,170790,1,8,0:0:0:0:
256,192,170888,1,8,0:0:0:0:
256,192,170986,1,0,0:0:0:0:
256,192,171084,1,0,0:0:0:0:
256,192,171182,1,8,0:0:0:0:
256,192,171280,1,8,0:0:0:0:
256,192,171378,1,8,0:0:0:0:
256,192,171476,1,0,0:0:0:0:
256,192,171575,1,8,0:0:0:0:
256,192,171673,1,0,0:0:0:0:
256,192,171771,1,8,0:0:0:0:
256,192,171869,1,8,0:0:0:0:
256,192,171967,1,0,0:0:0:0:
256,192,172065,1,0,0:0:0:0:
256,192,172163,1,8,0:0:0:0:
256,192,172261,1,8,0:0:0:0:
256,192,172359,1,8,0:0:0:0:
256,192,172457,1,0,0:0:0:0:
256,192,172555,1,0,0:0:0:0:
256,192,172653,1,0,0:0:0:0:
256,192,172751,1,0,0:0:0:0:
256,192,172849,1,8,0:0:0:0:
256,192,172947,1,8,0:0:0:0:
256,192,173045,1,0,0:0:0:0:
256,192,173143,1,8,0:0:0:0:
256,192,173241,1,0,0:0:0:0:
256,192,173339,1,8,0:0:0:0:
256,192,173437,1,8,0:0:0:0:
256,192,173535,1,8,0:0:0:0:
256,192,173633,1,0,0:0:0:0:
256,192,173731,1,8,0:0:0:0:
256,192,173829,1,8,0:0:0:0:
256,192,173927,1,8,0:0:0:0:
256,192,174025,1,8,0:0:0:0:
256,192,174124,1,0,0:0:0:0:
256,192,174222,1,0,0:0:0:0:
256,192,174320,1,8,0:0:0:0:
256,192,174418,1,8,0:0:0:0:
256,192,174516,1,8,0:0:0:0:
256,192,174614,1,0,0:0:0:0:
256,192,174712,1,8,0:0:0:0:
256,192,174810,1,0,0:0:0:0:
256,192,174908,1,8,0:0:0:0:
256,192,175006,1,8,0:0:0:0:
256,192,175104,1,0,0:0:0:0:
256,192,175202,1,0,0:0:0:0:
256,192,175300,1,8,0:0:0:0:
256,192,175398,1,8,0:0:0:0:
256,192,175496,1,8,0:0:0:0:
256,192,175594,1,0,0:0:0:0:
256,192,175643,1,0,0:0:0:0:
256,192,175692,1,0,0:0:0:0:
256,192,175741,1,0,0:0:0:0:
256,192,175790,1,0,0:0:0:0:
256,192,175839,1,0,0:0:0:0:
256,192,175888,1,0,0:0:0:0:
256,192,175937,1,0,0:0:0:0:
256,192,175986,1,8,0:0:0:0:
256,192,176035,1,8,0:0:0:0:
256,192,176084,1,0,0:0:0:0:
256,192,176133,1,0,0:0:0:0:
256,192,176182,1,8,0:0:0:0:
256,192,176231,1,0,0:0:0:0:
256,192,176280,1,8,0:0:0:0:
256,192,176329,1,8,0:0:0:0:
256,192,176378,1,0,0:0:0:0:
256,192,176427,1,0,0:0:0:0:
256,192,176476,1,8,0:0:0:0:
256,192,176525,1,0,0:0:0:0:
256,192,176574,1,8,0:0:0:0:
256,192,176623,1,0,0:0:0:0:
256,192,176672,1,8,0:0:0:0:
256,192,176721,1,8,0:0:0:0:
256,192,176770,1,0,0:0:0:0:
256,192,176819,1,0,0:0:0:0:
256,192,176868,1,8,0:0:0:0:
256,192,176918,1,0,0:0:0:0:
256,192,176967,1,8,0:0:0:0:
256,192,177016,1,8,0:0:0:0:
256,192,177065,1,0,0:0:0:0:
256,192,177163,8,0,180398,0:0:0:0:
