osu file format v14

[General]
AudioFilename: amaryllis_7a.ogg
AudioLeadIn: 0
PreviewTime: 94390
Countdown: 0
SampleSet: Soft
StackLeniency: 0.7
Mode: 3
LetterboxInBreaks: 0
SpecialStyle: 1
WidescreenStoryboard: 1

[Editor]
DistanceSpacing: 0.8
BeatDivisor: 2
GridSize: 4
TimelineZoom: 0.7999998

[Metadata]
Title:Isetsu Higanbana Daiichi - Gensho no Amaryllis -
TitleUnicode:異説彼岸花 第一 -原初のアマリリス-
Artist:44teru-k remixed wa.
ArtistUnicode:44teru-k remixed wa.
Creator:by-ad
Version:Syr's Easy
Source:THE BMS OF FIGHTERS 2010 -THE EVOLUTION OF WAR-
Tags:7+1K 7K+1 7K1S n+1 bof2010 innocence bms of fighters creation records 死腐乃美「彼岸花」第一~螺旋回廊~白紅 shi kusa nomi higanbana dai ichi rasen kairou shiro beni creation:rain rain よしてる yoshiteru わ Video Game Instrumental syrion- mirsaaa
BeatmapID:3865320
BeatmapSetID:1874141

[Difficulty]
HPDrainRate:6.5
CircleSize:8
OverallDifficulty:6.5
ApproachRate:5
SliderMultiplier:1.4
SliderTickRate:1

[Events]
//Background and Video events
0,0,"Source by Beepu owo.jpg",0,0
Video,-77,"video_1.mp4"
//Break Periods
//Storyboard Layer 0 (Background)
//Storyboard Layer 1 (Fail)
//Storyboard Layer 2 (Pass)
//Storyboard Layer 3 (Foreground)
//Storyboard Layer 4 (Overlay)
//Storyboard Sound Samples

[TimingPoints]
1590,400,4,2,1,40,1,0
94390,-100,4,2,1,40,0,1
119990,-100,4,2,1,40,0,0

[HitObjects]
160,192,1590,5,0,0:0:0:0:
224,192,3190,1,0,0:0:0:0:
288,192,3990,1,0,0:0:0:0:
352,192,4790,1,0,0:0:0:0:
416,192,4990,1,0,0:0:0:0:
480,192,5190,1,0,0:0:0:0:
160,192,5390,1,0,0:0:0:0:
288,192,5590,1,0,0:0:0:0:
352,192,6390,1,0,0:0:0:0:
96,192,7190,1,0,0:0:0:0:
416,192,7990,1,0,0:0:0:0:
352,192,8190,1,0,0:0:0:0:
288,192,8390,1,0,0:0:0:0:
224,192,8590,1,0,0:0:0:0:
224,192,9590,1,0,0:0:0:0:
288,192,10390,1,0,0:0:0:0:
96,192,11190,1,0,0:0:0:0:
160,192,11390,1,0,0:0:0:0:
224,192,11590,1,0,0:0:0:0:
288,192,11790,1,0,0:0:0:0:
352,192,11990,1,0,0:0:0:0:
160,192,12790,1,0,0:0:0:0:
96,192,13590,1,0,0:0:0:0:
288,192,13990,1,0,0:0:0:0:
352,192,14190,1,0,0:0:0:0:
32,192,14390,1,4,0:0:0:0:
416,192,14390,1,0,0:0:0:40:FX_IntroKick.wav
160,192,14790,1,0,0:0:0:0:
288,192,14990,1,0,0:0:0:0:
416,192,15990,1,0,0:0:0:0:
160,192,16190,1,0,0:0:0:0:
224,192,16390,1,0,0:0:0:0:
288,192,16590,1,0,0:0:0:0:
96,192,17190,1,0,0:0:0:0:
352,192,17590,1,0,0:0:0:0:
288,192,17790,1,0,0:0:0:0:
224,192,17990,1,0,0:0:0:0:
160,192,18190,1,0,0:0:0:0:
480,192,18590,1,0,0:0:0:0:
416,192,18790,1,0,0:0:0:0:
352,192,18990,1,0,0:0:0:0:
288,192,19190,1,0,0:0:0:0:
160,192,19590,1,0,0:0:0:0:
288,192,19790,1,0,0:0:0:0:
416,192,20190,1,0,0:0:0:0:
160,192,20790,1,0,0:0:0:0:
224,192,20990,1,0,0:0:0:0:
288,192,21190,1,0,0:0:0:0:
352,192,21390,1,0,0:0:0:0:
416,192,22390,1,0,0:0:0:0:
352,192,22590,1,0,0:0:0:0:
288,192,22790,1,0,0:0:0:0:
224,192,22990,1,0,0:0:0:0:
480,192,23590,1,0,0:0:0:0:
96,192,23990,1,0,0:0:0:0:
160,192,24190,1,0,0:0:0:0:
224,192,24390,1,0,0:0:0:0:
288,192,24590,1,0,0:0:0:0:
480,192,24990,1,0,0:0:0:0:
352,192,25190,1,0,0:0:0:0:
224,192,25390,1,0,0:0:0:0:
96,192,25590,1,0,0:0:0:0:
160,192,25990,1,0,0:0:0:0:
224,192,26190,1,0,0:0:0:0:
288,192,26390,1,0,0:0:0:0:
352,192,26590,1,0,0:0:0:0:
416,192,26790,1,0,0:0:0:0:
480,192,26990,1,0,0:0:0:0:
32,192,27190,1,4,0:0:0:0:
160,192,27190,1,0,0:0:0:40:FX_IntroKick.wav
224,192,27990,1,0,0:0:0:0:
288,192,28390,1,0,0:0:0:0:
480,192,28790,1,0,0:0:0:0:
416,192,28990,1,0,0:0:0:0:
352,192,29190,1,0,0:0:0:0:
160,192,29590,1,0,0:0:0:0:
288,192,29990,1,0,0:0:0:0:
288,192,30390,1,0,0:0:0:0:
352,192,30590,1,0,0:0:0:0:
416,192,30790,1,0,0:0:0:0:
224,192,31190,1,0,0:0:0:0:
160,192,31590,1,0,0:0:0:0:
96,192,31990,1,0,0:0:0:0:
480,192,32390,1,0,0:0:0:0:
352,192,32790,1,0,0:0:0:0:
288,192,32990,1,0,0:0:0:0:
224,192,33190,1,0,0:0:0:0:
160,192,33390,1,0,0:0:0:0:
96,192,33590,1,0,0:0:0:20:soft-hitwhistle.wav
288,192,33990,1,0,0:0:0:20:soft-hitwhistle.wav
32,192,34390,1,0,0:0:0:20:soft-hitwhistle.wav
480,192,34390,1,0,0:0:0:20:soft-hitclap.wav
160,192,34790,1,0,0:0:0:20:soft-hitwhistle.wav
416,192,34990,1,0,0:0:0:20:soft-hitwhistle.wav
224,192,35190,1,0,0:0:0:20:soft-hitwhistle.wav
352,192,35390,1,0,0:0:0:20:soft-hitwhistle.wav
288,192,35590,1,0,0:0:0:20:soft-hitwhistle.wav
32,192,35990,1,0,0:0:0:20:soft-hitwhistle.wav
96,192,35990,1,0,0:0:0:20:soft-hitclap.wav
352,192,36390,1,0,0:0:0:20:soft-hitwhistle.wav
224,192,36790,1,0,0:0:0:20:soft-hitwhistle.wav
416,192,37190,1,0,0:0:0:20:soft-hitwhistle.wav
288,192,37590,1,0,0:0:0:20:soft-hitwhistle.wav
480,192,37990,1,2,0:0:0:0:
352,192,38390,1,0,0:0:0:30:soft-hitwhistle.wav
288,192,38590,1,0,0:0:0:30:soft-hitwhistle.wav
224,192,38790,1,0,0:0:0:30:soft-hitwhistle.wav
416,192,39190,1,2,0:0:0:0:
352,192,39390,1,2,0:0:0:0:
288,192,39590,1,2,0:0:0:0:
224,192,39790,1,2,0:0:0:0:
32,192,39990,1,2,0:0:0:0:
160,192,39990,1,4,0:0:0:0:
32,192,43190,1,2,0:0:0:0:
160,192,43190,1,4,0:0:0:0:
416,192,43590,1,2,0:0:0:0:
224,192,43990,1,2,0:0:0:0:
416,192,44390,1,2,0:0:0:0:
224,192,44790,1,2,0:0:0:0:
352,192,45190,1,2,0:0:0:0:
160,192,45590,1,2,0:0:0:0:
288,192,45990,1,2,0:0:0:0:
96,192,46390,1,2,0:0:0:0:
224,192,46790,1,2,0:0:0:0:
352,192,47190,1,2,0:0:0:0:
480,192,47590,1,2,0:0:0:0:
224,192,47990,1,2,0:0:0:0:
96,192,48390,1,2,0:0:0:0:
288,192,48790,1,2,0:0:0:0:
160,192,49190,1,2,0:0:0:0:
480,192,49390,1,2,0:0:0:0:
352,192,49590,1,2,0:0:0:0:
224,192,49990,1,2,0:0:0:0:
416,192,50390,1,2,0:0:0:0:
288,192,50790,1,2,0:0:0:0:
480,192,51190,1,2,0:0:0:0:
96,192,51590,1,2,0:0:0:0:
416,192,51990,1,2,0:0:0:0:
160,192,52390,1,2,0:0:0:0:
352,192,52790,1,2,0:0:0:0:
224,192,53190,1,2,0:0:0:0:
288,192,53590,1,2,0:0:0:0:
352,192,53990,1,2,0:0:0:0:
416,192,54390,1,2,0:0:0:0:
480,192,54790,1,2,0:0:0:0:
352,192,55190,1,2,0:0:0:0:
224,192,55390,1,2,0:0:0:0:
96,192,55590,1,0,0:0:0:0:
288,192,55990,1,4,0:0:0:0:
480,192,55990,1,2,0:0:0:0:
96,192,56390,1,2,0:0:0:0:
160,192,56390,1,8,0:0:0:0:
352,192,56790,1,2,0:0:0:0:
160,192,57190,1,2,0:0:0:0:
224,192,57190,1,8,0:0:0:0:
416,192,57590,1,2,0:0:0:0:
224,192,57990,1,2,0:0:0:0:
288,192,57990,1,8,0:0:0:0:
480,192,58390,1,2,0:0:0:0:
288,192,58790,1,2,0:0:0:0:
352,192,58790,1,8,0:0:0:0:
96,192,59190,1,2,0:0:0:0:
352,192,59590,1,2,0:0:0:0:
416,192,59590,1,8,0:0:0:0:
160,192,59990,1,2,0:0:0:0:
416,192,60390,1,2,0:0:0:0:
480,192,60390,1,8,0:0:0:0:
224,192,60790,1,2,0:0:0:0:
96,192,61190,1,2,0:0:0:0:
480,192,61190,1,8,0:0:0:0:
288,192,61590,1,2,0:0:0:0:
96,192,61990,1,2,0:0:0:0:
160,192,61990,1,8,0:0:0:0:
352,192,62390,1,2,0:0:0:0:
160,192,62790,1,2,0:0:0:0:
224,192,62790,1,8,0:0:0:0:
416,192,63190,1,2,0:0:0:0:
224,192,63590,1,2,0:0:0:0:
288,192,63590,1,8,0:0:0:0:
480,192,63990,1,2,0:0:0:0:
288,192,64390,1,2,0:0:0:0:
352,192,64390,1,8,0:0:0:0:
96,192,64790,1,2,0:0:0:0:
160,192,65190,1,2,0:0:0:0:
416,192,65190,1,8,0:0:0:0:
224,192,65590,1,2,0:0:0:0:
288,192,65990,1,2,0:0:0:0:
480,192,65990,1,8,0:0:0:0:
352,192,66390,1,2,0:0:0:0:
96,192,66790,1,2,0:0:0:0:
416,192,66790,1,8,0:0:0:0:
160,192,67190,1,2,0:0:0:0:
416,192,67590,1,0,0:0:0:0:
288,192,67790,1,0,0:0:0:40:hi-hat.wav
160,192,67990,1,0,0:0:0:0:
416,192,68390,1,2,0:0:0:0:
352,192,68590,1,2,0:0:0:0:
32,192,68790,1,4,0:0:0:0:
288,192,68790,1,0,0:0:0:40:FX_IntroKick.wav
160,192,69190,1,0,0:0:0:0:
352,192,69390,1,0,0:0:0:0:
288,192,70390,1,0,0:0:0:0:
224,192,71190,1,0,0:0:0:0:
160,192,71990,1,0,0:0:0:0:
288,192,72190,1,0,0:0:0:0:
416,192,72390,1,0,0:0:0:0:
96,192,72590,1,0,0:0:0:0:
480,192,73590,1,0,0:0:0:0:
352,192,74390,1,0,0:0:0:0:
96,192,74990,1,0,0:0:0:0:
224,192,75190,1,0,0:0:0:0:
416,192,75590,1,0,0:0:0:0:
288,192,75790,1,0,0:0:0:0:
160,192,76790,1,0,0:0:0:0:
288,192,76990,1,0,0:0:0:0:
480,192,77190,1,0,0:0:0:0:
224,192,77390,1,0,0:0:0:0:
352,192,77590,1,0,0:0:0:0:
352,192,78390,1,0,0:0:0:0:
224,192,78590,1,0,0:0:0:0:
96,192,78790,1,0,0:0:0:0:
416,192,78990,1,0,0:0:0:0:
288,192,79190,1,0,0:0:0:0:
224,192,79590,1,0,0:0:0:0:
160,192,79790,1,0,0:0:0:0:
416,192,79990,1,0,0:0:0:0:
288,192,80390,1,0,0:0:0:0:
352,192,80590,1,0,0:0:0:0:
416,192,80790,1,0,0:0:0:0:
224,192,80990,1,0,0:0:0:0:
288,192,81190,1,0,0:0:0:0:
32,192,81590,1,4,0:0:0:0:
480,192,81590,1,0,0:0:0:40:FX_IntroKick.wav
160,192,81990,1,0,0:0:0:0:
160,192,82390,1,0,0:0:0:0:
288,192,82790,1,0,0:0:0:0:
288,192,83190,1,0,0:0:0:0:
416,192,83590,1,0,0:0:0:0:
416,192,83990,1,0,0:0:0:0:
96,192,84390,1,0,0:0:0:0:
96,192,84790,1,0,0:0:0:0:
224,192,85190,1,0,0:0:0:0:
224,192,85590,1,0,0:0:0:0:
352,192,85990,1,0,0:0:0:0:
352,192,86390,1,0,0:0:0:0:
480,192,86790,1,0,0:0:0:0:
480,192,87190,1,0,0:0:0:0:
224,192,87590,1,0,0:0:0:0:
96,192,87990,1,2,0:0:0:0:
224,192,87990,1,0,0:0:0:0:
352,192,88390,1,0,0:0:0:0:
224,192,88790,1,2,0:0:0:0:
352,192,88790,1,0,0:0:0:0:
416,192,89190,1,0,0:0:0:0:
288,192,89590,1,2,0:0:0:0:
416,192,89590,1,0,0:0:0:0:
96,192,89990,1,0,0:0:0:0:
96,192,90390,1,2,0:0:0:0:
160,192,90390,1,0,0:0:0:0:
352,192,90590,1,0,0:0:0:40:hi-hat.wav
224,192,90790,1,0,0:0:0:0:
352,192,90990,1,2,0:0:0:0:
160,192,91390,1,0,0:0:0:40:hi-hat.wav
288,192,91590,1,0,0:0:0:0:
416,192,91790,1,0,0:0:0:40:hi-hat.wav
224,192,91990,1,2,0:0:0:0:
352,192,92190,1,0,0:0:0:40:hi-hat.wav
96,192,92590,1,0,0:0:0:40:hi-hat.wav
224,192,92790,1,2,0:0:0:0:
480,192,92990,1,0,0:0:0:40:hi-hat.wav
352,192,93190,1,2,0:0:0:0:
224,192,93390,1,0,0:0:0:40:hi-hat.wav
480,192,93790,1,2,0:0:0:0:
352,192,93990,1,2,0:0:0:0:
224,192,94190,1,2,0:0:0:0:
32,192,94390,1,2,0:0:0:0:
96,192,94390,1,4,0:0:0:0:
224,192,94790,1,2,0:0:0:0:
352,192,94790,1,8,0:0:0:0:
480,192,95190,1,2,0:0:0:0:
160,192,95590,1,2,0:0:0:0:
288,192,95590,1,8,0:0:0:0:
416,192,95990,1,2,0:0:0:0:
96,192,96390,1,2,0:0:0:0:
224,192,96390,1,8,0:0:0:0:
352,192,96790,1,2,0:0:0:0:
96,192,97190,1,2,0:0:0:0:
480,192,97190,1,8,0:0:0:0:
224,192,97590,1,2,0:0:0:0:
352,192,97990,1,2,0:0:0:0:
480,192,97990,1,8,0:0:0:0:
160,192,98390,1,2,0:0:0:0:
288,192,98790,1,2,0:0:0:0:
416,192,98790,1,8,0:0:0:0:
96,192,99190,1,2,0:0:0:0:
224,192,99590,1,2,0:0:0:0:
352,192,99590,1,8,0:0:0:0:
480,192,99990,1,2,0:0:0:0:
160,192,100390,1,2,0:0:0:0:
224,192,100390,1,8,0:0:0:0:
352,192,100590,1,2,0:0:0:0:
480,192,100790,1,2,0:0:0:0:
224,192,101190,1,2,0:0:0:0:
288,192,101190,1,8,0:0:0:0:
416,192,101590,1,2,0:0:0:0:
160,192,101990,1,2,0:0:0:0:
224,192,101990,1,8,0:0:0:0:
352,192,102390,1,2,0:0:0:0:
96,192,102790,1,2,0:0:0:0:
160,192,102790,1,8,0:0:0:0:
288,192,103190,1,2,0:0:0:0:
96,192,103590,1,2,0:0:0:0:
480,192,103590,1,8,0:0:0:0:
224,192,103990,1,2,0:0:0:0:
416,192,104390,1,2,0:0:0:0:
480,192,104390,1,8,0:0:0:0:
160,192,104790,1,2,0:0:0:0:
352,192,105190,1,2,0:0:0:0:
416,192,105190,1,8,0:0:0:0:
96,192,105590,1,2,0:0:0:0:
288,192,105990,1,8,0:0:0:0:
224,192,106590,1,2,0:0:0:0:
416,192,106790,1,8,0:0:0:0:
352,192,106990,1,0,0:0:0:40:hi-hat.wav
32,192,107190,1,2,0:0:0:0:
288,192,107190,1,0,0:0:0:0:
416,192,107590,1,2,0:0:0:0:
480,192,107590,1,8,0:0:0:0:
224,192,107990,1,2,0:0:0:0:
352,192,108390,1,2,0:0:0:0:
416,192,108390,1,8,0:0:0:0:
160,192,108790,1,2,0:0:0:0:
288,192,109190,1,2,0:0:0:0:
352,192,109190,1,8,0:0:0:0:
480,192,109590,1,2,0:0:0:0:
224,192,109990,1,2,0:0:0:0:
288,192,109990,1,8,0:0:0:0:
416,192,110390,1,2,0:0:0:0:
160,192,110790,1,2,0:0:0:0:
224,192,110790,1,8,0:0:0:0:
352,192,111190,1,2,0:0:0:0:
96,192,111590,1,2,0:0:0:0:
160,192,111590,1,8,0:0:0:0:
288,192,111990,1,2,0:0:0:0:
96,192,112390,1,2,0:0:0:0:
480,192,112390,1,8,0:0:0:0:
224,192,112790,1,2,0:0:0:0:
416,192,113190,1,2,0:0:0:0:
480,192,113190,1,8,0:0:0:0:
352,192,113390,1,2,0:0:0:0:
288,192,113590,1,2,0:0:0:0:
96,192,113990,1,2,0:0:0:0:
160,192,113990,1,8,0:0:0:0:
352,192,114390,1,2,0:0:0:0:
160,192,114790,1,2,0:0:0:0:
224,192,114790,1,8,0:0:0:0:
416,192,115190,1,2,0:0:0:0:
224,192,115590,1,2,0:0:0:0:
288,192,115590,1,8,0:0:0:0:
96,192,115990,1,2,0:0:0:0:
288,192,116390,1,2,0:0:0:0:
352,192,116390,1,8,0:0:0:0:
160,192,116790,1,2,0:0:0:0:
352,192,117190,1,2,0:0:0:0:
416,192,117190,1,8,0:0:0:0:
224,192,117590,1,2,0:0:0:0:
416,192,117990,1,2,0:0:0:0:
480,192,117990,1,8,0:0:0:0:
288,192,118390,1,2,0:0:0:0:
480,192,118790,1,8,0:0:0:0:
352,192,118990,1,2,0:0:0:0:
224,192,119190,1,2,0:0:0:0:
160,192,119590,1,0,0:0:0:0:
288,192,119790,1,2,0:0:0:0:
32,192,119990,1,4,0:0:0:0:
416,192,119990,1,0,0:0:0:40:FX_IntroKick.wav
160,192,120390,1,0,0:0:0:0:
288,192,120590,1,0,0:0:0:0:
288,192,121590,1,0,0:0:0:0:
224,192,122390,1,0,0:0:0:0:
160,192,123190,1,0,0:0:0:0:
288,192,123390,1,0,0:0:0:0:
352,192,123590,1,0,0:0:0:0:
416,192,123790,1,0,0:0:0:0:
480,192,124790,1,0,0:0:0:0:
96,192,125590,1,0,0:0:0:0:
416,192,126190,1,0,0:0:0:0:
352,192,126390,1,0,0:0:0:0:
160,192,126590,1,0,0:0:0:0:
224,192,126790,1,0,0:0:0:0:
288,192,126990,1,0,0:0:0:0:
416,192,127990,1,0,0:0:0:0:
160,192,128190,1,0,0:0:0:0:
224,192,128390,1,0,0:0:0:0:
288,192,128590,1,0,0:0:0:0:
352,192,128790,1,0,0:0:0:0:
352,192,129590,1,0,0:0:0:0:
288,192,129790,1,0,0:0:0:0:
224,192,129990,1,0,0:0:0:0:
160,192,130190,1,0,0:0:0:0:
96,192,130390,1,0,0:0:0:0:
224,192,130790,1,0,0:0:0:0:
288,192,130990,1,0,0:0:0:0:
352,192,131190,1,0,0:0:0:0:
480,192,131590,1,0,0:0:0:0:
416,192,131790,1,0,0:0:0:0:
352,192,131990,1,0,0:0:0:0:
288,192,132190,1,0,0:0:0:0:
224,192,132390,1,0,0:0:0:0:
160,192,132590,1,0,0:0:0:0:
32,192,132790,1,4,0:0:0:0:
96,192,132790,1,0,0:0:0:40:FX_IntroKick.wav
224,192,133690,1,0,0:0:0:0:
288,192,134390,1,0,0:0:0:0:
352,192,135190,1,0,0:0:0:0:
