osu file format v14

[General]
AudioFilename: amaryllis_7a.ogg
AudioLeadIn: 0
PreviewTime: 94390
Countdown: 0
SampleSet: Soft
StackLeniency: 0.7
Mode: 3
LetterboxInBreaks: 0
SpecialStyle: 1
WidescreenStoryboard: 1

[Editor]
DistanceSpacing: 0.8
BeatDivisor: 4
GridSize: 4
TimelineZoom: 2

[Metadata]
Title:Isetsu Higanbana Daiichi - Gensho no Amaryllis -
TitleUnicode:異説彼岸花 第一 -原初のアマリリス-
Artist:44teru-k remixed wa.
ArtistUnicode:44teru-k remixed wa.
Creator:by-ad
Version:Lily
Source:THE BMS OF FIGHTERS 2010 -THE EVOLUTION OF WAR-
Tags:7+1K 7K+1 7K1S n+1 bof2010 innocence bms of fighters creation records 死腐乃美「彼岸花」第一~螺旋回廊~白紅 shi kusa nomi higanbana dai ichi rasen kairou shiro beni creation:rain rain よしてる yoshiteru わ Video Game Instrumental syrion- mirsaaa
BeatmapID:3969699
BeatmapSetID:1874141

[Difficulty]
HPDrainRate:8.8
CircleSize:8
OverallDifficulty:8.8
ApproachRate:5
SliderMultiplier:1.4
SliderTickRate:1

[Events]
//Background and Video events
0,0,"Source by Beepu owo.jpg",0,0
Video,-77,"video_1.mp4"
//Break Periods
//Storyboard Layer 0 (Background)
//Storyboard Layer 1 (Fail)
//Storyboard Layer 2 (Pass)
//Storyboard Layer 3 (Foreground)
//Storyboard Layer 4 (Overlay)
//Storyboard Sound Samples

[TimingPoints]
1590,400,4,2,1,40,1,0
94390,-100,4,2,1,40,0,1
119990,-100,4,2,1,40,0,0

[HitObjects]
480,192,1590,5,0,0:0:0:0:
416,192,1623,1,0,0:0:0:0:
224,192,1656,1,0,0:0:0:0:
352,192,1656,1,0,0:0:0:0:
160,192,3190,1,0,0:0:0:0:
288,192,3190,1,0,0:0:0:0:
416,192,3190,1,0,0:0:0:0:
96,192,3990,1,0,0:0:0:0:
352,192,3990,1,0,0:0:0:0:
480,192,3990,1,0,0:0:0:0:
160,192,4790,1,0,0:0:0:0:
288,192,4790,1,0,0:0:0:0:
416,192,4790,1,0,0:0:0:0:
480,192,4990,1,0,0:0:0:0:
416,192,5190,1,0,0:0:0:0:
352,192,5390,1,0,0:0:0:0:
96,192,5590,1,0,0:0:0:0:
160,192,5590,1,0,0:0:0:0:
288,192,5590,1,0,0:0:0:0:
160,192,6390,1,0,0:0:0:0:
288,192,6390,1,0,0:0:0:0:
416,192,6390,1,0,0:0:0:0:
288,192,7190,1,0,0:0:0:0:
416,192,7190,1,0,0:0:0:0:
480,192,7190,1,0,0:0:0:0:
96,192,7990,1,0,0:0:0:0:
288,192,7990,1,0,0:0:0:0:
480,192,7990,1,0,0:0:0:0:
224,192,8190,1,0,0:0:0:0:
352,192,8390,1,0,0:0:0:0:
416,192,8590,1,0,0:0:0:0:
224,192,9590,1,0,0:0:0:0:
352,192,9590,1,0,0:0:0:0:
480,192,9590,1,0,0:0:0:0:
160,192,10390,1,0,0:0:0:0:
288,192,10390,1,0,0:0:0:0:
416,192,10390,1,0,0:0:0:0:
96,192,11190,1,0,0:0:0:0:
224,192,11190,1,0,0:0:0:0:
352,192,11190,1,0,0:0:0:0:
416,192,11390,1,0,0:0:0:0:
480,192,11590,1,0,0:0:0:0:
288,192,11790,1,0,0:0:0:0:
224,192,11990,1,0,0:0:0:0:
352,192,11990,1,0,0:0:0:0:
480,192,11990,1,0,0:0:0:0:
96,192,12790,1,0,0:0:0:0:
224,192,12790,1,0,0:0:0:0:
352,192,12790,1,0,0:0:0:0:
160,192,13590,1,0,0:0:0:0:
288,192,13590,1,0,0:0:0:0:
416,192,13590,1,0,0:0:0:0:
96,192,13990,1,0,0:0:0:0:
288,192,13990,1,0,0:0:0:0:
480,192,13990,1,0,0:0:0:0:
160,192,14190,1,0,0:0:0:0:
224,192,14190,1,0,0:0:0:0:
416,192,14190,1,0,0:0:0:0:
32,192,14390,1,4,0:0:0:0:
96,192,14390,1,0,0:0:0:40:FX_IntroKick.wav
288,192,14390,1,0,0:0:0:0:
352,192,14390,1,0,0:0:0:0:
480,192,14390,1,0,0:0:0:0:
224,192,14590,1,0,0:0:0:0:
416,192,14590,1,0,0:0:0:0:
160,192,14790,1,0,0:0:0:0:
352,192,14790,1,0,0:0:0:0:
96,192,14990,1,0,0:0:0:0:
224,192,14990,1,0,0:0:0:0:
480,192,14990,1,0,0:0:0:0:
160,192,15990,1,0,0:0:0:0:
288,192,15990,1,0,0:0:0:0:
416,192,15990,1,0,0:0:0:0:
224,192,16190,1,0,0:0:0:0:
160,192,16390,1,0,0:0:0:0:
96,192,16590,1,0,0:0:0:0:
224,192,16590,1,0,0:0:0:0:
352,192,16590,1,0,0:0:0:0:
416,192,16790,1,0,0:0:0:0:
480,192,16990,1,0,0:0:0:0:
288,192,17190,1,0,0:0:0:0:
352,192,17390,1,0,0:0:0:0:
224,192,17590,1,0,0:0:0:0:
416,192,17590,1,0,0:0:0:0:
480,192,17590,1,0,0:0:0:0:
160,192,17790,1,0,0:0:0:0:
288,192,17990,1,0,0:0:0:0:
96,192,18190,1,0,0:0:0:0:
160,192,18190,1,0,0:0:0:0:
352,192,18190,1,0,0:0:0:0:
224,192,18590,1,0,0:0:0:0:
416,192,18790,1,0,0:0:0:0:
352,192,18990,1,0,0:0:0:0:
160,192,19190,1,0,0:0:0:0:
288,192,19190,1,0,0:0:0:0:
480,192,19190,1,0,0:0:0:0:
96,192,19390,1,0,0:0:0:0:
224,192,19590,1,0,0:0:0:0:
288,192,19790,1,0,0:0:0:0:
416,192,19790,1,0,0:0:0:0:
480,192,19790,1,0,0:0:0:0:
352,192,19990,1,0,0:0:0:0:
224,192,20190,1,0,0:0:0:0:
96,192,20390,1,0,0:0:0:0:
160,192,20390,1,0,0:0:0:0:
352,192,20590,1,0,0:0:0:0:
416,192,20590,1,0,0:0:0:0:
160,192,20790,1,0,0:0:0:0:
288,192,20790,1,0,0:0:0:0:
480,192,20790,1,0,0:0:0:0:
96,192,20990,1,0,0:0:0:0:
480,192,21190,1,0,0:0:0:0:
160,192,21390,1,0,0:0:0:0:
288,192,21390,1,0,0:0:0:0:
416,192,21390,1,0,0:0:0:0:
96,192,21990,1,0,0:0:0:0:
224,192,22190,1,0,0:0:0:0:
288,192,22390,1,0,0:0:0:0:
352,192,22390,1,0,0:0:0:0:
480,192,22390,1,0,0:0:0:0:
224,192,22590,1,0,0:0:0:0:
160,192,22790,1,0,0:0:0:0:
96,192,22990,1,0,0:0:0:0:
288,192,22990,1,0,0:0:0:0:
480,192,22990,1,0,0:0:0:0:
224,192,23590,1,0,0:0:0:0:
416,192,23590,1,0,0:0:0:0:
480,192,23590,1,0,0:0:0:0:
96,192,23990,1,0,0:0:0:0:
224,192,23990,1,0,0:0:0:0:
352,192,23990,1,0,0:0:0:0:
288,192,24190,1,0,0:0:0:0:
160,192,24390,1,0,0:0:0:0:
224,192,24590,1,0,0:0:0:0:
352,192,24590,1,0,0:0:0:0:
480,192,24590,1,0,0:0:0:0:
416,192,24990,1,0,0:0:0:0:
288,192,25190,1,0,0:0:0:0:
160,192,25390,1,0,0:0:0:0:
96,192,25590,1,0,0:0:0:0:
224,192,25590,1,0,0:0:0:0:
352,192,25590,1,0,0:0:0:0:
416,192,25790,1,0,0:0:0:0:
480,192,25990,1,0,0:0:0:0:
160,192,26190,1,0,0:0:0:0:
288,192,26190,1,0,0:0:0:0:
416,192,26190,1,0,0:0:0:0:
96,192,26390,1,0,0:0:0:0:
160,192,26590,1,0,0:0:0:0:
224,192,26790,1,0,0:0:0:0:
352,192,26790,1,0,0:0:0:0:
480,192,26790,1,0,0:0:0:0:
160,192,26990,1,0,0:0:0:0:
288,192,26990,1,0,0:0:0:0:
416,192,26990,1,0,0:0:0:0:
32,192,27190,1,4,0:0:0:0:
96,192,27190,1,0,0:0:0:40:FX_IntroKick.wav
224,192,27190,1,0,0:0:0:0:
352,192,27190,1,0,0:0:0:0:
416,192,27190,1,0,0:0:0:0:
480,192,27190,1,0,0:0:0:0:
288,192,27390,1,0,0:0:0:0:
352,192,27590,1,0,0:0:0:0:
160,192,27790,1,0,0:0:0:0:
96,192,27990,1,0,0:0:0:0:
416,192,27990,1,0,0:0:0:0:
480,192,27990,1,0,0:0:0:0:
160,192,28390,1,0,0:0:0:0:
224,192,28390,1,0,0:0:0:0:
352,192,28590,1,0,0:0:0:0:
416,192,28590,1,0,0:0:0:0:
224,192,28790,1,0,0:0:0:0:
288,192,28790,1,0,0:0:0:0:
96,192,28990,1,0,0:0:0:0:
160,192,28990,1,0,0:0:0:0:
416,192,29190,1,0,0:0:0:0:
480,192,29190,1,0,0:0:0:0:
288,192,29390,1,0,0:0:0:0:
96,192,29590,1,0,0:0:0:0:
224,192,29590,1,0,0:0:0:0:
352,192,29590,1,0,0:0:0:0:
224,192,29990,1,0,0:0:0:0:
352,192,29990,1,0,0:0:0:0:
480,192,29990,1,0,0:0:0:0:
288,192,30190,1,0,0:0:0:0:
96,192,30390,1,0,0:0:0:0:
416,192,30390,1,0,0:0:0:0:
480,192,30390,1,0,0:0:0:0:
160,192,30590,1,0,0:0:0:0:
352,192,30590,1,0,0:0:0:0:
96,192,30790,1,0,0:0:0:0:
224,192,30790,1,0,0:0:0:0:
288,192,30790,1,0,0:0:0:0:
480,192,30990,1,0,0:0:0:0:
224,192,31190,1,0,0:0:0:0:
288,192,31190,1,0,0:0:0:0:
416,192,31190,1,0,0:0:0:0:
96,192,31390,1,0,0:0:0:0:
160,192,31390,1,0,0:0:0:0:
224,192,31590,1,0,0:0:0:0:
352,192,31590,1,0,0:0:0:0:
416,192,31790,1,0,0:0:0:0:
480,192,31790,1,0,0:0:0:0:
96,192,31990,1,0,0:0:0:0:
224,192,31990,1,0,0:0:0:0:
288,192,32190,1,0,0:0:0:0:
352,192,32190,1,0,0:0:0:0:
416,192,32390,1,0,0:0:0:0:
480,192,32390,1,0,0:0:0:0:
224,192,32590,1,0,0:0:0:0:
160,192,32790,1,0,0:0:0:0:
288,192,32790,1,0,0:0:0:0:
416,192,32790,1,0,0:0:0:0:
96,192,32990,1,0,0:0:0:0:
160,192,33190,1,0,0:0:0:0:
352,192,33190,1,0,0:0:0:0:
224,192,33390,1,0,0:0:0:0:
416,192,33390,1,0,0:0:0:0:
32,192,33590,1,0,0:0:0:20:soft-hitwhistle.wav
96,192,33590,1,0,0:0:0:0:
288,192,33590,1,0,0:0:0:0:
352,192,33590,1,0,0:0:0:0:
480,192,33590,1,0,0:0:0:0:
160,192,33790,1,0,0:0:0:0:
224,192,33990,1,0,0:0:0:20:soft-hitwhistle.wav
416,192,33990,1,0,0:0:0:0:
288,192,34190,1,0,0:0:0:0:
96,192,34390,1,0,0:0:0:20:soft-hitwhistle.wav
160,192,34390,1,0,0:0:0:20:soft-hitclap.wav
352,192,34390,1,0,0:0:0:0:
416,192,34390,1,0,0:0:0:0:
96,192,34790,1,0,0:0:0:20:soft-hitwhistle.wav
288,192,34790,1,0,0:0:0:0:
160,192,34990,1,0,0:0:0:20:soft-hitwhistle.wav
416,192,34990,1,0,0:0:0:20:soft-hitclap.wav
224,192,35190,1,0,0:0:0:20:soft-hitwhistle.wav
352,192,35190,1,0,0:0:0:0:
480,192,35190,1,0,0:0:0:0:
96,192,35390,1,0,0:0:0:20:soft-hitwhistle.wav
288,192,35390,1,0,0:0:0:20:soft-hitclap.wav
160,192,35590,1,0,0:0:0:20:soft-hitwhistle.wav
352,192,35590,1,0,0:0:0:0:
288,192,35790,1,0,0:0:0:0:
96,192,35990,1,0,0:0:0:20:soft-hitwhistle.wav
224,192,35990,1,0,0:0:0:20:soft-hitclap.wav
352,192,35990,1,0,0:0:0:0:
480,192,35990,1,0,0:0:0:0:
160,192,36390,1,0,0:0:0:20:soft-hitwhistle.wav
416,192,36390,1,0,0:0:0:0:
160,192,36590,1,0,0:0:0:20:soft-hitwhistle.wav
288,192,36590,1,0,0:0:0:20:soft-hitclap.wav
416,192,36590,1,0,0:0:0:0:
96,192,36790,1,0,0:0:0:20:soft-hitwhistle.wav
288,192,36790,1,0,0:0:0:0:
480,192,36790,1,0,0:0:0:0:
352,192,36990,1,0,0:0:0:20:soft-hitwhistle.wav
480,192,36990,1,0,0:0:0:0:
160,192,37190,1,0,0:0:0:20:soft-hitwhistle.wav
288,192,37190,1,0,0:0:0:0:
160,192,37390,1,0,0:0:0:0:
288,192,37390,1,0,0:0:0:0:
96,192,37590,1,0,0:0:0:20:soft-hitwhistle.wav
224,192,37590,1,0,0:0:0:20:soft-hitclap.wav
352,192,37590,1,0,0:0:0:0:
480,192,37590,1,0,0:0:0:0:
96,192,37790,1,2,0:0:0:0:
160,192,37790,1,0,0:0:0:0:
224,192,37990,1,2,0:0:0:0:
352,192,37990,1,0,0:0:0:0:
160,192,38190,1,2,0:0:0:0:
288,192,38190,1,0,0:0:0:20:soft-hitclap.wav
416,192,38190,1,0,0:0:0:0:
96,192,38390,1,0,0:0:0:30:soft-hitwhistle.wav
480,192,38390,1,0,0:0:0:0:
160,192,38490,1,0,0:0:0:30:soft-hitwhistle.wav
416,192,38490,1,0,0:0:0:0:
288,192,38590,1,0,0:0:0:30:soft-hitwhistle.wav
352,192,38590,1,0,0:0:0:20:soft-hitclap.wav
480,192,38590,1,0,0:0:0:0:
160,192,38690,1,0,0:0:0:30:soft-hitwhistle.wav
224,192,38690,1,0,0:0:0:0:
96,192,38790,1,0,0:0:0:30:soft-hitwhistle.wav
352,192,38790,1,0,0:0:0:0:
480,192,38790,1,0,0:0:0:0:
224,192,38890,1,0,0:0:0:30:soft-hitwhistle.wav
288,192,38890,1,0,0:0:0:0:
96,192,38990,1,0,0:0:0:30:soft-hitwhistle.wav
160,192,38990,1,0,0:0:0:0:
416,192,38990,1,0,0:0:0:0:
224,192,39090,1,0,0:0:0:30:soft-hitwhistle.wav
288,192,39090,1,0,0:0:0:0:
352,192,39190,1,2,0:0:0:0:
416,192,39190,1,0,0:0:0:20:soft-hitclap.wav
480,192,39190,1,0,0:0:0:0:
96,192,39290,1,2,0:0:0:0:
160,192,39290,1,0,0:0:0:0:
224,192,39290,1,0,0:0:0:0:
288,192,39390,1,2,0:0:0:0:
352,192,39390,1,0,0:0:0:0:
416,192,39390,1,0,0:0:0:0:
96,192,39490,1,2,0:0:0:0:
160,192,39490,1,0,0:0:0:0:
480,192,39490,1,0,0:0:0:0:
224,192,39590,1,2,0:0:0:0:
288,192,39590,1,0,0:0:0:0:
352,192,39590,1,0,0:0:0:0:
96,192,39690,1,2,0:0:0:0:
416,192,39690,1,0,0:0:0:0:
480,192,39690,1,0,0:0:0:0:
160,192,39790,1,2,0:0:0:0:
224,192,39790,1,0,0:0:0:0:
288,192,39790,1,0,0:0:0:0:
352,192,39890,1,2,0:0:0:0:
416,192,39890,1,0,0:0:0:0:
480,192,39890,1,0,0:0:0:0:
32,192,39990,1,2,0:0:0:0:
96,192,39990,1,4,0:0:0:0:
224,192,39990,1,0,0:0:0:0:
288,192,39990,1,0,0:0:0:0:
352,192,40090,1,0,0:0:0:0:
416,192,40190,1,0,0:0:0:0:
480,192,40290,1,0,0:0:0:0:
96,192,40390,1,0,0:0:0:0:
288,192,40390,1,0,0:0:0:0:
160,192,40490,1,0,0:0:0:0:
224,192,40590,1,0,0:0:0:0:
352,192,40690,1,0,0:0:0:0:
288,192,40790,1,0,0:0:0:0:
480,192,40790,1,0,0:0:0:0:
224,192,40890,1,0,0:0:0:0:
160,192,40990,1,0,0:0:0:0:
416,192,41090,1,0,0:0:0:0:
96,192,41190,1,0,0:0:0:0:
352,192,41190,1,0,0:0:0:0:
288,192,41290,1,0,0:0:0:0:
160,192,41390,1,0,0:0:0:0:
224,192,41490,1,0,0:0:0:0:
96,192,41590,1,0,0:0:0:0:
288,192,41590,1,0,0:0:0:0:
416,192,41590,1,0,0:0:0:0:
160,192,41690,1,0,0:0:0:0:
480,192,41690,1,0,0:0:0:0:
224,192,41790,1,0,0:0:0:0:
416,192,41790,1,0,0:0:0:0:
352,192,41890,1,0,0:0:0:0:
288,192,41990,1,0,0:0:0:0:
480,192,41990,1,0,0:0:0:0:
224,192,42090,1,0,0:0:0:0:
416,192,42090,1,0,0:0:0:0:
160,192,42190,1,0,0:0:0:0:
352,192,42190,1,0,0:0:0:0:
96,192,42290,1,0,0:0:0:0:
288,192,42290,1,0,0:0:0:0:
224,192,42390,1,0,0:0:0:0:
416,192,42390,1,0,0:0:0:0:
480,192,42390,1,0,0:0:0:0:
96,192,42490,1,0,0:0:0:0:
288,192,42490,1,0,0:0:0:0:
160,192,42590,1,0,0:0:0:0:
352,192,42590,1,0,0:0:0:0:
224,192,42690,1,0,0:0:0:0:
416,192,42690,1,0,0:0:0:0:
96,192,42790,1,0,0:0:0:0:
288,192,42790,1,0,0:0:0:0:
480,192,42790,1,0,0:0:0:0:
160,192,42890,1,0,0:0:0:0:
352,192,42890,1,0,0:0:0:0:
224,192,42990,1,0,0:0:0:0:
416,192,42990,1,0,0:0:0:0:
160,192,43090,1,0,0:0:0:0:
352,192,43090,1,0,0:0:0:0:
32,192,43190,1,2,0:0:0:0:
96,192,43190,1,4,0:0:0:0:
288,192,43190,1,0,0:0:0:0:
480,192,43190,1,0,0:0:0:0:
224,192,43290,1,0,0:0:0:0:
96,192,43390,1,0,0:0:0:40:hi-hat.wav
352,192,43390,1,0,0:0:0:0:
160,192,43490,1,0,0:0:0:0:
288,192,43490,1,0,0:0:0:0:
416,192,43490,1,0,0:0:0:0:
96,192,43590,1,2,0:0:0:0:
224,192,43590,1,0,0:0:0:0:
352,192,43590,1,0,0:0:0:0:
480,192,43590,1,0,0:0:0:0:
160,192,43690,1,0,0:0:0:0:
288,192,43790,1,0,0:0:0:40:hi-hat.wav
416,192,43790,1,0,0:0:0:0:
160,192,43890,1,0,0:0:0:0:
352,192,43890,1,0,0:0:0:0:
96,192,43990,1,2,0:0:0:0:
224,192,43990,1,0,0:0:0:0:
416,192,43990,1,0,0:0:0:0:
480,192,43990,1,0,0:0:0:0:
288,192,44090,1,0,0:0:0:0:
224,192,44190,1,0,0:0:0:40:hi-hat.wav
352,192,44190,1,0,0:0:0:0:
480,192,44190,1,0,0:0:0:0:
416,192,44290,1,0,0:0:0:0:
96,192,44390,1,2,0:0:0:0:
160,192,44390,1,0,0:0:0:0:
288,192,44390,1,0,0:0:0:0:
352,192,44390,1,0,0:0:0:0:
224,192,44490,1,0,0:0:0:0:
288,192,44590,1,0,0:0:0:40:hi-hat.wav
480,192,44590,1,0,0:0:0:0:
352,192,44690,1,0,0:0:0:0:
96,192,44790,1,2,0:0:0:0:
224,192,44790,1,0,0:0:0:0:
416,192,44790,1,0,0:0:0:0:
480,192,44790,1,0,0:0:0:0:
288,192,44890,1,0,0:0:0:0:
160,192,44990,1,0,0:0:0:40:hi-hat.wav
416,192,44990,1,0,0:0:0:0:
224,192,45090,1,0,0:0:0:0:
352,192,45090,1,0,0:0:0:0:
480,192,45090,1,0,0:0:0:0:
96,192,45190,1,2,0:0:0:0:
288,192,45190,1,0,0:0:0:0:
416,192,45190,1,0,0:0:0:0:
224,192,45290,1,0,0:0:0:0:
96,192,45390,1,0,0:0:0:40:hi-hat.wav
352,192,45390,1,0,0:0:0:0:
160,192,45490,1,0,0:0:0:0:
288,192,45490,1,0,0:0:0:0:
96,192,45590,1,2,0:0:0:0:
224,192,45590,1,0,0:0:0:0:
416,192,45590,1,0,0:0:0:0:
480,192,45590,1,0,0:0:0:0:
352,192,45690,1,0,0:0:0:0:
96,192,45790,1,0,0:0:0:40:hi-hat.wav
160,192,45790,1,0,0:0:0:0:
288,192,45790,1,0,0:0:0:0:
224,192,45890,1,0,0:0:0:0:
160,192,45990,1,2,0:0:0:0:
288,192,45990,1,0,0:0:0:0:
416,192,45990,1,0,0:0:0:0:
480,192,45990,1,0,0:0:0:0:
352,192,46090,1,0,0:0:0:0:
224,192,46190,1,0,0:0:0:40:hi-hat.wav
416,192,46190,1,0,0:0:0:0:
288,192,46290,1,0,0:0:0:0:
96,192,46390,1,2,0:0:0:0:
160,192,46390,1,0,0:0:0:0:
352,192,46390,1,0,0:0:0:0:
480,192,46390,1,0,0:0:0:0:
224,192,46490,1,0,0:0:0:0:
160,192,46590,1,0,0:0:0:40:hi-hat.wav
352,192,46590,1,0,0:0:0:0:
96,192,46690,1,0,0:0:0:0:
288,192,46690,1,0,0:0:0:0:
416,192,46690,1,0,0:0:0:0:
160,192,46790,1,2,0:0:0:0:
224,192,46790,1,0,0:0:0:0:
352,192,46790,1,0,0:0:0:0:
480,192,46790,1,0,0:0:0:0:
416,192,46890,1,0,0:0:0:0:
96,192,46990,1,0,0:0:0:40:hi-hat.wav
224,192,46990,1,0,0:0:0:0:
288,192,47090,1,0,0:0:0:0:
416,192,47090,1,0,0:0:0:0:
96,192,47190,1,2,0:0:0:0:
160,192,47190,1,0,0:0:0:0:
352,192,47190,1,0,0:0:0:0:
480,192,47190,1,0,0:0:0:0:
224,192,47290,1,0,0:0:0:0:
160,192,47390,1,0,0:0:0:40:hi-hat.wav
288,192,47390,1,0,0:0:0:0:
416,192,47390,1,0,0:0:0:0:
96,192,47490,1,0,0:0:0:0:
224,192,47590,1,2,0:0:0:0:
352,192,47590,1,0,0:0:0:0:
480,192,47590,1,0,0:0:0:0:
288,192,47690,1,0,0:0:0:0:
160,192,47790,1,0,0:0:0:40:hi-hat.wav
416,192,47790,1,0,0:0:0:0:
224,192,47890,1,0,0:0:0:0:
96,192,47990,1,2,0:0:0:0:
288,192,47990,1,0,0:0:0:0:
416,192,47990,1,0,0:0:0:0:
480,192,47990,1,0,0:0:0:0:
352,192,48090,1,0,0:0:0:0:
160,192,48190,1,0,0:0:0:40:hi-hat.wav
416,192,48190,1,0,0:0:0:0:
224,192,48290,1,0,0:0:0:0:
288,192,48290,1,0,0:0:0:0:
480,192,48290,1,0,0:0:0:0:
96,192,48390,1,2,0:0:0:0:
160,192,48390,1,0,0:0:0:0:
352,192,48390,1,0,0:0:0:0:
416,192,48390,1,0,0:0:0:0:
288,192,48490,1,0,0:0:0:0:
160,192,48590,1,0,0:0:0:40:hi-hat.wav
480,192,48590,1,0,0:0:0:0:
224,192,48690,1,0,0:0:0:0:
416,192,48690,1,0,0:0:0:0:
96,192,48790,1,2,0:0:0:0:
288,192,48790,1,0,0:0:0:0:
480,192,48790,1,0,0:0:0:0:
160,192,48890,1,0,0:0:0:0:
352,192,48890,1,0,0:0:0:0:
288,192,48990,1,0,0:0:0:40:hi-hat.wav
416,192,48990,1,0,0:0:0:0:
480,192,48990,1,0,0:0:0:0:
224,192,49090,1,0,0:0:0:0:
96,192,49190,1,2,0:0:0:0:
160,192,49190,1,0,0:0:0:0:
352,192,49190,1,0,0:0:0:0:
288,192,49290,1,0,0:0:0:0:
416,192,49290,1,0,0:0:0:0:
480,192,49290,1,0,0:0:0:0:
96,192,49390,1,2,0:0:0:0:
160,192,49390,1,0,0:0:0:40:hi-hat.wav
224,192,49390,1,0,0:0:0:0:
352,192,49490,1,0,0:0:0:0:
416,192,49490,1,0,0:0:0:0:
480,192,49490,1,0,0:0:0:0:
32,192,49590,1,2,0:0:0:0:
96,192,49590,1,0,0:0:0:0:
160,192,49590,1,0,0:0:0:0:
224,192,49590,1,0,0:0:0:0:
288,192,49590,1,0,0:0:0:0:
416,192,49690,1,0,0:0:0:0:
224,192,49790,1,0,0:0:0:40:hi-hat.wav
480,192,49790,1,0,0:0:0:0:
160,192,49890,1,0,0:0:0:0:
288,192,49890,1,0,0:0:0:0:
352,192,49890,1,0,0:0:0:0:
96,192,49990,1,2,0:0:0:0:
224,192,49990,1,0,0:0:0:0:
416,192,49990,1,0,0:0:0:0:
480,192,49990,1,0,0:0:0:0:
352,192,50090,1,0,0:0:0:0:
160,192,50190,1,0,0:0:0:40:hi-hat.wav
288,192,50190,1,0,0:0:0:0:
224,192,50290,1,0,0:0:0:0:
416,192,50290,1,0,0:0:0:0:
96,192,50390,1,2,0:0:0:0:
160,192,50390,1,0,0:0:0:0:
352,192,50390,1,0,0:0:0:0:
480,192,50390,1,0,0:0:0:0:
288,192,50490,1,0,0:0:0:0:
96,192,50590,1,0,0:0:0:40:hi-hat.wav
224,192,50590,1,0,0:0:0:0:
352,192,50590,1,0,0:0:0:0:
160,192,50690,1,0,0:0:0:0:
224,192,50790,1,2,0:0:0:0:
288,192,50790,1,0,0:0:0:0:
416,192,50790,1,0,0:0:0:0:
480,192,50790,1,0,0:0:0:0:
352,192,50890,1,0,0:0:0:0:
96,192,50990,1,0,0:0:0:40:hi-hat.wav
288,192,50990,1,0,0:0:0:0:
224,192,51090,1,0,0:0:0:0:
96,192,51190,1,2,0:0:0:0:
160,192,51190,1,0,0:0:0:0:
352,192,51190,1,0,0:0:0:0:
480,192,51190,1,0,0:0:0:0:
288,192,51290,1,0,0:0:0:0:
96,192,51390,1,0,0:0:0:40:hi-hat.wav
416,192,51390,1,0,0:0:0:0:
160,192,51490,1,0,0:0:0:0:
224,192,51490,1,0,0:0:0:0:
352,192,51490,1,0,0:0:0:0:
96,192,51590,1,2,0:0:0:0:
288,192,51590,1,0,0:0:0:0:
480,192,51590,1,0,0:0:0:0:
160,192,51690,1,0,0:0:0:0:
224,192,51790,1,0,0:0:0:40:hi-hat.wav
480,192,51790,1,0,0:0:0:0:
288,192,51890,1,0,0:0:0:0:
416,192,51890,1,0,0:0:0:0:
96,192,51990,1,2,0:0:0:0:
160,192,51990,1,0,0:0:0:0:
352,192,51990,1,0,0:0:0:0:
480,192,51990,1,0,0:0:0:0:
224,192,52090,1,0,0:0:0:0:
160,192,52190,1,0,0:0:0:40:hi-hat.wav
288,192,52190,1,0,0:0:0:0:
416,192,52190,1,0,0:0:0:0:
352,192,52290,1,0,0:0:0:0:
96,192,52390,1,2,0:0:0:0:
160,192,52390,1,0,0:0:0:0:
288,192,52390,1,0,0:0:0:0:
480,192,52390,1,0,0:0:0:0:
224,192,52490,1,0,0:0:0:0:
160,192,52590,1,0,0:0:0:40:hi-hat.wav
352,192,52590,1,0,0:0:0:0:
416,192,52690,1,0,0:0:0:0:
96,192,52790,1,2,0:0:0:0:
224,192,52790,1,0,0:0:0:0:
288,192,52790,1,0,0:0:0:0:
480,192,52790,1,0,0:0:0:0:
352,192,52890,1,0,0:0:0:0:
224,192,52990,1,0,0:0:0:40:hi-hat.wav
416,192,52990,1,0,0:0:0:0:
160,192,53090,1,0,0:0:0:0:
288,192,53090,1,0,0:0:0:0:
480,192,53090,1,0,0:0:0:0:
96,192,53190,1,2,0:0:0:0:
224,192,53190,1,0,0:0:0:0:
352,192,53190,1,0,0:0:0:0:
416,192,53190,1,0,0:0:0:0:
160,192,53290,1,0,0:0:0:0:
352,192,53390,1,0,0:0:0:40:hi-hat.wav
480,192,53390,1,0,0:0:0:0:
160,192,53490,1,0,0:0:0:0:
224,192,53490,1,0,0:0:0:0:
96,192,53590,1,2,0:0:0:0:
288,192,53590,1,0,0:0:0:0:
416,192,53590,1,0,0:0:0:0:
480,192,53590,1,0,0:0:0:0:
352,192,53690,1,0,0:0:0:0:
160,192,53790,1,0,0:0:0:40:hi-hat.wav
288,192,53790,1,0,0:0:0:0:
416,192,53790,1,0,0:0:0:0:
480,192,53890,1,0,0:0:0:0:
96,192,53990,1,2,0:0:0:0:
224,192,53990,1,0,0:0:0:0:
352,192,53990,1,0,0:0:0:0:
288,192,54090,1,0,0:0:0:0:
160,192,54190,1,0,0:0:0:40:hi-hat.wav
352,192,54190,1,0,0:0:0:0:
416,192,54290,1,0,0:0:0:0:
96,192,54390,1,2,0:0:0:0:
224,192,54390,1,0,0:0:0:0:
352,192,54390,1,0,0:0:0:0:
480,192,54390,1,0,0:0:0:0:
160,192,54490,1,0,0:0:0:0:
288,192,54590,1,0,0:0:0:40:hi-hat.wav
416,192,54590,1,0,0:0:0:0:
96,192,54690,1,0,0:0:0:0:
160,192,54690,1,0,0:0:0:0:
352,192,54690,1,0,0:0:0:0:
224,192,54790,1,2,0:0:0:0:
288,192,54790,1,0,0:0:0:0:
416,192,54790,1,0,0:0:0:0:
480,192,54790,1,0,0:0:0:0:
96,192,54890,1,0,0:0:0:0:
160,192,54990,1,0,0:0:0:40:hi-hat.wav
288,192,54990,1,0,0:0:0:0:
480,192,54990,1,0,0:0:0:0:
352,192,55090,1,0,0:0:0:0:
96,192,55190,1,2,0:0:0:0:
224,192,55190,1,0,0:0:0:0:
416,192,55190,1,0,0:0:0:0:
480,192,55190,1,0,0:0:0:0:
160,192,55390,1,2,0:0:0:0:
288,192,55390,1,0,0:0:0:40:hi-hat.wav
352,192,55390,1,0,0:0:0:0:
416,192,55390,1,0,0:0:0:0:
96,192,55590,1,0,0:0:0:0:
160,192,55590,1,0,0:0:0:0:
224,192,55590,1,0,0:0:0:0:
352,192,55590,1,0,0:0:0:0:
480,192,55590,1,0,0:0:0:0:
224,192,55790,1,2,0:0:0:0:
288,192,55790,1,0,0:0:0:40:hi-hat.wav
416,192,55790,1,0,0:0:0:0:
32,192,55990,1,4,0:0:0:0:
96,192,55990,1,2,0:0:0:0:
160,192,55990,1,0,0:0:0:0:
352,192,55990,1,0,0:0:0:0:
416,192,55990,1,0,0:0:0:0:
480,192,55990,1,0,0:0:0:0:
224,192,56090,1,0,0:0:0:0:
96,192,56190,1,0,0:0:0:40:hi-hat.wav
288,192,56190,1,0,0:0:0:0:
416,192,56190,1,0,0:0:0:0:
160,192,56290,1,0,0:0:0:0:
32,192,56390,1,2,0:0:0:0:
224,192,56390,1,8,0:0:0:0:
352,192,56390,1,0,0:0:0:0:
416,192,56390,1,0,0:0:0:0:
480,192,56390,1,0,0:0:0:0:
288,192,56490,1,0,0:0:0:0:
96,192,56590,1,0,0:0:0:40:hi-hat.wav
160,192,56590,1,0,0:0:0:0:
352,192,56590,1,0,0:0:0:0:
224,192,56690,1,0,0:0:0:0:
96,192,56790,1,2,0:0:0:0:
288,192,56790,1,0,0:0:0:0:
480,192,56790,1,0,0:0:0:0:
416,192,56890,1,0,0:0:0:0:
160,192,56990,1,0,0:0:0:40:hi-hat.wav
224,192,56990,1,0,0:0:0:0:
352,192,56990,1,0,0:0:0:0:
96,192,57090,1,0,0:0:0:0:
32,192,57190,1,2,0:0:0:0:
160,192,57190,1,8,0:0:0:0:
224,192,57190,1,0,0:0:0:0:
288,192,57190,1,0,0:0:0:0:
480,192,57190,1,0,0:0:0:0:
352,192,57290,1,0,0:0:0:0:
96,192,57390,1,0,0:0:0:40:hi-hat.wav
224,192,57390,1,0,0:0:0:0:
416,192,57390,1,0,0:0:0:0:
480,192,57490,1,0,0:0:0:0:
160,192,57590,1,2,0:0:0:0:
288,192,57590,1,0,0:0:0:0:
352,192,57590,1,0,0:0:0:0:
416,192,57690,1,0,0:0:0:0:
224,192,57790,1,0,0:0:0:40:hi-hat.wav
352,192,57790,1,0,0:0:0:0:
480,192,57790,1,0,0:0:0:0:
160,192,57890,1,0,0:0:0:0:
32,192,57990,1,2,0:0:0:0:
96,192,57990,1,8,0:0:0:0:
288,192,57990,1,0,0:0:0:0:
416,192,57990,1,0,0:0:0:0:
480,192,57990,1,0,0:0:0:0:
224,192,58090,1,0,0:0:0:0:
96,192,58190,1,0,0:0:0:40:hi-hat.wav
160,192,58190,1,0,0:0:0:0:
352,192,58190,1,0,0:0:0:0:
416,192,58290,1,0,0:0:0:0:
96,192,58390,1,2,0:0:0:0:
288,192,58390,1,0,0:0:0:0:
480,192,58390,1,0,0:0:0:0:
160,192,58490,1,0,0:0:0:0:
224,192,58590,1,0,0:0:0:40:hi-hat.wav
416,192,58590,1,0,0:0:0:0:
480,192,58590,1,0,0:0:0:0:
352,192,58690,1,0,0:0:0:0:
32,192,58790,1,2,0:0:0:0:
96,192,58790,1,8,0:0:0:0:
160,192,58790,1,0,0:0:0:0:
224,192,58790,1,0,0:0:0:0:
480,192,58790,1,0,0:0:0:0:
288,192,58890,1,0,0:0:0:0:
160,192,58990,1,0,0:0:0:40:hi-hat.wav
352,192,58990,1,0,0:0:0:0:
416,192,58990,1,0,0:0:0:0:
96,192,59090,1,0,0:0:0:0:
224,192,59190,1,2,0:0:0:0:
288,192,59190,1,0,0:0:0:0:
480,192,59190,1,0,0:0:0:0:
160,192,59290,1,0,0:0:0:0:
96,192,59390,1,0,0:0:0:40:hi-hat.wav
224,192,59390,1,0,0:0:0:0:
352,192,59390,1,0,0:0:0:0:
416,192,59490,1,0,0:0:0:0:
32,192,59590,1,2,0:0:0:0:
96,192,59590,1,8,0:0:0:0:
160,192,59590,1,0,0:0:0:0:
288,192,59590,1,0,0:0:0:0:
480,192,59590,1,0,0:0:0:0:
352,192,59690,1,0,0:0:0:0:
224,192,59790,1,0,0:0:0:40:hi-hat.wav
416,192,59790,1,0,0:0:0:0:
480,192,59790,1,0,0:0:0:0:
160,192,59890,1,0,0:0:0:0:
96,192,59990,1,2,0:0:0:0:
224,192,59990,1,0,0:0:0:0:
352,192,59990,1,0,0:0:0:0:
416,192,60090,1,0,0:0:0:0:
224,192,60190,1,0,0:0:0:40:hi-hat.wav
288,192,60190,1,0,0:0:0:0:
480,192,60190,1,0,0:0:0:0:
160,192,60290,1,0,0:0:0:0:
32,192,60390,1,2,0:0:0:0:
96,192,60390,1,8,0:0:0:0:
288,192,60390,1,0,0:0:0:0:
416,192,60390,1,0,0:0:0:0:
480,192,60390,1,0,0:0:0:0:
224,192,60490,1,0,0:0:0:0:
96,192,60590,1,0,0:0:0:40:hi-hat.wav
160,192,60590,1,0,0:0:0:0:
352,192,60590,1,0,0:0:0:0:
288,192,60690,1,0,0:0:0:0:
160,192,60790,1,2,0:0:0:0:
352,192,60790,1,0,0:0:0:0:
416,192,60790,1,0,0:0:0:0:
224,192,60890,1,0,0:0:0:0:
96,192,60990,1,0,0:0:0:40:hi-hat.wav
288,192,60990,1,0,0:0:0:0:
480,192,60990,1,0,0:0:0:0:
160,192,61090,1,0,0:0:0:0:
32,192,61190,1,2,0:0:0:0:
224,192,61190,1,8,0:0:0:0:
288,192,61190,1,0,0:0:0:0:
352,192,61190,1,0,0:0:0:0:
480,192,61190,1,0,0:0:0:0:
96,192,61290,1,0,0:0:0:0:
224,192,61390,1,0,0:0:0:40:hi-hat.wav
352,192,61390,1,0,0:0:0:0:
416,192,61390,1,0,0:0:0:0:
160,192,61490,1,0,0:0:0:0:
96,192,61590,1,2,0:0:0:0:
288,192,61590,1,0,0:0:0:0:
480,192,61590,1,0,0:0:0:0:
416,192,61690,1,0,0:0:0:0:
160,192,61790,1,0,0:0:0:40:hi-hat.wav
224,192,61790,1,0,0:0:0:0:
352,192,61790,1,0,0:0:0:0:
96,192,61890,1,0,0:0:0:0:
32,192,61990,1,2,0:0:0:0:
224,192,61990,1,8,0:0:0:0:
288,192,61990,1,0,0:0:0:0:
352,192,61990,1,0,0:0:0:0:
480,192,61990,1,0,0:0:0:0:
160,192,62090,1,0,0:0:0:0:
416,192,62090,1,0,0:0:0:0:
96,192,62190,1,2,0:0:0:0:
288,192,62190,1,0,0:0:0:40:hi-hat.wav
352,192,62190,1,0,0:0:0:0:
480,192,62190,1,0,0:0:0:0:
96,192,62390,1,2,0:0:0:0:
160,192,62390,1,0,0:0:0:0:
224,192,62390,1,0,0:0:0:0:
352,192,62390,1,0,0:0:0:0:
416,192,62390,1,0,0:0:0:0:
288,192,62490,1,0,0:0:0:0:
224,192,62590,1,0,0:0:0:40:hi-hat.wav
416,192,62590,1,0,0:0:0:0:
480,192,62590,1,0,0:0:0:0:
160,192,62690,1,0,0:0:0:0:
32,192,62790,1,2,0:0:0:0:
96,192,62790,1,8,0:0:0:0:
288,192,62790,1,0,0:0:0:0:
352,192,62790,1,0,0:0:0:0:
416,192,62790,1,0,0:0:0:0:
224,192,62890,1,0,0:0:0:0:
160,192,62990,1,0,0:0:0:40:hi-hat.wav
352,192,62990,1,0,0:0:0:0:
480,192,62990,1,0,0:0:0:0:
288,192,63090,1,0,0:0:0:0:
96,192,63190,1,2,0:0:0:0:
224,192,63190,1,0,0:0:0:0:
416,192,63190,1,0,0:0:0:0:
352,192,63290,1,0,0:0:0:0:
160,192,63390,1,0,0:0:0:40:hi-hat.wav
288,192,63390,1,0,0:0:0:0:
416,192,63390,1,0,0:0:0:0:
96,192,63490,1,0,0:0:0:0:
32,192,63590,1,2,0:0:0:0:
160,192,63590,1,8,0:0:0:0:
224,192,63590,1,0,0:0:0:0:
352,192,63590,1,0,0:0:0:0:
480,192,63590,1,0,0:0:0:0:
288,192,63690,1,0,0:0:0:0:
96,192,63790,1,0,0:0:0:40:hi-hat.wav
160,192,63790,1,0,0:0:0:0:
416,192,63790,1,0,0:0:0:0:
224,192,63890,1,0,0:0:0:0:
96,192,63990,1,2,0:0:0:0:
288,192,63990,1,0,0:0:0:0:
352,192,63990,1,0,0:0:0:0:
160,192,64090,1,0,0:0:0:0:
224,192,64190,1,0,0:0:0:40:hi-hat.wav
352,192,64190,1,0,0:0:0:0:
416,192,64190,1,0,0:0:0:0:
480,192,64290,1,0,0:0:0:0:
32,192,64390,1,2,0:0:0:0:
96,192,64390,1,8,0:0:0:0:
160,192,64390,1,0,0:0:0:0:
288,192,64390,1,0,0:0:0:0:
416,192,64390,1,0,0:0:0:0:
224,192,64490,1,0,0:0:0:0:
96,192,64590,1,0,0:0:0:40:hi-hat.wav
160,192,64590,1,0,0:0:0:0:
352,192,64590,1,0,0:0:0:0:
288,192,64690,1,0,0:0:0:0:
160,192,64790,1,2,0:0:0:0:
352,192,64790,1,0,0:0:0:0:
480,192,64790,1,0,0:0:0:0:
224,192,64890,1,0,0:0:0:0:
288,192,64990,1,0,0:0:0:40:hi-hat.wav
416,192,64990,1,0,0:0:0:0:
480,192,64990,1,0,0:0:0:0:
160,192,65090,1,0,0:0:0:0:
32,192,65190,1,2,0:0:0:0:
96,192,65190,1,8,0:0:0:0:
224,192,65190,1,0,0:0:0:0:
352,192,65190,1,0,0:0:0:0:
480,192,65190,1,0,0:0:0:0:
416,192,65290,1,0,0:0:0:0:
96,192,65390,1,0,0:0:0:40:hi-hat.wav
288,192,65390,1,0,0:0:0:0:
480,192,65390,1,0,0:0:0:0:
160,192,65490,1,0,0:0:0:0:
224,192,65590,1,2,0:0:0:0:
352,192,65590,1,0,0:0:0:0:
416,192,65590,1,0,0:0:0:0:
288,192,65690,1,0,0:0:0:0:
96,192,65790,1,0,0:0:0:40:hi-hat.wav
224,192,65790,1,0,0:0:0:0:
480,192,65790,1,0,0:0:0:0:
352,192,65890,1,0,0:0:0:0:
32,192,65990,1,2,0:0:0:0:
96,192,65990,1,8,0:0:0:0:
160,192,65990,1,0,0:0:0:0:
288,192,65990,1,0,0:0:0:0:
416,192,65990,1,0,0:0:0:0:
224,192,66090,1,0,0:0:0:0:
160,192,66190,1,0,0:0:0:40:hi-hat.wav
288,192,66190,1,0,0:0:0:0:
352,192,66190,1,0,0:0:0:0:
416,192,66290,1,0,0:0:0:0:
96,192,66390,1,2,0:0:0:0:
288,192,66390,1,0,0:0:0:0:
480,192,66390,1,0,0:0:0:0:
160,192,66490,1,0,0:0:0:0:
96,192,66590,1,0,0:0:0:40:hi-hat.wav
224,192,66590,1,0,0:0:0:0:
352,192,66590,1,0,0:0:0:0:
288,192,66690,1,0,0:0:0:0:
32,192,66790,1,2,0:0:0:0:
160,192,66790,1,8,0:0:0:0:
352,192,66790,1,0,0:0:0:0:
416,192,66790,1,0,0:0:0:0:
480,192,66790,1,0,0:0:0:0:
224,192,66890,1,0,0:0:0:0:
96,192,66990,1,0,0:0:0:40:hi-hat.wav
288,192,66990,1,0,0:0:0:0:
416,192,66990,1,0,0:0:0:0:
224,192,67090,1,0,0:0:0:0:
96,192,67190,1,2,0:0:0:0:
160,192,67190,1,0,0:0:0:0:
352,192,67190,1,0,0:0:0:0:
480,192,67190,1,0,0:0:0:0:
416,192,67290,1,0,0:0:0:0:
224,192,67390,1,0,0:0:0:40:hi-hat.wav
480,192,67390,1,0,0:0:0:0:
288,192,67490,1,0,0:0:0:0:
224,192,67590,1,0,0:0:0:0:
352,192,67590,1,0,0:0:0:0:
160,192,67690,1,0,0:0:0:0:
416,192,67690,1,0,0:0:0:0:
96,192,67790,1,0,0:0:0:40:hi-hat.wav
288,192,67790,1,0,0:0:0:0:
160,192,67890,1,0,0:0:0:0:
352,192,67890,1,0,0:0:0:0:
224,192,67990,1,0,0:0:0:0:
416,192,67990,1,0,0:0:0:0:
288,192,68090,1,0,0:0:0:0:
480,192,68090,1,0,0:0:0:0:
224,192,68190,1,0,0:0:0:40:hi-hat.wav
416,192,68190,1,0,0:0:0:0:
96,192,68290,1,2,0:0:0:0:
160,192,68290,1,0,0:0:0:0:
352,192,68290,1,0,0:0:0:0:
32,192,68390,1,2,0:0:0:0:
224,192,68390,1,0,0:0:0:0:
288,192,68390,1,0,0:0:0:0:
480,192,68390,1,0,0:0:0:0:
160,192,68490,1,0,0:0:0:0:
416,192,68490,1,0,0:0:0:0:
32,192,68590,1,2,0:0:0:0:
96,192,68590,1,0,0:0:0:40:hi-hat.wav
224,192,68590,1,0,0:0:0:0:
352,192,68590,1,0,0:0:0:0:
288,192,68690,1,0,0:0:0:0:
32,192,68790,1,4,0:0:0:0:
96,192,68790,1,0,0:0:0:40:FX_IntroKick.wav
160,192,68790,1,0,0:0:0:0:
352,192,68790,1,0,0:0:0:0:
416,192,68790,1,0,0:0:0:0:
480,192,68790,1,0,0:0:0:0:
288,192,68990,1,0,0:0:0:0:
224,192,69190,1,0,0:0:0:0:
160,192,69390,1,0,0:0:0:0:
352,192,70390,1,0,0:0:0:0:
416,192,70390,1,0,0:0:0:0:
96,192,71190,1,0,0:0:0:0:
160,192,71190,1,0,0:0:0:0:
224,192,71190,1,0,0:0:0:0:
288,192,71990,1,0,0:0:0:0:
352,192,72190,1,0,0:0:0:0:
416,192,72390,1,0,0:0:0:0:
480,192,72590,1,0,0:0:0:0:
96,192,73590,1,0,0:0:0:0:
160,192,73590,1,0,0:0:0:0:
288,192,74390,1,0,0:0:0:0:
352,192,74390,1,0,0:0:0:0:
416,192,74390,1,0,0:0:0:0:
480,192,74790,1,0,0:0:0:0:
160,192,74890,1,0,0:0:0:0:
224,192,74990,1,0,0:0:0:0:
352,192,74990,1,0,0:0:0:0:
288,192,75090,1,0,0:0:0:0:
416,192,75090,1,0,0:0:0:0:
96,192,75190,1,0,0:0:0:0:
160,192,75190,1,0,0:0:0:0:
480,192,75190,1,0,0:0:0:0:
224,192,75390,1,0,0:0:0:0:
352,192,75590,1,0,0:0:0:0:
288,192,75790,1,0,0:0:0:0:
160,192,76790,1,0,0:0:0:0:
416,192,76790,1,0,0:0:0:0:
352,192,76990,1,0,0:0:0:0:
224,192,77190,1,0,0:0:0:0:
288,192,77390,1,0,0:0:0:0:
96,192,77590,1,0,0:0:0:0:
352,192,77590,1,0,0:0:0:0:
480,192,77590,1,0,0:0:0:0:
160,192,78390,1,0,0:0:0:0:
288,192,78390,1,0,0:0:0:0:
416,192,78390,1,0,0:0:0:0:
96,192,78590,1,0,0:0:0:0:
224,192,78790,1,0,0:0:0:0:
352,192,78990,1,0,0:0:0:0:
480,192,79190,1,0,0:0:0:0:
288,192,79390,1,0,0:0:0:0:
160,192,79590,1,0,0:0:0:0:
416,192,79790,1,0,0:0:0:0:
96,192,79990,1,0,0:0:0:0:
288,192,79990,1,0,0:0:0:0:
480,192,79990,1,0,0:0:0:0:
224,192,80190,1,0,0:0:0:0:
160,192,80390,1,0,0:0:0:0:
96,192,80590,1,0,0:0:0:0:
288,192,80790,1,0,0:0:0:0:
480,192,80990,1,0,0:0:0:0:
416,192,81190,1,0,0:0:0:0:
352,192,81390,1,0,0:0:0:0:
32,192,81590,1,4,0:0:0:0:
96,192,81590,1,0,0:0:0:40:FX_IntroKick.wav
224,192,81590,1,0,0:0:0:0:
288,192,81590,1,0,0:0:0:0:
416,192,81590,1,0,0:0:0:0:
480,192,81590,1,0,0:0:0:0:
160,192,81790,1,0,0:0:0:40:hi-hat.wav
352,192,81790,1,0,0:0:0:0:
224,192,81990,1,0,0:0:0:0:
416,192,81990,1,0,0:0:0:0:
288,192,82190,1,0,0:0:0:40:hi-hat.wav
480,192,82190,1,0,0:0:0:0:
224,192,82390,1,0,0:0:0:0:
416,192,82390,1,0,0:0:0:0:
160,192,82590,1,0,0:0:0:40:hi-hat.wav
352,192,82590,1,0,0:0:0:0:
96,192,82790,1,0,0:0:0:0:
288,192,82790,1,0,0:0:0:0:
480,192,82790,1,0,0:0:0:0:
160,192,82990,1,0,0:0:0:40:hi-hat.wav
224,192,82990,1,0,0:0:0:0:
352,192,82990,1,0,0:0:0:0:
96,192,83190,1,0,0:0:0:0:
416,192,83190,1,0,0:0:0:0:
480,192,83190,1,0,0:0:0:0:
160,192,83390,1,0,0:0:0:40:hi-hat.wav
352,192,83390,1,0,0:0:0:0:
96,192,83590,1,0,0:0:0:0:
224,192,83590,1,0,0:0:0:0:
352,192,83790,1,0,0:0:0:40:hi-hat.wav
480,192,83790,1,0,0:0:0:0:
224,192,83990,1,0,0:0:0:0:
416,192,83990,1,0,0:0:0:0:
160,192,84190,1,0,0:0:0:40:hi-hat.wav
352,192,84190,1,0,0:0:0:0:
96,192,84390,1,0,0:0:0:0:
224,192,84390,1,0,0:0:0:0:
480,192,84390,1,0,0:0:0:0:
288,192,84590,1,0,0:0:0:40:hi-hat.wav
352,192,84590,1,0,0:0:0:0:
416,192,84590,1,0,0:0:0:0:
96,192,84790,1,0,0:0:0:0:
160,192,84790,1,0,0:0:0:0:
480,192,84790,1,0,0:0:0:0:
224,192,84990,1,0,0:0:0:40:hi-hat.wav
416,192,84990,1,0,0:0:0:0:
352,192,85190,1,0,0:0:0:0:
480,192,85190,1,0,0:0:0:0:
224,192,85390,1,0,0:0:0:40:hi-hat.wav
416,192,85390,1,0,0:0:0:0:
96,192,85590,1,0,0:0:0:0:
288,192,85590,1,0,0:0:0:0:
224,192,85790,1,0,0:0:0:40:hi-hat.wav
352,192,85790,1,0,0:0:0:0:
160,192,85990,1,0,0:0:0:0:
288,192,85990,1,0,0:0:0:0:
416,192,85990,1,0,0:0:0:0:
96,192,86190,1,0,0:0:0:40:hi-hat.wav
224,192,86190,1,0,0:0:0:0:
480,192,86190,1,0,0:0:0:0:
160,192,86390,1,0,0:0:0:0:
352,192,86390,1,0,0:0:0:0:
416,192,86390,1,0,0:0:0:0:
96,192,86590,1,0,0:0:0:40:hi-hat.wav
288,192,86590,1,0,0:0:0:0:
160,192,86790,1,0,0:0:0:0:
352,192,86790,1,0,0:0:0:0:
288,192,86990,1,0,0:0:0:40:hi-hat.wav
480,192,86990,1,0,0:0:0:0:
224,192,87190,1,0,0:0:0:0:
416,192,87190,1,0,0:0:0:0:
160,192,87390,1,0,0:0:0:40:hi-hat.wav
352,192,87390,1,0,0:0:0:0:
96,192,87590,1,0,0:0:0:0:
288,192,87590,1,0,0:0:0:0:
480,192,87590,1,0,0:0:0:0:
224,192,87690,1,0,0:0:0:0:
160,192,87790,1,0,0:0:0:40:hi-hat.wav
352,192,87790,1,0,0:0:0:0:
416,192,87790,1,0,0:0:0:0:
288,192,87890,1,0,0:0:0:0:
32,192,87990,1,2,0:0:0:0:
96,192,87990,1,0,0:0:0:0:
224,192,87990,1,0,0:0:0:0:
416,192,87990,1,0,0:0:0:0:
480,192,87990,1,0,0:0:0:0:
160,192,88090,1,0,0:0:0:0:
288,192,88190,1,0,0:0:0:40:hi-hat.wav
416,192,88290,1,0,0:0:0:0:
96,192,88390,1,0,0:0:0:0:
480,192,88390,1,0,0:0:0:0:
160,192,88490,1,0,0:0:0:0:
352,192,88490,1,0,0:0:0:0:
288,192,88590,1,0,0:0:0:40:hi-hat.wav
480,192,88590,1,0,0:0:0:0:
224,192,88690,1,0,0:0:0:0:
416,192,88690,1,0,0:0:0:0:
32,192,88790,1,2,0:0:0:0:
96,192,88790,1,0,0:0:0:0:
160,192,88790,1,0,0:0:0:0:
352,192,88790,1,0,0:0:0:0:
288,192,88890,1,0,0:0:0:0:
480,192,88890,1,0,0:0:0:0:
224,192,88990,1,0,0:0:0:40:hi-hat.wav
416,192,88990,1,0,0:0:0:0:
32,192,89090,1,2,0:0:0:0:
96,192,89090,1,0,0:0:0:0:
352,192,89090,1,0,0:0:0:0:
160,192,89190,1,0,0:0:0:0:
480,192,89190,1,0,0:0:0:0:
224,192,89290,1,0,0:0:0:0:
352,192,89290,1,0,0:0:0:0:
288,192,89390,1,0,0:0:0:40:hi-hat.wav
416,192,89390,1,0,0:0:0:0:
224,192,89490,1,0,0:0:0:0:
480,192,89490,1,0,0:0:0:0:
32,192,89590,1,2,0:0:0:0:
96,192,89590,1,0,0:0:0:0:
160,192,89590,1,0,0:0:0:0:
416,192,89590,1,0,0:0:0:0:
288,192,89690,1,0,0:0:0:0:
352,192,89690,1,0,0:0:0:0:
160,192,89790,1,0,0:0:0:40:hi-hat.wav
224,192,89790,1,0,0:0:0:0:
96,192,89890,1,0,0:0:0:0:
416,192,89890,1,0,0:0:0:0:
224,192,89990,1,0,0:0:0:0:
288,192,89990,1,0,0:0:0:0:
352,192,90090,1,0,0:0:0:0:
480,192,90090,1,0,0:0:0:0:
96,192,90190,1,0,0:0:0:40:hi-hat.wav
416,192,90190,1,0,0:0:0:0:
160,192,90290,1,2,0:0:0:0:
352,192,90290,1,0,0:0:0:0:
32,192,90390,1,2,0:0:0:0:
96,192,90390,1,0,0:0:0:0:
224,192,90390,1,0,0:0:0:0:
288,192,90390,1,0,0:0:0:0:
480,192,90390,1,0,0:0:0:0:
416,192,90490,1,0,0:0:0:0:
352,192,90590,1,0,0:0:0:40:hi-hat.wav
32,192,90690,1,2,0:0:0:0:
96,192,90690,1,0,0:0:0:0:
160,192,90690,1,0,0:0:0:0:
224,192,90690,1,0,0:0:0:0:
480,192,90690,1,0,0:0:0:0:
288,192,90790,1,0,0:0:0:0:
416,192,90890,1,0,0:0:0:0:
96,192,90990,1,2,0:0:0:0:
160,192,90990,1,0,0:0:0:40:hi-hat.wav
224,192,90990,1,0,0:0:0:0:
352,192,90990,1,0,0:0:0:0:
288,192,91090,1,0,0:0:0:0:
32,192,91190,1,2,0:0:0:0:
224,192,91190,1,0,0:0:0:0:
416,192,91190,1,0,0:0:0:0:
480,192,91190,1,0,0:0:0:0:
96,192,91290,1,0,0:0:0:0:
352,192,91290,1,0,0:0:0:0:
160,192,91390,1,0,0:0:0:40:hi-hat.wav
416,192,91390,1,0,0:0:0:0:
288,192,91490,1,0,0:0:0:0:
480,192,91490,1,0,0:0:0:0:
96,192,91590,1,0,0:0:0:0:
224,192,91590,1,0,0:0:0:0:
416,192,91590,1,0,0:0:0:0:
160,192,91690,1,0,0:0:0:0:
352,192,91690,1,0,0:0:0:0:
288,192,91790,1,0,0:0:0:40:hi-hat.wav
480,192,91790,1,0,0:0:0:0:
224,192,91890,1,0,0:0:0:0:
416,192,91890,1,0,0:0:0:0:
32,192,91990,1,2,0:0:0:0:
96,192,91990,1,0,0:0:0:0:
160,192,91990,1,0,0:0:0:0:
288,192,91990,1,0,0:0:0:0:
352,192,91990,1,0,0:0:0:0:
224,192,92090,1,0,0:0:0:0:
480,192,92090,1,0,0:0:0:0:
352,192,92190,1,0,0:0:0:40:hi-hat.wav
416,192,92190,1,0,0:0:0:0:
32,192,92290,1,2,0:0:0:0:
96,192,92290,1,0,0:0:0:0:
224,192,92290,1,0,0:0:0:0:
288,192,92290,1,0,0:0:0:0:
480,192,92290,1,0,0:0:0:0:
160,192,92390,1,0,0:0:0:0:
416,192,92390,1,0,0:0:0:0:
224,192,92490,1,0,0:0:0:0:
352,192,92490,1,0,0:0:0:0:
288,192,92590,1,0,0:0:0:40:hi-hat.wav
480,192,92590,1,0,0:0:0:0:
96,192,92690,1,0,0:0:0:0:
352,192,92690,1,0,0:0:0:0:
32,192,92790,1,2,0:0:0:0:
160,192,92790,1,0,0:0:0:0:
224,192,92790,1,0,0:0:0:0:
416,192,92790,1,0,0:0:0:0:
288,192,92890,1,0,0:0:0:0:
352,192,92890,1,0,0:0:0:0:
416,192,92990,1,0,0:0:0:40:hi-hat.wav
480,192,92990,1,0,0:0:0:0:
160,192,93090,1,2,0:0:0:0:
224,192,93090,1,0,0:0:0:0:
288,192,93090,1,0,0:0:0:0:
32,192,93190,1,2,0:0:0:0:
96,192,93190,1,0,0:0:0:0:
352,192,93190,1,0,0:0:0:0:
480,192,93190,1,0,0:0:0:0:
160,192,93290,1,0,0:0:0:0:
224,192,93290,1,0,0:0:0:0:
352,192,93390,1,0,0:0:0:40:hi-hat.wav
416,192,93390,1,0,0:0:0:0:
224,192,93490,1,2,0:0:0:0:
288,192,93490,1,0,0:0:0:0:
160,192,93590,1,0,0:0:0:30:soft-hitwhistle.wav
480,192,93590,1,0,0:0:0:0:
96,192,93640,1,0,0:0:0:30:soft-hitwhistle.wav
416,192,93640,1,0,0:0:0:0:
32,192,93690,1,0,0:0:0:30:soft-hitwhistle.wav
352,192,93690,1,0,0:0:0:0:
288,192,93740,1,0,0:0:0:0:
96,192,93790,1,2,0:0:0:0:
160,192,93790,1,0,0:0:0:40:hi-hat.wav
416,192,93790,1,0,0:0:0:0:
480,192,93790,1,0,0:0:0:0:
32,192,93890,1,2,0:0:0:0:
224,192,93890,1,0,0:0:0:0:
352,192,93890,1,0,0:0:0:0:
96,192,93990,1,2,0:0:0:0:
160,192,93990,1,0,0:0:0:0:
288,192,93990,1,0,0:0:0:0:
480,192,93990,1,0,0:0:0:0:
224,192,94090,1,2,0:0:0:0:
352,192,94090,1,0,0:0:0:0:
416,192,94090,1,0,0:0:0:0:
32,192,94190,1,2,0:0:0:0:
96,192,94190,1,0,0:0:0:40:hi-hat.wav
160,192,94190,1,0,0:0:0:0:
288,192,94190,1,0,0:0:0:0:
416,192,94290,1,2,0:0:0:0:
480,192,94290,1,0,0:0:0:0:
32,192,94390,1,2,0:0:0:0:
96,192,94390,1,4,0:0:0:0:
160,192,94390,1,0,0:0:0:0:
224,192,94390,1,0,0:0:0:0:
288,192,94390,1,0,0:0:0:0:
352,192,94390,1,0,0:0:0:0:
416,192,94490,1,0,0:0:0:0:
224,192,94590,1,0,0:0:0:40:hi-hat.wav
352,192,94590,1,0,0:0:0:0:
480,192,94590,1,0,0:0:0:0:
160,192,94690,1,0,0:0:0:0:
96,192,94790,1,2,0:0:0:0:
224,192,94790,1,8,0:0:0:0:
288,192,94790,1,0,0:0:0:0:
352,192,94790,1,0,0:0:0:0:
416,192,94790,1,0,0:0:0:0:
480,192,94890,1,0,0:0:0:0:
96,192,94990,1,0,0:0:0:40:hi-hat.wav
224,192,94990,1,0,0:0:0:0:
352,192,94990,1,0,0:0:0:0:
416,192,95090,1,0,0:0:0:0:
160,192,95190,1,2,0:0:0:0:
288,192,95190,1,0,0:0:0:0:
480,192,95190,1,0,0:0:0:0:
224,192,95290,1,0,0:0:0:0:
96,192,95390,1,0,0:0:0:40:hi-hat.wav
352,192,95390,1,0,0:0:0:0:
416,192,95390,1,0,0:0:0:0:
224,192,95490,1,0,0:0:0:0:
96,192,95590,1,2,0:0:0:0:
160,192,95590,1,8,0:0:0:0:
352,192,95590,1,0,0:0:0:0:
416,192,95590,1,0,0:0:0:0:
480,192,95590,1,0,0:0:0:0:
288,192,95690,1,0,0:0:0:0:
160,192,95790,1,0,0:0:0:40:hi-hat.wav
224,192,95790,1,0,0:0:0:0:
416,192,95790,1,0,0:0:0:0:
96,192,95990,1,2,0:0:0:0:
224,192,95990,1,0,0:0:0:0:
352,192,95990,1,0,0:0:0:0:
480,192,95990,1,0,0:0:0:0:
160,192,96090,1,0,0:0:0:0:
288,192,96090,1,0,0:0:0:0:
416,192,96090,1,0,0:0:0:0:
480,192,96190,1,0,0:0:0:40:hi-hat.wav
96,192,96290,1,0,0:0:0:0:
224,192,96290,1,0,0:0:0:0:
352,192,96290,1,0,0:0:0:0:
160,192,96390,1,2,0:0:0:0:
288,192,96390,1,8,0:0:0:0:
416,192,96390,1,0,0:0:0:0:
480,192,96390,1,0,0:0:0:0:
96,192,96490,1,0,0:0:0:0:
224,192,96590,1,0,0:0:0:40:hi-hat.wav
352,192,96590,1,0,0:0:0:0:
480,192,96590,1,0,0:0:0:0:
160,192,96690,1,0,0:0:0:0:
288,192,96690,1,0,0:0:0:0:
416,192,96690,1,0,0:0:0:0:
96,192,96790,1,2,0:0:0:0:
224,192,96790,1,0,0:0:0:0:
352,192,96890,1,0,0:0:0:0:
160,192,96990,1,0,0:0:0:40:hi-hat.wav
288,192,96990,1,0,0:0:0:0:
416,192,96990,1,0,0:0:0:0:
480,192,96990,1,0,0:0:0:0:
96,192,97190,1,2,0:0:0:0:
224,192,97190,1,8,0:0:0:0:
288,192,97190,1,0,0:0:0:0:
352,192,97190,1,0,0:0:0:0:
416,192,97190,1,0,0:0:0:0:
480,192,97190,1,0,0:0:0:0:
96,192,97390,1,0,0:0:0:40:hi-hat.wav
160,192,97390,1,0,0:0:0:0:
288,192,97390,1,0,0:0:0:0:
352,192,97390,1,0,0:0:0:0:
160,192,97590,1,2,0:0:0:0:
288,192,97590,1,0,0:0:0:0:
416,192,97590,1,0,0:0:0:0:
480,192,97590,1,0,0:0:0:0:
96,192,97690,1,0,0:0:0:0:
224,192,97690,1,0,0:0:0:0:
352,192,97690,1,0,0:0:0:0:
480,192,97790,1,0,0:0:0:40:hi-hat.wav
160,192,97890,1,0,0:0:0:0:
288,192,97890,1,0,0:0:0:0:
416,192,97890,1,0,0:0:0:0:
96,192,97990,1,2,0:0:0:0:
224,192,97990,1,8,0:0:0:0:
352,192,97990,1,0,0:0:0:0:
480,192,97990,1,0,0:0:0:0:
160,192,98090,1,0,0:0:0:0:
96,192,98190,1,0,0:0:0:40:hi-hat.wav
288,192,98190,1,0,0:0:0:0:
416,192,98190,1,0,0:0:0:0:
224,192,98290,1,0,0:0:0:0:
352,192,98290,1,0,0:0:0:0:
480,192,98290,1,0,0:0:0:0:
96,192,98390,1,2,0:0:0:0:
160,192,98390,1,0,0:0:0:0:
224,192,98490,1,0,0:0:0:0:
352,192,98490,1,0,0:0:0:0:
480,192,98490,1,0,0:0:0:0:
416,192,98590,1,0,0:0:0:40:hi-hat.wav
96,192,98690,1,0,0:0:0:0:
160,192,98690,1,0,0:0:0:0:
288,192,98690,1,0,0:0:0:0:
224,192,98790,1,2,0:0:0:0:
352,192,98790,1,8,0:0:0:0:
416,192,98790,1,0,0:0:0:0:
480,192,98790,1,0,0:0:0:0:
160,192,98890,1,0,0:0:0:0:
288,192,98890,1,0,0:0:0:0:
96,192,98990,1,0,0:0:0:40:hi-hat.wav
352,192,98990,1,0,0:0:0:0:
480,192,98990,1,0,0:0:0:0:
96,192,99190,1,2,0:0:0:0:
224,192,99190,1,0,0:0:0:0:
416,192,99190,1,0,0:0:0:0:
480,192,99190,1,0,0:0:0:0:
160,192,99290,1,0,0:0:0:0:
288,192,99290,1,0,0:0:0:0:
352,192,99290,1,0,0:0:0:0:
224,192,99390,1,0,0:0:0:40:hi-hat.wav
160,192,99490,1,0,0:0:0:0:
352,192,99490,1,0,0:0:0:0:
480,192,99490,1,0,0:0:0:0:
96,192,99590,1,2,0:0:0:0:
224,192,99590,1,8,0:0:0:0:
288,192,99590,1,0,0:0:0:0:
416,192,99590,1,0,0:0:0:0:
352,192,99690,1,0,0:0:0:0:
160,192,99790,1,0,0:0:0:40:hi-hat.wav
288,192,99790,1,0,0:0:0:0:
480,192,99790,1,0,0:0:0:0:
96,192,99890,1,0,0:0:0:0:
416,192,99890,1,0,0:0:0:0:
224,192,99990,1,2,0:0:0:0:
352,192,99990,1,0,0:0:0:0:
96,192,100090,1,0,0:0:0:0:
288,192,100090,1,0,0:0:0:0:
160,192,100190,1,0,0:0:0:40:hi-hat.wav
416,192,100190,1,0,0:0:0:0:
352,192,100290,1,0,0:0:0:0:
480,192,100290,1,0,0:0:0:0:
96,192,100390,1,2,0:0:0:0:
160,192,100390,1,8,0:0:0:0:
224,192,100390,1,0,0:0:0:0:
288,192,100390,1,0,0:0:0:0:
352,192,100490,1,0,0:0:0:0:
416,192,100490,1,0,0:0:0:0:
96,192,100590,1,2,0:0:0:0:
288,192,100590,1,0,0:0:0:40:hi-hat.wav
480,192,100590,1,0,0:0:0:0:
160,192,100690,1,0,0:0:0:0:
224,192,100690,1,0,0:0:0:0:
288,192,100790,1,2,0:0:0:0:
352,192,100790,1,0,0:0:0:0:
416,192,100790,1,0,0:0:0:0:
480,192,100790,1,0,0:0:0:0:
96,192,100890,1,0,0:0:0:0:
224,192,100890,1,0,0:0:0:0:
160,192,100990,1,0,0:0:0:40:hi-hat.wav
288,192,100990,1,0,0:0:0:0:
416,192,100990,1,0,0:0:0:0:
352,192,101090,1,0,0:0:0:0:
96,192,101190,1,2,0:0:0:0:
160,192,101190,1,8,0:0:0:0:
224,192,101190,1,0,0:0:0:0:
416,192,101190,1,0,0:0:0:0:
480,192,101190,1,0,0:0:0:0:
288,192,101290,1,0,0:0:0:0:
160,192,101390,1,0,0:0:0:40:hi-hat.wav
224,192,101390,1,0,0:0:0:0:
352,192,101390,1,0,0:0:0:0:
416,192,101490,1,0,0:0:0:0:
96,192,101590,1,2,0:0:0:0:
288,192,101590,1,0,0:0:0:0:
480,192,101590,1,0,0:0:0:0:
160,192,101690,1,0,0:0:0:0:
224,192,101790,1,0,0:0:0:40:hi-hat.wav
352,192,101790,1,0,0:0:0:0:
480,192,101790,1,0,0:0:0:0:
288,192,101890,1,0,0:0:0:0:
96,192,101990,1,2,0:0:0:0:
160,192,101990,1,8,0:0:0:0:
352,192,101990,1,0,0:0:0:0:
416,192,101990,1,0,0:0:0:0:
480,192,101990,1,0,0:0:0:0:
224,192,102090,1,0,0:0:0:0:
288,192,102190,1,0,0:0:0:40:hi-hat.wav
352,192,102190,1,0,0:0:0:0:
416,192,102190,1,0,0:0:0:0:
96,192,102390,1,2,0:0:0:0:
224,192,102390,1,0,0:0:0:0:
288,192,102390,1,0,0:0:0:0:
480,192,102390,1,0,0:0:0:0:
160,192,102490,1,0,0:0:0:0:
352,192,102490,1,0,0:0:0:0:
416,192,102490,1,0,0:0:0:0:
288,192,102590,1,0,0:0:0:40:hi-hat.wav
224,192,102690,1,0,0:0:0:0:
352,192,102690,1,0,0:0:0:0:
480,192,102690,1,0,0:0:0:0:
96,192,102790,1,2,0:0:0:0:
160,192,102790,1,8,0:0:0:0:
288,192,102790,1,0,0:0:0:0:
416,192,102790,1,0,0:0:0:0:
480,192,102890,1,0,0:0:0:0:
96,192,102990,1,0,0:0:0:40:hi-hat.wav
224,192,102990,1,0,0:0:0:0:
352,192,102990,1,0,0:0:0:0:
160,192,103090,1,0,0:0:0:0:
288,192,103090,1,0,0:0:0:0:
416,192,103090,1,0,0:0:0:0:
224,192,103190,1,2,0:0:0:0:
480,192,103190,1,0,0:0:0:0:
160,192,103290,1,0,0:0:0:0:
96,192,103390,1,0,0:0:0:40:hi-hat.wav
288,192,103390,1,0,0:0:0:0:
416,192,103390,1,0,0:0:0:0:
480,192,103390,1,0,0:0:0:0:
96,192,103590,1,2,0:0:0:0:
160,192,103590,1,8,0:0:0:0:
224,192,103590,1,0,0:0:0:0:
352,192,103590,1,0,0:0:0:0:
416,192,103590,1,0,0:0:0:0:
160,192,103790,1,0,0:0:0:40:hi-hat.wav
288,192,103790,1,0,0:0:0:0:
352,192,103790,1,0,0:0:0:0:
480,192,103790,1,0,0:0:0:0:
96,192,103990,1,2,0:0:0:0:
224,192,103990,1,0,0:0:0:0:
352,192,103990,1,0,0:0:0:0:
480,192,103990,1,0,0:0:0:0:
160,192,104090,1,0,0:0:0:0:
288,192,104090,1,0,0:0:0:0:
416,192,104090,1,0,0:0:0:0:
96,192,104190,1,0,0:0:0:40:hi-hat.wav
224,192,104290,1,0,0:0:0:0:
352,192,104290,1,0,0:0:0:0:
480,192,104290,1,0,0:0:0:0:
96,192,104390,1,2,0:0:0:0:
160,192,104390,1,8,0:0:0:0:
288,192,104390,1,0,0:0:0:0:
416,192,104390,1,0,0:0:0:0:
480,192,104490,1,0,0:0:0:0:
160,192,104590,1,0,0:0:0:40:hi-hat.wav
288,192,104590,1,0,0:0:0:0:
96,192,104690,1,0,0:0:0:0:
224,192,104690,1,0,0:0:0:0:
352,192,104690,1,0,0:0:0:0:
416,192,104790,1,2,0:0:0:0:
480,192,104790,1,0,0:0:0:0:
96,192,104890,1,0,0:0:0:0:
224,192,104890,1,0,0:0:0:0:
352,192,104890,1,0,0:0:0:0:
160,192,104990,1,0,0:0:0:40:hi-hat.wav
288,192,105090,1,0,0:0:0:0:
352,192,105090,1,0,0:0:0:0:
480,192,105090,1,0,0:0:0:0:
96,192,105190,1,2,0:0:0:0:
160,192,105190,1,8,0:0:0:0:
224,192,105190,1,0,0:0:0:0:
416,192,105190,1,0,0:0:0:0:
288,192,105290,1,0,0:0:0:0:
480,192,105290,1,0,0:0:0:0:
224,192,105390,1,0,0:0:0:40:hi-hat.wav
352,192,105390,1,0,0:0:0:0:
96,192,105590,1,2,0:0:0:0:
288,192,105590,1,0,0:0:0:0:
416,192,105590,1,0,0:0:0:0:
480,192,105590,1,0,0:0:0:0:
224,192,105690,1,0,0:0:0:0:
160,192,105790,1,0,0:0:0:40:hi-hat.wav
352,192,105790,1,0,0:0:0:0:
416,192,105890,1,0,0:0:0:0:
96,192,105990,1,8,0:0:0:0:
288,192,105990,1,0,0:0:0:0:
480,192,105990,1,0,0:0:0:0:
160,192,106090,1,0,0:0:0:0:
224,192,106190,1,0,0:0:0:40:hi-hat.wav
416,192,106190,1,0,0:0:0:0:
352,192,106290,1,0,0:0:0:0:
288,192,106390,1,0,0:0:0:0:
416,192,106390,1,0,0:0:0:0:
32,192,106490,1,0,0:0:0:0:
96,192,106490,1,0,0:0:0:0:
160,192,106490,1,0,0:0:0:0:
224,192,106490,1,0,0:0:0:0:
480,192,106490,1,0,0:0:0:0:
288,192,106590,1,2,0:0:0:0:
352,192,106590,1,0,0:0:0:40:hi-hat.wav
416,192,106590,1,0,0:0:0:0:
160,192,106690,1,2,0:0:0:0:
224,192,106690,1,0,0:0:0:0:
480,192,106690,1,0,0:0:0:0:
32,192,106790,1,8,0:0:0:0:
96,192,106790,1,0,0:0:0:0:
288,192,106790,1,0,0:0:0:0:
352,192,106790,1,0,0:0:0:0:
224,192,106840,1,0,0:0:0:0:
160,192,106890,1,0,0:0:0:0:
96,192,106940,1,0,0:0:0:0:
32,192,106990,1,0,0:0:0:40:hi-hat.wav
352,192,106990,1,0,0:0:0:0:
416,192,106990,1,0,0:0:0:0:
480,192,106990,1,0,0:0:0:0:
288,192,107040,1,0,0:0:0:0:
224,192,107090,1,0,0:0:0:0:
160,192,107140,1,0,0:0:0:0:
32,192,107190,1,2,0:0:0:0:
96,192,107190,1,0,0:0:0:0:
288,192,107190,1,0,0:0:0:0:
416,192,107190,1,0,0:0:0:0:
480,192,107190,1,0,0:0:0:0:
224,192,107290,1,0,0:0:0:0:
352,192,107290,1,0,0:0:0:0:
96,192,107390,1,0,0:0:0:40:hi-hat.wav
288,192,107390,1,0,0:0:0:0:
480,192,107390,1,0,0:0:0:0:
160,192,107490,1,0,0:0:0:0:
416,192,107490,1,0,0:0:0:0:
32,192,107590,1,2,0:0:0:0:
96,192,107590,1,8,0:0:0:0:
224,192,107590,1,0,0:0:0:0:
352,192,107590,1,0,0:0:0:0:
480,192,107590,1,0,0:0:0:0:
416,192,107690,1,0,0:0:0:0:
160,192,107790,1,0,0:0:0:40:hi-hat.wav
288,192,107790,1,0,0:0:0:0:
352,192,107790,1,0,0:0:0:0:
96,192,107890,1,0,0:0:0:0:
224,192,107890,1,0,0:0:0:0:
288,192,107990,1,2,0:0:0:0:
416,192,107990,1,0,0:0:0:0:
480,192,107990,1,0,0:0:0:0:
160,192,108090,1,0,0:0:0:0:
352,192,108090,1,0,0:0:0:0:
96,192,108190,1,0,0:0:0:40:hi-hat.wav
288,192,108190,1,0,0:0:0:0:
480,192,108190,1,0,0:0:0:0:
224,192,108290,1,0,0:0:0:0:
32,192,108390,1,2,0:0:0:0:
96,192,108390,1,8,0:0:0:0:
160,192,108390,1,0,0:0:0:0:
416,192,108390,1,0,0:0:0:0:
480,192,108390,1,0,0:0:0:0:
224,192,108490,1,0,0:0:0:0:
352,192,108490,1,0,0:0:0:0:
160,192,108590,1,0,0:0:0:40:hi-hat.wav
288,192,108590,1,0,0:0:0:0:
416,192,108590,1,0,0:0:0:0:
96,192,108790,1,2,0:0:0:0:
224,192,108790,1,0,0:0:0:0:
352,192,108790,1,0,0:0:0:0:
480,192,108790,1,0,0:0:0:0:
160,192,108890,1,0,0:0:0:0:
416,192,108890,1,0,0:0:0:0:
288,192,108990,1,0,0:0:0:40:hi-hat.wav
352,192,108990,1,0,0:0:0:0:
224,192,109090,1,0,0:0:0:0:
32,192,109190,1,2,0:0:0:0:
96,192,109190,1,8,0:0:0:0:
160,192,109190,1,0,0:0:0:0:
288,192,109190,1,0,0:0:0:0:
480,192,109190,1,0,0:0:0:0:
352,192,109290,1,0,0:0:0:0:
224,192,109390,1,0,0:0:0:40:hi-hat.wav
416,192,109390,1,0,0:0:0:0:
480,192,109390,1,0,0:0:0:0:
160,192,109490,1,0,0:0:0:0:
352,192,109490,1,0,0:0:0:0:
96,192,109590,1,2,0:0:0:0:
288,192,109590,1,0,0:0:0:0:
416,192,109590,1,0,0:0:0:0:
160,192,109790,1,0,0:0:0:40:hi-hat.wav
224,192,109790,1,0,0:0:0:0:
352,192,109790,1,0,0:0:0:0:
480,192,109790,1,0,0:0:0:0:
32,192,109990,1,2,0:0:0:0:
96,192,109990,1,8,0:0:0:0:
288,192,109990,1,0,0:0:0:0:
416,192,109990,1,0,0:0:0:0:
480,192,109990,1,0,0:0:0:0:
160,192,110190,1,0,0:0:0:40:hi-hat.wav
224,192,110190,1,0,0:0:0:0:
288,192,110190,1,0,0:0:0:0:
352,192,110190,1,0,0:0:0:0:
480,192,110190,1,0,0:0:0:0:
96,192,110390,1,2,0:0:0:0:
224,192,110390,1,0,0:0:0:0:
416,192,110390,1,0,0:0:0:0:
480,192,110390,1,0,0:0:0:0:
160,192,110490,1,0,0:0:0:0:
352,192,110490,1,0,0:0:0:0:
96,192,110590,1,0,0:0:0:40:hi-hat.wav
288,192,110590,1,0,0:0:0:0:
416,192,110590,1,0,0:0:0:0:
224,192,110690,1,0,0:0:0:0:
480,192,110690,1,0,0:0:0:0:
32,192,110790,1,2,0:0:0:0:
96,192,110790,1,8,0:0:0:0:
160,192,110790,1,0,0:0:0:0:
288,192,110790,1,0,0:0:0:0:
416,192,110790,1,0,0:0:0:0:
352,192,110890,1,0,0:0:0:0:
160,192,110990,1,0,0:0:0:40:hi-hat.wav
224,192,110990,1,0,0:0:0:0:
480,192,110990,1,0,0:0:0:0:
288,192,111090,1,0,0:0:0:0:
352,192,111090,1,0,0:0:0:0:
96,192,111190,1,2,0:0:0:0:
224,192,111190,1,0,0:0:0:0:
416,192,111190,1,0,0:0:0:0:
160,192,111290,1,0,0:0:0:0:
288,192,111290,1,0,0:0:0:0:
96,192,111390,1,0,0:0:0:40:hi-hat.wav
352,192,111390,1,0,0:0:0:0:
480,192,111390,1,0,0:0:0:0:
224,192,111490,1,0,0:0:0:0:
32,192,111590,1,2,0:0:0:0:
160,192,111590,1,8,0:0:0:0:
288,192,111590,1,0,0:0:0:0:
352,192,111590,1,0,0:0:0:0:
416,192,111590,1,0,0:0:0:0:
96,192,111690,1,0,0:0:0:0:
480,192,111690,1,0,0:0:0:0:
160,192,111790,1,0,0:0:0:40:hi-hat.wav
288,192,111790,1,0,0:0:0:0:
416,192,111790,1,0,0:0:0:0:
96,192,111990,1,2,0:0:0:0:
224,192,111990,1,0,0:0:0:0:
352,192,111990,1,0,0:0:0:0:
480,192,111990,1,0,0:0:0:0:
288,192,112090,1,0,0:0:0:0:
416,192,112090,1,0,0:0:0:0:
160,192,112190,1,0,0:0:0:40:hi-hat.wav
352,192,112190,1,0,0:0:0:0:
224,192,112290,1,0,0:0:0:0:
32,192,112390,1,2,0:0:0:0:
96,192,112390,1,8,0:0:0:0:
288,192,112390,1,0,0:0:0:0:
416,192,112390,1,0,0:0:0:0:
480,192,112390,1,0,0:0:0:0:
160,192,112490,1,0,0:0:0:0:
96,192,112590,1,0,0:0:0:40:hi-hat.wav
224,192,112590,1,0,0:0:0:0:
352,192,112590,1,0,0:0:0:0:
480,192,112690,1,0,0:0:0:0:
160,192,112790,1,2,0:0:0:0:
288,192,112790,1,0,0:0:0:0:
416,192,112790,1,0,0:0:0:0:
96,192,112890,1,0,0:0:0:0:
224,192,112990,1,0,0:0:0:40:hi-hat.wav
352,192,112990,1,0,0:0:0:0:
480,192,112990,1,0,0:0:0:0:
160,192,113090,1,0,0:0:0:0:
32,192,113190,1,2,0:0:0:0:
96,192,113190,1,8,0:0:0:0:
288,192,113190,1,0,0:0:0:0:
416,192,113190,1,0,0:0:0:0:
480,192,113190,1,0,0:0:0:0:
160,192,113290,1,0,0:0:0:0:
224,192,113290,1,0,0:0:0:0:
352,192,113290,1,0,0:0:0:0:
96,192,113390,1,2,0:0:0:0:
288,192,113390,1,0,0:0:0:40:hi-hat.wav
480,192,113390,1,0,0:0:0:0:
224,192,113490,1,0,0:0:0:0:
352,192,113490,1,0,0:0:0:0:
416,192,113490,1,0,0:0:0:0:
96,192,113590,1,2,0:0:0:0:
160,192,113590,1,0,0:0:0:0:
288,192,113590,1,0,0:0:0:0:
480,192,113590,1,0,0:0:0:0:
224,192,113690,1,0,0:0:0:0:
416,192,113690,1,0,0:0:0:0:
96,192,113790,1,0,0:0:0:40:hi-hat.wav
288,192,113790,1,0,0:0:0:0:
352,192,113790,1,0,0:0:0:0:
160,192,113890,1,0,0:0:0:0:
480,192,113890,1,0,0:0:0:0:
32,192,113990,1,2,0:0:0:0:
224,192,113990,1,8,0:0:0:0:
288,192,113990,1,0,0:0:0:0:
352,192,113990,1,0,0:0:0:0:
416,192,113990,1,0,0:0:0:0:
96,192,114090,1,0,0:0:0:0:
224,192,114190,1,0,0:0:0:40:hi-hat.wav
352,192,114190,1,0,0:0:0:0:
480,192,114190,1,0,0:0:0:0:
160,192,114290,1,0,0:0:0:0:
416,192,114290,1,0,0:0:0:0:
96,192,114390,1,2,0:0:0:0:
288,192,114390,1,0,0:0:0:0:
480,192,114390,1,0,0:0:0:0:
224,192,114490,1,0,0:0:0:0:
352,192,114490,1,0,0:0:0:0:
160,192,114590,1,0,0:0:0:40:hi-hat.wav
288,192,114590,1,0,0:0:0:0:
416,192,114590,1,0,0:0:0:0:
480,192,114690,1,0,0:0:0:0:
32,192,114790,1,2,0:0:0:0:
96,192,114790,1,8,0:0:0:0:
224,192,114790,1,0,0:0:0:0:
352,192,114790,1,0,0:0:0:0:
416,192,114790,1,0,0:0:0:0:
160,192,114890,1,0,0:0:0:0:
480,192,114890,1,0,0:0:0:0:
96,192,114990,1,0,0:0:0:40:hi-hat.wav
288,192,114990,1,0,0:0:0:0:
416,192,114990,1,0,0:0:0:0:
96,192,115190,1,2,0:0:0:0:
224,192,115190,1,0,0:0:0:0:
288,192,115190,1,0,0:0:0:0:
480,192,115190,1,0,0:0:0:0:
160,192,115290,1,0,0:0:0:0:
416,192,115290,1,0,0:0:0:0:
224,192,115390,1,0,0:0:0:40:hi-hat.wav
352,192,115390,1,0,0:0:0:0:
288,192,115490,1,0,0:0:0:0:
32,192,115590,1,2,0:0:0:0:
96,192,115590,1,8,0:0:0:0:
160,192,115590,1,0,0:0:0:0:
416,192,115590,1,0,0:0:0:0:
480,192,115590,1,0,0:0:0:0:
224,192,115690,1,0,0:0:0:0:
160,192,115790,1,0,0:0:0:40:hi-hat.wav
288,192,115790,1,0,0:0:0:0:
416,192,115790,1,0,0:0:0:0:
352,192,115890,1,0,0:0:0:0:
480,192,115890,1,0,0:0:0:0:
96,192,115990,1,2,0:0:0:0:
224,192,115990,1,0,0:0:0:0:
288,192,115990,1,0,0:0:0:0:
160,192,116190,1,0,0:0:0:40:hi-hat.wav
352,192,116190,1,0,0:0:0:0:
416,192,116190,1,0,0:0:0:0:
480,192,116190,1,0,0:0:0:0:
32,192,116390,1,2,0:0:0:0:
96,192,116390,1,8,0:0:0:0:
224,192,116390,1,0,0:0:0:0:
288,192,116390,1,0,0:0:0:0:
352,192,116390,1,0,0:0:0:0:
96,192,116590,1,0,0:0:0:40:hi-hat.wav
160,192,116590,1,0,0:0:0:0:
224,192,116590,1,0,0:0:0:0:
352,192,116590,1,0,0:0:0:0:
416,192,116590,1,0,0:0:0:0:
480,192,116590,1,0,0:0:0:0:
96,192,116790,1,2,0:0:0:0:
224,192,116790,1,0,0:0:0:0:
288,192,116790,1,0,0:0:0:0:
416,192,116790,1,0,0:0:0:0:
160,192,116890,1,0,0:0:0:0:
480,192,116890,1,0,0:0:0:0:
288,192,116990,1,0,0:0:0:40:hi-hat.wav
352,192,116990,1,0,0:0:0:0:
416,192,116990,1,0,0:0:0:0:
224,192,117090,1,0,0:0:0:0:
32,192,117190,1,2,0:0:0:0:
96,192,117190,1,8,0:0:0:0:
160,192,117190,1,0,0:0:0:0:
288,192,117190,1,0,0:0:0:0:
480,192,117190,1,0,0:0:0:0:
416,192,117290,1,0,0:0:0:0:
96,192,117390,1,0,0:0:0:40:hi-hat.wav
224,192,117390,1,0,0:0:0:0:
352,192,117390,1,0,0:0:0:0:
288,192,117490,1,0,0:0:0:0:
480,192,117490,1,0,0:0:0:0:
160,192,117590,1,2,0:0:0:0:
224,192,117590,1,0,0:0:0:0:
416,192,117590,1,0,0:0:0:0:
96,192,117690,1,0,0:0:0:0:
352,192,117690,1,0,0:0:0:0:
288,192,117790,1,0,0:0:0:40:hi-hat.wav
416,192,117790,1,0,0:0:0:0:
480,192,117790,1,0,0:0:0:0:
160,192,117890,1,0,0:0:0:0:
32,192,117990,1,2,0:0:0:0:
96,192,117990,1,8,0:0:0:0:
224,192,117990,1,0,0:0:0:0:
288,192,117990,1,0,0:0:0:0:
352,192,117990,1,0,0:0:0:0:
416,192,118090,1,0,0:0:0:0:
480,192,118090,1,0,0:0:0:0:
160,192,118190,1,0,0:0:0:40:hi-hat.wav
352,192,118190,1,0,0:0:0:0:
288,192,118290,1,0,0:0:0:0:
416,192,118290,1,0,0:0:0:0:
96,192,118390,1,2,0:0:0:0:
224,192,118390,1,0,0:0:0:0:
352,192,118390,1,0,0:0:0:0:
480,192,118390,1,0,0:0:0:0:
288,192,118490,1,0,0:0:0:0:
160,192,118590,1,0,0:0:0:40:hi-hat.wav
416,192,118590,1,0,0:0:0:0:
224,192,118690,1,0,0:0:0:0:
96,192,118790,1,8,0:0:0:0:
288,192,118790,1,0,0:0:0:0:
480,192,118790,1,0,0:0:0:0:
352,192,118890,1,0,0:0:0:0:
96,192,118990,1,2,0:0:0:0:
160,192,118990,1,0,0:0:0:40:hi-hat.wav
224,192,118990,1,0,0:0:0:0:
288,192,118990,1,0,0:0:0:0:
480,192,118990,1,0,0:0:0:0:
416,192,119090,1,2,0:0:0:0:
96,192,119190,1,2,0:0:0:0:
160,192,119190,1,0,0:0:0:0:
288,192,119190,1,0,0:0:0:0:
352,192,119190,1,0,0:0:0:0:
480,192,119190,1,0,0:0:0:0:
224,192,119290,1,0,0:0:0:0:
160,192,119390,1,0,0:0:0:40:hi-hat.wav
288,192,119390,1,0,0:0:0:0:
416,192,119390,1,0,0:0:0:0:
32,192,119490,1,2,0:0:0:0:
96,192,119490,1,0,0:0:0:0:
352,192,119490,1,0,0:0:0:0:
480,192,119490,1,0,0:0:0:0:
160,192,119590,1,0,0:0:0:0:
224,192,119590,1,0,0:0:0:0:
288,192,119590,1,0,0:0:0:0:
416,192,119590,1,0,0:0:0:0:
480,192,119690,1,0,0:0:0:0:
32,192,119790,1,2,0:0:0:0:
96,192,119790,1,0,0:0:0:40:hi-hat.wav
160,192,119790,1,0,0:0:0:0:
224,192,119790,1,0,0:0:0:0:
416,192,119790,1,0,0:0:0:0:
352,192,119890,1,0,0:0:0:0:
32,192,119990,1,4,0:0:0:0:
96,192,119990,1,0,0:0:0:40:FX_IntroKick.wav
160,192,119990,1,0,0:0:0:0:
224,192,119990,1,0,0:0:0:0:
288,192,119990,1,0,0:0:0:0:
480,192,119990,1,0,0:0:0:0:
352,192,120190,1,0,0:0:0:0:
288,192,120390,1,0,0:0:0:0:
224,192,120590,1,0,0:0:0:0:
96,192,121590,1,0,0:0:0:0:
224,192,121590,1,0,0:0:0:0:
352,192,122390,1,0,0:0:0:0:
416,192,122390,1,0,0:0:0:0:
480,192,122390,1,0,0:0:0:0:
96,192,123190,1,0,0:0:0:0:
288,192,123190,1,0,0:0:0:0:
160,192,123390,1,0,0:0:0:0:
224,192,123590,1,0,0:0:0:0:
288,192,123790,1,0,0:0:0:0:
352,192,124790,1,0,0:0:0:0:
416,192,124790,1,0,0:0:0:0:
480,192,124790,1,0,0:0:0:0:
160,192,125590,1,0,0:0:0:0:
224,192,125590,1,0,0:0:0:0:
352,192,125590,1,0,0:0:0:0:
288,192,126190,1,0,0:0:0:0:
480,192,126190,1,0,0:0:0:0:
224,192,126290,1,0,0:0:0:0:
416,192,126290,1,0,0:0:0:0:
96,192,126390,1,0,0:0:0:0:
160,192,126390,1,0,0:0:0:0:
352,192,126390,1,0,0:0:0:0:
224,192,126590,1,0,0:0:0:0:
288,192,126790,1,0,0:0:0:0:
416,192,126990,1,0,0:0:0:0:
96,192,127990,1,0,0:0:0:0:
288,192,127990,1,0,0:0:0:0:
160,192,128190,1,0,0:0:0:0:
224,192,128390,1,0,0:0:0:0:
352,192,128590,1,0,0:0:0:0:
96,192,128790,1,0,0:0:0:0:
288,192,128790,1,0,0:0:0:0:
480,192,128790,1,0,0:0:0:0:
160,192,129590,1,0,0:0:0:0:
224,192,129590,1,0,0:0:0:0:
352,192,129590,1,0,0:0:0:0:
416,192,129590,1,0,0:0:0:0:
96,192,129790,1,0,0:0:0:0:
224,192,129990,1,0,0:0:0:0:
288,192,130190,1,0,0:0:0:0:
416,192,130390,1,0,0:0:0:0:
480,192,130590,1,0,0:0:0:0:
352,192,130790,1,0,0:0:0:0:
224,192,130990,1,0,0:0:0:0:
160,192,131190,1,0,0:0:0:0:
288,192,131190,1,0,0:0:0:0:
416,192,131190,1,0,0:0:0:0:
480,192,131390,1,0,0:0:0:0:
352,192,131590,1,0,0:0:0:0:
224,192,131790,1,0,0:0:0:0:
96,192,131990,1,0,0:0:0:0:
160,192,132190,1,0,0:0:0:0:
288,192,132390,1,0,0:0:0:0:
352,192,132590,1,0,0:0:0:0:
32,192,132790,128,4,137590:0:0:0:0:
96,192,132790,128,0,133690:0:0:0:40:FX_IntroKick.wav
160,192,132790,1,0,0:0:0:0:
224,192,132790,1,0,0:0:0:0:
416,192,132790,1,0,0:0:0:0:
480,192,132790,1,0,0:0:0:0:
352,192,133690,128,0,137590:0:0:0:0:
416,192,134390,128,0,137590:0:0:0:0:
480,192,135190,128,0,137590:0:0:0:0:
