osu file format v14

[General]
AudioFilename: DM Ashura - FI - Fantasie Impromptu.mp3
AudioLeadIn: 1004
PreviewTime: 66312
Countdown: 0
SampleSet: Soft
StackLeniency: 0.2
Mode: 0
LetterboxInBreaks: 0
StoryFireInFront: 0
EpilepsyWarning: 1
WidescreenStoryboard: 1

[Editor]
Bookmarks: 5723,7806,10556
DistanceSpacing: 1.1
BeatDivisor: 4
GridSize: 16
TimelineZoom: 1.9

[Metadata]
Title:F.I
TitleUnicode:F.I
Artist:44teru-k
ArtistUnicode:44teru-k
Creator:abcd452
Version:Extra
Source:BMS
Tags:
BeatmapID:2012284
BeatmapSetID:961194

[Difficulty]
HPDrainRate:5
CircleSize:4
OverallDifficulty:7
ApproachRate:8
SliderMultiplier:1.4
SliderTickRate:1

[Events]
//Background and Video events
0,0,"44teru-bg.jpg",0,0
//Break Periods
2,34507,53556
//Storyboard Layer 0 (Background)
//Storyboard Layer 1 (Fail)
//Storyboard Layer 2 (Pass)
//Storyboard Layer 3 (Foreground)
//Storyboard Sound Samples

[TimingPoints]
2307,333.333333333333,4,2,0,50,1,0
7973,-100,4,2,0,40,0,0
8306,-100,4,2,0,60,0,0
8640,-100,4,2,0,80,0,0
9473,-100,4,2,0,40,0,0
9806,-100,4,2,0,60,0,0
10140,-100,4,2,0,80,0,0
10473,-100,4,2,0,40,0,0
10973,-100,4,2,0,80,0,0
11640,-100,4,2,0,60,0,0
11973,-100,4,2,0,50,0,0
12306,-100,4,2,0,40,0,0
12973,-100,4,2,0,60,0,0
13473,-100,4,2,0,40,0,0
14306,-100,4,2,0,60,0,0
14806,-100,4,2,0,40,0,0
15140,-100,4,2,0,60,0,0
15973,-100,4,2,0,80,0,0
16973,-100,4,2,0,40,0,0
17306,-50,4,2,0,80,0,0
18140,-100,4,2,0,80,0,0
18306,-100,4,2,0,60,0,0
19640,-66.6666666666667,4,2,0,85,0,0
20973,-100,4,2,0,60,0,0
22306,-66.6666666666667,4,2,0,85,0,0
23640,-100,4,2,0,60,0,0
24973,-66.6666666666667,4,2,0,85,0,0
26306,-66.6666666666667,4,2,0,50,0,0
26973,-66.6666666666667,4,2,0,60,0,0
27640,-66.6666666666667,4,2,0,85,0,0
28973,-100,4,2,0,60,0,0
30640,-100,4,2,0,50,0,0
31640,-100,4,2,0,60,0,0
32973,-100,4,2,0,50,0,0
33473,-100,4,2,0,70,0,0
33973,-66.6666666666667,4,2,0,90,0,0
34307,333.333333333333,3,2,0,80,1,0
54306,333.333333333333,4,2,0,25,1,0
54528,-100,4,2,0,30,0,0
54750,-100,4,2,0,35,0,0
54972,-100,4,2,0,40,0,0
55194,-100,4,2,0,45,0,0
55417,-100,4,2,0,50,0,0
55637,-100,4,2,0,60,0,0
55970,-100,4,2,0,60,0,0
56304,-100,4,2,0,80,0,0
57137,-100,4,2,0,40,0,0
57470,-100,4,2,0,60,0,0
58137,-100,4,2,0,80,0,0
58389,-100,4,2,0,40,0,0
58972,-100,4,2,0,80,0,0
59304,-100,4,2,0,60,0,0
59637,-100,4,2,0,50,0,0
59970,-100,4,2,0,40,0,0
60637,-100,4,2,0,60,0,0
61137,-100,4,2,0,40,0,0
61472,-100,4,2,0,60,0,0
61970,-100,4,2,0,80,0,0
62470,-100,4,2,0,40,0,0
62804,-100,4,2,0,70,0,0
63637,-100,4,2,0,80,0,0
64639,-100,4,2,0,60,0,0
64970,-100,4,2,0,80,0,0
64972,-100,4,2,0,80,0,0
66305,-100,4,2,0,80,0,1
82305,-66.6666666666667,4,2,0,60,0,0
82972,-100,4,2,0,60,0,0
103639,-66.6666666666667,4,2,0,60,0,0
112972,-66.6666666666667,4,2,0,50,0,0
114305,-66.6666666666667,4,2,0,60,0,0
114972,-66.6666666666667,4,2,0,70,0,0
115639,-66.6666666666667,4,2,0,80,0,0
116305,-66.6666666666667,4,2,0,90,0,0
116972,-100,4,2,0,100,0,0
117136,-200,4,2,0,35,0,0
119639,-250,4,2,0,35,0,0
120889,-250,4,2,0,5,0,0
120972,-250,4,2,0,35,0,0
122222,-250,4,2,0,5,0,0
122305,-250,4,2,0,35,0,0
122889,-250,4,2,0,5,0,0
122972,-250,4,2,0,35,0,0
123555,-250,4,2,0,5,0,0
123639,-250,4,2,0,35,0,0
124222,-250,4,2,0,5,0,0
124305,-250,4,2,0,35,0,0
127639,-170.940170940171,4,2,0,30,0,0

[Colours]
Combo1 : 255,128,192
Combo2 : 255,255,128

[HitObjects]
125,128,2140,5,0,0:0:0:0:
109,273,2306,5,4,0:0:0:0:
128,265,2389,1,0,0:0:0:0:
149,266,2472,1,0,0:0:0:0:
169,274,2555,1,0,0:0:0:0:
188,281,2639,1,0,0:0:0:0:
209,281,2722,1,0,0:0:0:0:
229,274,2806,1,0,0:0:0:0:
235,255,2890,1,0,0:0:0:0:
235,235,2973,1,0,0:0:0:0:
229,215,3056,1,0,0:0:0:0:
220,196,3140,1,0,0:0:0:0:
220,175,3223,1,0,0:0:0:0:
226,155,3306,2,0,P|237:101|252:79,1,70
357,50,3640,5,12,0:0:0:0:
432,192,3806,1,8,0:0:0:0:
357,334,3973,1,8,0:0:0:0:
282,192,4140,1,8,0:0:0:0:
265,192,4223,1,0,0:0:0:0:
247,192,4306,1,0,0:0:0:0:
230,192,4389,1,0,0:0:0:0:
212,192,4473,2,0,L|164:192,1,35
72,192,4640,5,0,0:0:0:0:
48,166,4723,1,0,0:0:0:0:
40,132,4806,1,0,0:0:0:0:
48,99,4889,1,0,0:0:0:0:
71,73,4973,5,12,0:0:0:0:
177,192,5140,1,8,0:0:0:0:
283,74,5306,1,8,0:0:0:0:
388,192,5474,1,8,0:0:0:0:
370,222,5557,1,0,0:0:0:0:
349,250,5640,1,0,0:0:0:0:
325,276,5723,1,0,0:0:0:0:
299,299,5807,1,0,0:0:0:0:
271,320,5890,1,0,0:0:0:0:
241,337,5973,1,0,0:0:0:0:
217,311,6056,1,0,0:0:0:0:
209,277,6139,1,0,0:0:0:0:
217,244,6222,1,0,0:0:0:0:
240,218,6306,5,12,0:0:0:0:
327,66,6473,1,8,0:0:0:0:
152,68,6640,1,8,0:0:0:0:
66,221,6806,1,8,0:0:0:0:
99,231,6889,1,0,0:0:0:0:
134,232,6972,1,0,0:0:0:0:
166,221,7055,1,0,0:0:0:0:
199,207,7139,1,0,0:0:0:0:
233,206,7222,1,0,0:0:0:0:
266,217,7305,1,0,0:0:0:0:
299,227,7390,1,0,0:0:0:0:
334,228,7473,1,0,0:0:0:0:
366,217,7556,1,0,0:0:0:0:
399,203,7640,5,12,0:0:0:0:
320,64,7806,1,8,0:0:0:0:
233,206,7973,5,2,0:0:0:0:
223,224,8056,1,0,0:0:0:0:
220,245,8139,1,0,0:0:0:0:
223,266,8223,1,0,0:0:0:0:
232,285,8306,5,2,0:0:0:0:
207,298,8390,1,0,0:0:0:0:
180,303,8473,1,2,0:0:0:0:
152,299,8557,1,0,0:0:0:0:
128,286,8640,5,2,0:0:0:0:
151,260,8723,1,2,0:0:0:0:
159,226,8806,1,2,0:0:0:0:
151,193,8890,1,0,0:0:0:0:
127,167,8973,2,0,L|119:73,1,70,4|0,0:0|0:0,0:0:0:0:
256,32,9306,1,0,0:0:0:0:
390,97,9473,5,2,0:0:0:0:
400,115,9556,1,0,0:0:0:0:
403,136,9639,1,0,0:0:0:0:
400,157,9723,1,0,0:0:0:0:
391,176,9806,5,2,0:0:0:0:
378,200,9889,1,0,0:0:0:0:
374,228,9973,1,2,0:0:0:0:
379,254,10056,1,0,0:0:0:0:
392,280,10140,5,2,0:0:0:0:
400,313,10224,1,2,0:0:0:0:
392,347,10306,1,6,0:0:0:0:
275,346,10473,5,8,0:0:0:0:
266,320,10557,1,0,0:0:0:0:
266,294,10640,1,0,0:0:0:0:
275,270,10724,1,0,0:0:0:0:
285,245,10807,1,0,0:0:0:0:
286,220,10890,1,0,0:0:0:0:
277,195,10973,5,0,0:0:0:0:
245,163,11056,1,0,0:0:0:0:
235,121,11139,1,0,0:0:0:0:
245,79,11223,1,0,0:0:0:0:
277,50,11306,1,0,0:0:0:0:
248,82,11389,1,0,0:0:0:0:
206,92,11473,1,0,0:0:0:0:
164,82,11556,1,0,0:0:0:0:
132,50,11640,5,4,0:0:0:0:
132,85,11723,1,0,0:0:0:0:
132,120,11806,1,0,0:0:0:0:
132,155,11890,1,0,0:0:0:0:
167,155,11973,5,4,0:0:0:0:
167,182,12056,1,0,0:0:0:0:
167,208,12140,1,0,0:0:0:0:
167,234,12223,1,0,0:0:0:0:
193,234,12306,5,4,0:0:0:0:
193,254,12389,1,0,0:0:0:0:
193,273,12473,1,0,0:0:0:0:
193,293,12556,1,0,0:0:0:0:
212,293,12640,6,0,L|212:373,1,70,4|0,0:0|0:0,0:0:0:0:
282,293,12973,1,4,0:0:0:0:
282,223,13140,1,0,0:0:0:0:
422,223,13306,1,0,0:0:0:0:
422,84,13473,5,2,0:0:0:0:
396,75,13557,1,0,0:0:0:0:
370,74,13640,1,0,0:0:0:0:
346,84,13724,1,0,0:0:0:0:
321,94,13807,1,2,0:0:0:0:
296,95,13890,1,0,0:0:0:0:
271,86,13973,2,0,L|219:86,4,35,2|0|2|0|6,0:0|0:0|0:0|0:0|0:0,0:0:0:0:
90,192,14473,5,0,0:0:0:0:
256,192,14640,1,0,0:0:0:0:
174,268,14807,5,2,0:0:0:0:
190,274,14890,1,0,0:0:0:0:
207,273,14973,1,0,0:0:0:0:
224,266,15056,1,0,0:0:0:0:
240,260,15140,1,2,0:0:0:0:
257,261,15223,1,0,0:0:0:0:
291,272,15307,1,2,0:0:0:0:
324,284,15390,1,0,0:0:0:0:
358,283,15473,1,2,0:0:0:0:
391,269,15556,1,0,0:0:0:0:
423,257,15640,2,0,L|466:257,4,35,6|0|0|0|0,0:0|0:0|0:0|0:0|0:0,0:0:0:0:
362,146,16056,5,0,0:0:0:0:
346,115,16140,1,0,0:0:0:0:
322,90,16223,1,0,0:0:0:0:
290,75,16306,1,0,0:0:0:0:
256,69,16390,1,0,0:0:0:0:
221,75,16473,1,0,0:0:0:0:
190,90,16556,1,0,0:0:0:0:
165,115,16640,1,0,0:0:0:0:
149,146,16723,1,0,0:0:0:0:
144,181,16806,1,0,0:0:0:0:
149,216,16890,1,0,0:0:0:0:
165,247,16973,6,0,L|181:308,2,35,4|0|0,0:0|0:0|0:0,0:0:0:0:
304,259,17306,6,0,P|340:204|304:149,1,140,4|0,0:0|0:0,0:0:0:0:
165,247,17640,2,0,P|128:301|164:356,1,140,4|0,0:0|0:0,0:0:0:0:
304,259,17973,1,4,0:0:0:0:
165,247,18140,2,0,L|108:242,2,35
199,250,18390,5,0,0:0:0:0:
227,230,18473,1,0,0:0:0:0:
240,198,18556,1,0,0:0:0:0:
233,164,18639,1,0,0:0:0:0:
208,140,18723,1,0,0:0:0:0:
179,120,18807,1,0,0:0:0:0:
166,88,18890,1,0,0:0:0:0:
173,54,18973,1,0,0:0:0:0:
198,30,19057,1,0,0:0:0:0:
232,26,19140,1,0,0:0:0:0:
262,42,19223,1,0,0:0:0:0:
279,73,19306,1,0,0:0:0:0:
275,107,19390,1,0,0:0:0:0:
271,141,19473,1,0,0:0:0:0:
288,171,19556,1,0,0:0:0:0:
318,187,19640,6,0,L|398:187,2,52.5000020027161,4|0|0,0:0|0:0|0:0,0:0:0:0:
254,251,19973,6,0,L|254:331,2,52.5000020027161,4|0|0,0:0|0:0|0:0,0:0:0:0:
190,187,20306,6,0,L|110:187,2,52.5000020027161,4|0|0,0:0|0:0|0:0,0:0:0:0:
254,123,20640,6,0,L|254:43,2,52.5000020027161,4|0|0,0:0|0:0|0:0,0:0:0:0:
447,251,20973,5,0,0:0:0:0:
473,229,21056,1,0,0:0:0:0:
483,196,21139,1,0,0:0:0:0:
473,163,21222,1,0,0:0:0:0:
447,141,21306,1,0,0:0:0:0:
425,167,21390,1,0,0:0:0:0:
392,176,21473,1,0,0:0:0:0:
359,167,21556,1,0,0:0:0:0:
338,140,21639,1,0,0:0:0:0:
311,161,21723,1,0,0:0:0:0:
301,194,21806,1,0,0:0:0:0:
311,227,21889,1,0,0:0:0:0:
338,249,21972,1,0,0:0:0:0:
359,276,22057,1,0,0:0:0:0:
392,285,22140,1,0,0:0:0:0:
425,276,22223,1,0,0:0:0:0:
448,251,22306,5,4,0:0:0:0:
448,187,22389,1,0,0:0:0:0:
448,123,22472,1,0,0:0:0:0:
320,59,22640,5,4,0:0:0:0:
320,123,22723,1,0,0:0:0:0:
320,187,22806,1,0,0:0:0:0:
192,251,22974,5,4,0:0:0:0:
192,219,23056,1,0,0:0:0:0:
192,187,23140,1,0,0:0:0:0:
64,59,23307,5,4,0:0:0:0:
64,91,23390,1,0,0:0:0:0:
64,123,23473,1,0,0:0:0:0:
64,251,23640,5,0,0:0:0:0:
96,251,23723,1,0,0:0:0:0:
128,251,23806,1,0,0:0:0:0:
160,251,23890,1,0,0:0:0:0:
192,251,23973,1,0,0:0:0:0:
213,277,24056,1,0,0:0:0:0:
246,287,24139,1,0,0:0:0:0:
279,278,24222,1,0,0:0:0:0:
302,251,24306,1,0,0:0:0:0:
334,251,24389,1,0,0:0:0:0:
366,251,24472,1,0,0:0:0:0:
398,251,24556,1,0,0:0:0:0:
430,251,24639,1,0,0:0:0:0:
456,229,24723,1,0,0:0:0:0:
466,196,24806,1,0,0:0:0:0:
457,163,24889,1,0,0:0:0:0:
430,141,24973,6,0,L|343:141,2,52.5000020027161,4|0|0,0:0|0:0|0:0,0:0:0:0:
324,35,25306,6,0,L|324:88,2,52.5000020027161,4|0|0,0:0|0:0|0:0,0:0:0:0:
218,141,25640,6,0,L|271:141,2,52.5000020027161,4|0|0,0:0|0:0|0:0,0:0:0:0:
324,246,25973,6,0,L|324:193,2,52.5000020027161,4|0|0,0:0|0:0|0:0,0:0:0:0:
219,36,26306,5,0,0:0:0:0:
201,36,26390,1,0,0:0:0:0:
184,36,26473,1,0,0:0:0:0:
166,36,26556,1,0,0:0:0:0:
149,36,26639,1,0,0:0:0:0:
131,36,26723,1,0,0:0:0:0:
114,36,26806,1,0,0:0:0:0:
96,36,26889,1,0,0:0:0:0:
79,36,26973,6,0,L|79:148,1,105.000004005432,4|0,0:0|0:0,0:0:0:0:
79,348,27306,2,0,L|79:236,1,105.000004005432
219,36,27640,6,0,L|219:148,1,105.000004005432,4|0,0:0|0:0,0:0:0:0:
219,348,27973,2,0,L|219:236,1,105.000004005432
359,36,28307,6,0,L|359:148,1,105.000004005432,4|0,0:0|0:0,0:0:0:0:
359,348,28640,2,0,L|359:236,1,105.000004005432
219,36,28974,5,4,0:0:0:0:
245,41,29057,1,0,0:0:0:0:
267,56,29141,1,0,0:0:0:0:
281,78,29224,1,0,0:0:0:0:
287,103,29307,1,0,0:0:0:0:
281,129,29390,1,0,0:0:0:0:
267,151,29474,1,0,0:0:0:0:
245,166,29557,1,0,0:0:0:0:
219,171,29640,1,4,0:0:0:0:
193,176,29723,1,0,0:0:0:0:
171,191,29807,1,0,0:0:0:0:
157,213,29890,1,0,0:0:0:0:
151,238,29973,1,0,0:0:0:0:
157,264,30056,1,0,0:0:0:0:
171,286,30140,1,0,0:0:0:0:
193,301,30223,1,0,0:0:0:0:
219,306,30306,5,4,0:0:0:0:
245,301,30390,1,0,0:0:0:0:
267,286,30473,1,0,0:0:0:0:
281,264,30557,1,0,0:0:0:0:
287,238,30640,1,0,0:0:0:0:
293,212,30723,1,0,0:0:0:0:
307,190,30807,1,0,0:0:0:0:
329,175,30890,1,0,0:0:0:0:
355,170,30974,1,4,0:0:0:0:
381,175,31057,1,0,0:0:0:0:
403,190,31140,1,0,0:0:0:0:
417,212,31224,1,0,0:0:0:0:
423,238,31307,1,0,0:0:0:0:
417,264,31389,1,0,0:0:0:0:
403,286,31473,1,0,0:0:0:0:
381,301,31556,1,0,0:0:0:0:
359,304,31640,6,0,L|338:225,1,70,4|0,0:0|0:0,0:0:0:0:
304,235,31890,1,0,0:0:0:0:
270,236,31973,2,0,L|249:314,1,70,4|0,0:0|0:0,0:0:0:0:
234,304,32224,1,0,0:0:0:0:
217,304,32307,5,4,0:0:0:0:
193,301,32390,1,0,0:0:0:0:
171,286,32473,1,0,0:0:0:0:
157,264,32557,1,0,0:0:0:0:
151,238,32640,1,4,0:0:0:0:
157,212,32722,1,0,0:0:0:0:
171,190,32806,1,0,0:0:0:0:
193,175,32889,1,0,0:0:0:0:
219,170,32972,5,4,0:0:0:0:
251,149,33056,1,0,0:0:0:0:
273,116,33139,1,0,0:0:0:0:
280,79,33223,1,0,0:0:0:0:
273,41,33306,1,4,0:0:0:0:
251,9,33389,1,0,0:0:0:0:
233,42,33473,5,0,0:0:0:0:
211,82,33557,1,0,0:0:0:0:
206,126,33640,1,4,0:0:0:0:
219,170,33724,1,0,0:0:0:0:
247,205,33807,1,0,0:0:0:0:
287,225,33890,5,0,0:0:0:0:
328,253,33973,1,2,0:0:0:0:
369,281,34057,1,0,0:0:0:0:
375,237,34140,1,2,0:0:0:0:
381,193,34224,1,0,0:0:0:0:
334,209,34307,1,4,0:0:0:0:
186,232,54306,5,2,0:0:0:0:
256,111,54528,1,2,0:0:0:0:
326,232,54750,1,2,0:0:0:0:
114,110,54972,1,2,0:0:0:0:
397,110,55194,1,2,0:0:0:0:
255,355,55416,1,2,0:0:0:0:
256,111,55639,5,0,0:0:0:0:
220,93,55722,1,0,0:0:0:0:
185,75,55806,1,0,0:0:0:0:
150,93,55889,1,0,0:0:0:0:
114,110,55972,2,0,L|114:167,1,35
186,232,56139,5,0,0:0:0:0:
222,250,56222,1,0,0:0:0:0:
257,268,56306,1,0,0:0:0:0:
256,228,56389,1,0,0:0:0:0:
256,189,56472,1,0,0:0:0:0:
257,151,56556,1,0,0:0:0:0:
256,111,56639,5,0,0:0:0:0:
283,82,56722,1,0,0:0:0:0:
310,53,56806,2,0,L|343:19,1,35
397,110,56972,1,4,0:0:0:0:
326,232,57139,5,0,0:0:0:0:
256,111,57306,1,0,0:0:0:0:
186,232,57472,1,0,0:0:0:0:
168,272,57556,1,0,0:0:0:0:
173,318,57639,1,0,0:0:0:0:
211,349,57722,1,0,0:0:0:0:
255,355,57806,1,0,0:0:0:0:
300,349,57889,1,0,0:0:0:0:
339,318,57972,1,0,0:0:0:0:
343,272,58055,1,0,0:0:0:0:
326,232,58139,5,0,0:0:0:0:
256,232,58222,5,0,0:0:0:0:
186,232,58305,2,0,L|152:232,5,35,4|0|0|0|0|0,0:0|0:0|0:0|0:0|0:0|0:0,0:0:0:0:
114,110,58805,5,0,0:0:0:0:
116,111,58889,1,0,0:0:0:0:
118,112,58972,5,0,0:0:0:0:
159,142,59056,1,0,0:0:0:0:
211,143,59139,1,0,0:0:0:0:
254,114,59223,1,0,0:0:0:0:
273,66,59306,5,0,0:0:0:0:
301,45,59389,1,0,0:0:0:0:
335,37,59472,1,0,0:0:0:0:
369,44,59556,1,0,0:0:0:0:
397,64,59639,5,0,0:0:0:0:
397,99,59722,1,0,0:0:0:0:
397,134,59805,1,0,0:0:0:0:
397,169,59889,1,0,0:0:0:0:
362,169,59972,5,0,0:0:0:0:
362,196,60055,1,0,0:0:0:0:
362,222,60139,1,0,0:0:0:0:
362,248,60222,1,0,0:0:0:0:
336,248,60305,5,0,0:0:0:0:
336,268,60388,1,0,0:0:0:0:
336,287,60472,1,0,0:0:0:0:
336,307,60555,1,0,0:0:0:0:
317,307,60639,2,0,L|237:307,1,70
107,307,60972,6,0,L|70:307,1,35
110,292,61139,2,0,L|77:273,1,35
120,280,61305,2,0,L|101:247,1,35
134,274,61472,5,0,0:0:0:0:
162,253,61555,1,0,0:0:0:0:
196,245,61638,1,0,0:0:0:0:
230,249,61722,1,0,0:0:0:0:
262,262,61805,1,0,0:0:0:0:
294,278,61888,1,0,0:0:0:0:
328,285,61972,1,0,0:0:0:0:
361,276,62055,1,0,0:0:0:0:
389,256,62139,2,0,L|428:231,1,35
481,125,62305,1,4,0:0:0:0:
322,110,62472,5,0,0:0:0:0:
312,86,62555,1,0,0:0:0:0:
287,76,62638,1,0,0:0:0:0:
263,86,62721,1,0,0:0:0:0:
253,110,62805,5,0,0:0:0:0:
247,145,62889,1,0,0:0:0:0:
227,174,62972,1,0,0:0:0:0:
198,193,63055,1,0,0:0:0:0:
164,200,63139,1,0,0:0:0:0:
129,193,63222,1,0,0:0:0:0:
100,174,63305,1,0,0:0:0:0:
81,145,63389,1,0,0:0:0:0:
74,110,63472,2,0,L|74:62,1,35
205,45,63639,6,0,L|241:39,3,35,4|0|0|0,0:0|0:0|0:0|0:0,0:0:0:0:
270,42,63972,5,0,0:0:0:0:
290,70,64055,1,0,0:0:0:0:
298,103,64138,1,0,0:0:0:0:
294,138,64222,1,0,0:0:0:0:
281,170,64305,1,0,0:0:0:0:
265,202,64388,1,0,0:0:0:0:
258,236,64472,1,0,0:0:0:0:
267,269,64555,1,0,0:0:0:0:
287,297,64638,1,0,0:0:0:0:
311,332,64721,1,0,0:0:0:0:
354,342,64805,1,0,0:0:0:0:
387,316,64889,1,0,0:0:0:0:
395,275,64971,5,4,0:0:0:0:
395,153,65139,1,8,0:0:0:0:
273,31,65304,5,4,0:0:0:0:
273,153,65472,1,8,0:0:0:0:
151,275,65639,5,4,0:0:0:0:
151,153,65805,1,8,0:0:0:0:
29,31,65972,5,4,0:0:0:0:
29,153,66140,1,8,0:0:0:0:
151,275,66305,5,4,0:0:0:0:
179,295,66388,1,0,0:0:0:0:
212,304,66471,1,0,0:0:0:0:
246,297,66554,1,0,0:0:0:0:
278,281,66638,1,0,0:0:0:0:
310,268,66721,1,0,0:0:0:0:
344,264,66804,1,0,0:0:0:0:
378,272,66888,1,0,0:0:0:0:
406,292,66971,1,0,0:0:0:0:
426,262,67055,1,0,0:0:0:0:
435,229,67138,1,0,0:0:0:0:
430,194,67221,1,0,0:0:0:0:
417,162,67305,1,0,0:0:0:0:
402,130,67388,1,0,0:0:0:0:
394,96,67471,1,0,0:0:0:0:
403,63,67555,1,0,0:0:0:0:
424,35,67639,5,4,0:0:0:0:
390,31,67722,1,0,0:0:0:0:
355,26,67805,2,0,L|291:20,1,35
203,113,67972,5,4,0:0:0:0:
237,117,68055,1,0,0:0:0:0:
272,122,68138,2,0,L|336:128,1,35
397,241,68306,5,4,0:0:0:0:
363,237,68389,1,0,0:0:0:0:
328,232,68472,2,0,L|264:226,1,35
176,319,68639,5,4,0:0:0:0:
210,323,68722,1,0,0:0:0:0:
245,328,68805,2,0,L|309:334,1,35
397,241,68972,5,0,0:0:0:0:
368,220,69055,1,0,0:0:0:0:
335,212,69138,1,0,0:0:0:0:
300,216,69221,1,0,0:0:0:0:
268,229,69305,1,0,0:0:0:0:
236,245,69388,1,0,0:0:0:0:
202,252,69471,1,0,0:0:0:0:
169,243,69555,1,0,0:0:0:0:
141,223,69638,1,0,0:0:0:0:
122,194,69722,1,0,0:0:0:0:
115,159,69805,1,0,0:0:0:0:
122,125,69889,1,0,0:0:0:0:
140,96,69972,1,0,0:0:0:0:
170,76,70055,1,0,0:0:0:0:
205,69,70139,1,0,0:0:0:0:
239,76,70222,1,0,0:0:0:0:
268,96,70305,5,4,0:0:0:0:
287,125,70389,1,0,0:0:0:0:
306,154,70472,2,0,L|328:196,1,35
287,327,70639,5,4,0:0:0:0:
268,298,70723,1,0,0:0:0:0:
249,269,70806,2,0,L|226:226,1,35
306,154,70972,5,4,0:0:0:0:
335,135,71056,1,0,0:0:0:0:
364,116,71139,2,0,L|406:93,1,35
249,269,71305,5,4,0:0:0:0:
220,288,71389,1,0,0:0:0:0:
191,307,71472,2,0,L|148:329,1,35
59,255,71639,5,0,0:0:0:0:
52,218,71722,1,0,0:0:0:0:
59,180,71805,1,0,0:0:0:0:
81,148,71889,1,0,0:0:0:0:
113,127,71972,1,0,0:0:0:0:
150,119,72055,1,0,0:0:0:0:
188,127,72139,1,0,0:0:0:0:
220,148,72222,1,0,0:0:0:0:
242,180,72305,1,0,0:0:0:0:
264,212,72389,1,0,0:0:0:0:
296,233,72472,1,0,0:0:0:0:
334,241,72556,1,0,0:0:0:0:
371,233,72639,1,0,0:0:0:0:
403,212,72722,1,0,0:0:0:0:
425,180,72806,1,0,0:0:0:0:
432,142,72889,1,0,0:0:0:0:
425,105,72972,5,4,0:0:0:0:
403,73,73055,1,0,0:0:0:0:
381,41,73139,2,0,L|344:-11,1,35
339,117,73305,5,4,0:0:0:0:
303,100,73388,1,0,0:0:0:0:
268,83,73472,2,0,L|209:55,1,35
270,170,73638,5,4,0:0:0:0:
230,173,73721,1,0,0:0:0:0:
192,176,73805,2,0,L|128:181,1,35
237,250,73972,5,4,0:0:0:0:
204,273,74055,1,0,0:0:0:0:
172,294,74139,2,0,L|119:330,1,35
248,335,74306,5,4,0:0:0:0:
274,335,74389,1,0,0:0:0:0:
300,335,74472,1,0,0:0:0:0:
326,335,74555,1,0,0:0:0:0:
353,335,74639,1,0,0:0:0:0:
379,335,74722,1,0,0:0:0:0:
405,335,74805,1,0,0:0:0:0:
431,335,74888,1,0,0:0:0:0:
458,335,74972,5,0,0:0:0:0:
478,306,75055,1,0,0:0:0:0:
486,273,75138,1,0,0:0:0:0:
482,238,75221,1,0,0:0:0:0:
469,206,75305,1,0,0:0:0:0:
453,174,75388,1,0,0:0:0:0:
446,140,75471,1,0,0:0:0:0:
455,107,75555,1,0,0:0:0:0:
475,79,75638,5,4,0:0:0:0:
446,58,75722,1,0,0:0:0:0:
413,50,75805,1,0,0:0:0:0:
378,54,75888,1,0,0:0:0:0:
346,67,75972,1,0,0:0:0:0:
314,83,76055,1,0,0:0:0:0:
280,90,76138,1,0,0:0:0:0:
247,81,76222,1,0,0:0:0:0:
219,61,76305,5,4,0:0:0:0:
227,99,76389,1,0,0:0:0:0:
219,136,76472,1,0,0:0:0:0:
198,168,76555,1,0,0:0:0:0:
166,190,76639,1,0,0:0:0:0:
128,197,76722,1,0,0:0:0:0:
90,190,76805,1,0,0:0:0:0:
58,168,76889,1,0,0:0:0:0:
37,136,76972,5,4,0:0:0:0:
20,171,77055,1,0,0:0:0:0:
22,208,77138,1,0,0:0:0:0:
40,244,77222,1,0,0:0:0:0:
69,268,77305,1,0,0:0:0:0:
105,280,77388,1,0,0:0:0:0:
143,278,77472,1,0,0:0:0:0:
178,261,77555,1,0,0:0:0:0:
204,232,77638,5,4,0:0:0:0:
230,203,77722,1,0,0:0:0:0:
265,186,77805,1,0,0:0:0:0:
303,184,77889,1,0,0:0:0:0:
339,196,77972,1,0,0:0:0:0:
368,220,78055,1,0,0:0:0:0:
386,256,78139,1,0,0:0:0:0:
388,293,78222,1,0,0:0:0:0:
371,328,78305,5,4,0:0:0:0:
410,326,78389,1,0,0:0:0:0:
430,297,78472,1,0,0:0:0:0:
438,264,78555,1,0,0:0:0:0:
434,229,78638,1,0,0:0:0:0:
421,197,78722,1,0,0:0:0:0:
405,165,78805,1,0,0:0:0:0:
398,131,78888,1,0,0:0:0:0:
407,98,78972,5,4,0:0:0:0:
385,130,79055,1,0,0:0:0:0:
353,151,79138,1,0,0:0:0:0:
315,158,79222,1,0,0:0:0:0:
278,151,79305,1,0,0:0:0:0:
246,130,79388,1,0,0:0:0:0:
224,97,79472,1,0,0:0:0:0:
217,60,79555,1,0,0:0:0:0:
224,22,79639,5,4,0:0:0:0:
200,19,79721,1,0,0:0:0:0:
176,22,79805,1,0,0:0:0:0:
152,29,79888,1,0,0:0:0:0:
130,40,79972,1,4,0:0:0:0:
112,56,80055,1,0,0:0:0:0:
96,75,80138,1,0,0:0:0:0:
84,96,80221,1,0,0:0:0:0:
77,120,80305,1,4,0:0:0:0:
75,144,80388,1,0,0:0:0:0:
77,169,80471,1,0,0:0:0:0:
84,192,80555,1,0,0:0:0:0:
96,214,80638,1,4,0:0:0:0:
112,232,80721,1,0,0:0:0:0:
130,248,80805,1,0,0:0:0:0:
152,260,80888,1,0,0:0:0:0:
176,267,80972,5,4,0:0:0:0:
194,267,81055,1,0,0:0:0:0:
211,267,81138,1,0,0:0:0:0:
228,267,81222,1,0,0:0:0:0:
246,267,81305,1,4,0:0:0:0:
263,267,81389,1,0,0:0:0:0:
281,267,81472,1,0,0:0:0:0:
298,267,81555,1,0,0:0:0:0:
316,267,81639,1,4,0:0:0:0:
333,267,81722,1,0,0:0:0:0:
351,267,81805,1,0,0:0:0:0:
368,267,81889,1,0,0:0:0:0:
386,267,81972,1,4,0:0:0:0:
403,267,82055,1,0,0:0:0:0:
421,267,82139,1,4,0:0:0:0:
438,267,82222,1,0,0:0:0:0:
456,267,82305,6,0,P|474:226|456:171,1,105,4|0,0:0|0:0,0:0:0:0:
367,66,82639,2,0,P|348:113|367:161,1,105
383,191,82889,5,0,0:0:0:0:
383,226,82972,1,0,0:0:0:0:
366,256,83055,1,0,0:0:0:0:
336,272,83139,1,0,0:0:0:0:
301,272,83222,1,0,0:0:0:0:
271,256,83305,1,0,0:0:0:0:
253,224,83389,1,0,0:0:0:0:
253,190,83472,2,0,L|253:155,1,35
253,15,83639,1,4,0:0:0:0:
165,102,83805,5,0,0:0:0:0:
340,102,83972,1,0,0:0:0:0:
253,190,84139,5,0,0:0:0:0:
253,224,84222,1,0,0:0:0:0:
235,256,84306,1,0,0:0:0:0:
205,272,84389,1,0,0:0:0:0:
170,272,84472,1,0,0:0:0:0:
139,256,84556,1,0,0:0:0:0:
123,226,84639,1,0,0:0:0:0:
123,191,84722,1,0,0:0:0:0:
139,160,84805,2,0,L|203:160,1,35
314,160,84972,6,0,L|378:160,1,35,4|0,0:0|0:0,0:0:0:0:
311,169,85139,2,0,L|366:201,1,35
303,175,85305,2,0,L|334:230,1,35
293,176,85472,2,0,L|292:239,1,35
283,171,85639,5,0,0:0:0:0:
264,123,85722,1,0,0:0:0:0:
221,94,85806,1,0,0:0:0:0:
169,95,85889,1,0,0:0:0:0:
128,125,85973,1,0,0:0:0:0:
158,166,86055,1,0,0:0:0:0:
159,218,86138,1,0,0:0:0:0:
130,261,86222,1,0,0:0:0:0:
82,280,86305,5,4,0:0:0:0:
115,289,86388,1,0,0:0:0:0:
149,298,86471,1,0,0:0:0:0:
183,307,86555,1,0,0:0:0:0:
192,273,86638,5,4,0:0:0:0:
218,280,86721,1,0,0:0:0:0:
243,287,86805,1,0,0:0:0:0:
268,293,86888,1,0,0:0:0:0:
275,268,86971,5,4,0:0:0:0:
294,273,87054,1,0,0:0:0:0:
313,278,87138,1,0,0:0:0:0:
332,283,87221,1,0,0:0:0:0:
337,265,87305,6,0,L|414:285,1,70,4|0,0:0|0:0,0:0:0:0:
440,146,87639,1,4,0:0:0:0:
304,109,87805,1,0,0:0:0:0:
168,147,87972,2,0,L|116:160,3,35
195,141,88305,5,0,0:0:0:0:
223,147,88388,1,0,0:0:0:0:
246,162,88472,1,0,0:0:0:0:
262,186,88555,1,0,0:0:0:0:
267,213,88638,1,0,0:0:0:0:
262,241,88721,1,0,0:0:0:0:
246,264,88805,2,0,L|222:305,1,35
123,294,88972,5,4,0:0:0:0:
123,276,89055,1,0,0:0:0:0:
123,259,89138,1,0,0:0:0:0:
123,241,89222,1,0,0:0:0:0:
123,224,89305,1,0,0:0:0:0:
123,206,89389,1,0,0:0:0:0:
123,189,89472,1,0,0:0:0:0:
123,171,89555,1,0,0:0:0:0:
123,154,89639,5,2,0:0:0:0:
151,148,89722,1,0,0:0:0:0:
178,154,89805,1,0,0:0:0:0:
202,169,89889,1,0,0:0:0:0:
217,193,89972,1,0,0:0:0:0:
223,220,90056,1,0,0:0:0:0:
217,247,90139,2,0,L|249:302,1,35
355,207,90305,6,0,L|315:137,1,70,4|0,0:0|0:0,0:0:0:0:
88,93,90639,1,0,0:0:0:0:
217,247,90805,5,0,0:0:0:0:
211,278,90889,1,0,0:0:0:0:
193,304,90973,1,0,0:0:0:0:
167,321,91056,1,0,0:0:0:0:
136,327,91139,1,0,0:0:0:0:
105,321,91223,1,0,0:0:0:0:
79,304,91306,1,0,0:0:0:0:
61,277,91389,1,0,0:0:0:0:
55,247,91472,2,0,L|66:183,1,35
88,93,91639,5,4,0:0:0:0:
106,67,91722,1,0,0:0:0:0:
132,49,91806,1,0,0:0:0:0:
163,43,91889,1,0,0:0:0:0:
194,49,91972,1,0,0:0:0:0:
220,67,92056,1,0,0:0:0:0:
238,93,92139,2,0,L|249:156,1,35
271,247,92305,5,4,0:0:0:0:
290,276,92389,1,0,0:0:0:0:
319,295,92472,1,0,0:0:0:0:
354,302,92555,1,0,0:0:0:0:
388,295,92639,1,0,0:0:0:0:
417,276,92722,1,0,0:0:0:0:
437,247,92805,2,0,L|450:200,1,35
448,80,92972,6,0,L|448:32,4,35,4|0|0|0|0,0:0|0:0|0:0|0:0|0:0,0:0:0:0:
416,80,93389,1,0,0:0:0:0:
392,80,93472,1,0,0:0:0:0:
369,80,93555,1,0,0:0:0:0:
346,80,93639,1,0,0:0:0:0:
322,80,93722,1,0,0:0:0:0:
299,80,93805,1,0,0:0:0:0:
276,80,93889,1,0,0:0:0:0:
252,80,93972,1,0,0:0:0:0:
229,80,94056,1,0,0:0:0:0:
206,80,94139,1,0,0:0:0:0:
182,80,94222,1,0,0:0:0:0:
158,80,94305,6,0,L|110:80,3,35,4|0|0|0,0:0|0:0|0:0|0:0,0:0:0:0:
87,95,94638,1,0,0:0:0:0:
57,118,94722,1,0,0:0:0:0:
33,149,94805,1,0,0:0:0:0:
19,184,94888,1,0,0:0:0:0:
14,222,94972,1,0,0:0:0:0:
19,261,95055,1,0,0:0:0:0:
33,296,95138,1,0,0:0:0:0:
57,327,95222,1,0,0:0:0:0:
87,350,95305,1,0,0:0:0:0:
123,365,95388,1,0,0:0:0:0:
161,370,95472,1,0,0:0:0:0:
199,365,95555,1,0,0:0:0:0:
235,350,95638,5,4,0:0:0:0:
247,337,95722,1,0,0:0:0:0:
259,325,95806,1,0,0:0:0:0:
272,312,95889,1,0,0:0:0:0:
284,300,95972,1,0,0:0:0:0:
296,288,96055,1,0,0:0:0:0:
309,275,96139,1,0,0:0:0:0:
321,263,96222,1,0,0:0:0:0:
333,251,96305,1,4,0:0:0:0:
346,238,96389,1,0,0:0:0:0:
358,226,96472,1,0,0:0:0:0:
371,213,96555,1,0,0:0:0:0:
383,201,96639,1,0,0:0:0:0:
395,189,96722,1,0,0:0:0:0:
408,176,96805,1,0,0:0:0:0:
420,164,96889,1,0,0:0:0:0:
432,152,96972,5,0,0:0:0:0:
431,135,97055,1,0,0:0:0:0:
425,118,97138,1,0,0:0:0:0:
417,102,97221,1,0,0:0:0:0:
406,89,97305,1,0,0:0:0:0:
393,78,97388,1,0,0:0:0:0:
377,70,97471,1,0,0:0:0:0:
360,65,97555,1,0,0:0:0:0:
343,63,97638,1,0,0:0:0:0:
326,65,97721,1,0,0:0:0:0:
309,70,97805,1,0,0:0:0:0:
293,78,97888,1,0,0:0:0:0:
280,89,97971,1,0,0:0:0:0:
269,102,98055,1,0,0:0:0:0:
260,118,98138,1,0,0:0:0:0:
255,135,98221,1,0,0:0:0:0:
254,152,98305,6,0,L|254:232,1,70,4|0,0:0|0:0,0:0:0:0:
184,292,98639,5,4,0:0:0:0:
149,292,98722,1,0,0:0:0:0:
114,292,98805,1,0,0:0:0:0:
254,222,98972,5,4,0:0:0:0:
254,257,99055,1,0,0:0:0:0:
254,292,99138,1,0,0:0:0:0:
394,292,99305,5,4,0:0:0:0:
359,292,99388,1,0,0:0:0:0:
324,292,99471,1,0,0:0:0:0:
464,362,99639,5,4,0:0:0:0:
464,327,99722,1,0,0:0:0:0:
464,292,99805,1,0,0:0:0:0:
394,152,99972,5,4,0:0:0:0:
394,187,100055,1,0,0:0:0:0:
394,222,100138,1,0,0:0:0:0:
254,292,100305,5,4,0:0:0:0:
289,292,100388,1,0,0:0:0:0:
324,292,100471,1,0,0:0:0:0:
464,222,100639,5,4,0:0:0:0:
429,222,100722,1,0,0:0:0:0:
394,222,100805,1,0,0:0:0:0:
254,152,100972,6,0,L|302:152,2,35,2|0|0,0:0|0:0|0:0,0:0:0:0:
250,261,101305,6,0,L|250:296,2,35,2|0|0,0:0|0:0|0:0,0:0:0:0:
141,256,101639,6,0,L|106:256,2,35,2|0|0,0:0|0:0|0:0,0:0:0:0:
254,187,101972,5,4,0:0:0:0:
254,169,102055,1,0,0:0:0:0:
254,152,102139,1,0,0:0:0:0:
145,77,102305,6,0,L|145:29,2,35,2|0|0,0:0|0:0|0:0,0:0:0:0:
254,82,102639,6,0,L|289:82,2,35,2|0|0,0:0|0:0|0:0,0:0:0:0:
249,191,102972,6,0,L|249:226,2,35,2|0|0,0:0|0:0|0:0,0:0:0:0:
140,186,103305,6,0,L|105:186,2,35,2|0|0,0:0|0:0|0:0,0:0:0:0:
249,191,103639,5,4,0:0:0:0:
155,133,103972,6,0,L|224:173,1,52.5000020027161
335,238,104138,2,0,L|266:198,1,52.5000020027161
193,95,104305,6,0,L|233:164,1,52.5000020027161
297,276,104471,2,0,L|257:207,1,52.5000020027161
245,81,104639,6,0,L|245:161,1,52.5000020027161
245,290,104805,2,0,L|245:210,1,52.5000020027161
297,95,104972,6,0,L|257:164,1,52.5000020027161
193,276,105138,2,0,L|233:207,1,52.5000020027161
335,133,105305,5,0,0:0:0:0:
155,238,105472,1,0,0:0:0:0:
350,185,105639,5,0,0:0:0:0:
376,184,105722,1,0,0:0:0:0:
402,184,105805,1,0,0:0:0:0:
428,183,105889,1,0,0:0:0:0:
454,183,105972,2,0,L|454:71,1,105.000004005432
400,52,106222,1,0,0:0:0:0:
346,78,106305,2,0,L|346:183,1,105.000004005432,4|0,0:0|0:0,0:0:0:0:
134,183,106639,6,0,L|134:235,1,52.5000020027161
187,342,106805,2,0,L|187:289,1,52.5000020027161
240,183,106972,2,0,L|240:235,1,52.5000020027161
293,342,107139,2,0,L|293:289,1,52.5000020027161
346,235,107305,2,0,L|346:183,1,52.5000020027161
240,182,107472,6,0,L|240:235,1,52.5000020027161
134,130,107639,2,0,L|134:182,1,52.5000020027161
187,23,107805,2,0,L|187:103,1,52.5000020027161
293,23,107973,2,0,L|293:103,1,52.5000020027161
346,130,108139,2,0,L|346:182,1,52.5000020027161
240,183,108305,5,0,0:0:0:0:
240,156,108389,1,0,0:0:0:0:
240,130,108472,1,0,0:0:0:0:
240,103,108555,1,0,0:0:0:0:
240,77,108639,2,0,P|190:92|141:76,1,105.000004005432
375,65,108972,5,4,0:0:0:0:
390,114,109055,1,0,0:0:0:0:
374,163,109138,1,0,0:0:0:0:
240,183,109305,6,0,P|190:167|141:183,1,105.000004005432
241,380,109639,1,4,0:0:0:0:
263,332,109722,1,0,0:0:0:0:
271,281,109805,1,0,0:0:0:0:
262,229,109888,1,0,0:0:0:0:
239,182,109972,6,0,P|223:132|239:83,1,105.000004005432
437,85,110305,1,4,0:0:0:0:
389,107,110388,1,0,0:0:0:0:
338,115,110471,1,0,0:0:0:0:
286,106,110554,1,0,0:0:0:0:
239,83,110638,6,0,P|189:67|140:83,1,105.000004005432
41,184,110972,1,4,0:0:0:0:
89,206,111055,1,0,0:0:0:0:
140,214,111138,1,0,0:0:0:0:
192,205,111221,1,0,0:0:0:0:
239,182,111305,6,0,P|288:166|337:182,1,105.000004005432
437,283,111639,1,4,0:0:0:0:
413,294,111722,1,0,0:0:0:0:
389,305,111805,1,0,0:0:0:0:
365,316,111889,1,0,0:0:0:0:
341,327,111972,5,4,0:0:0:0:
330,303,112055,1,0,0:0:0:0:
319,279,112138,1,0,0:0:0:0:
308,255,112222,1,0,0:0:0:0:
297,231,112305,5,4,0:0:0:0:
321,220,112388,1,0,0:0:0:0:
345,209,112471,1,0,0:0:0:0:
369,198,112555,1,0,0:0:0:0:
393,187,112639,6,4,L|425:131,1,52.5000020027161
332,84,112805,6,0,L|332:137,1,52.5000020027161
271,187,112972,5,4,0:0:0:0:
257,198,113055,1,0,0:0:0:0:
242,207,113139,1,0,0:0:0:0:
226,213,113222,1,0,0:0:0:0:
209,215,113305,1,4,0:0:0:0:
191,215,113389,1,0,0:0:0:0:
174,211,113472,1,0,0:0:0:0:
158,205,113555,1,0,0:0:0:0:
142,198,113639,1,4,0:0:0:0:
126,190,113722,1,0,0:0:0:0:
110,182,113805,1,0,0:0:0:0:
94,177,113889,1,0,0:0:0:0:
76,175,113972,1,4,0:0:0:0:
59,177,114055,1,0,0:0:0:0:
43,184,114139,1,0,0:0:0:0:
28,193,114222,1,0,0:0:0:0:
15,204,114305,5,4,0:0:0:0:
32,234,114389,1,0,0:0:0:0:
49,264,114472,1,0,0:0:0:0:
67,294,114555,1,0,0:0:0:0:
84,325,114639,5,4,0:0:0:0:
113,307,114723,1,0,0:0:0:0:
143,290,114806,1,0,0:0:0:0:
174,272,114889,1,0,0:0:0:0:
204,256,114972,5,4,0:0:0:0:
186,227,115056,1,0,0:0:0:0:
169,197,115139,1,0,0:0:0:0:
151,166,115222,1,0,0:0:0:0:
135,136,115305,5,4,0:0:0:0:
166,118,115388,1,0,0:0:0:0:
196,102,115472,2,0,L|251:70,1,52.5000020027161
331,21,115639,5,4,0:0:0:0:
353,53,115722,1,0,0:0:0:0:
360,92,115805,1,0,0:0:0:0:
351,130,115889,1,0,0:0:0:0:
333,165,115973,1,4,0:0:0:0:
320,202,116056,1,0,0:0:0:0:
325,241,116139,1,0,0:0:0:0:
346,274,116223,1,0,0:0:0:0:
331,315,116305,5,4,0:0:0:0:
286,344,116388,1,0,0:0:0:0:
234,354,116472,1,2,0:0:0:0:
182,344,116555,1,0,0:0:0:0:
137,315,116639,5,4,0:0:0:0:
102,262,116722,1,8,0:0:0:0:
90,201,116805,1,2,0:0:0:0:
102,139,116888,1,8,0:0:0:0:
137,87,116972,1,4,0:0:0:0:
192,128,117972,5,0,0:0:0:0:
256,80,118305,1,0,0:0:0:0:
320,128,118639,2,0,L|320:208,1,70
256,246,119305,1,0,0:0:0:0:
191,127,119639,6,0,P|256:59|320:127,1,210
320,127,120972,6,0,P|384:195|448:126,1,210
448,126,122305,6,0,L|448:16,1,98
448,28,122972,6,0,L|338:28,1,98
350,28,123639,6,0,L|350:138,1,98
350,140,124305,5,0,0:0:0:0:
252,238,124639,1,0,0:0:0:0:
154,140,124972,1,0,0:0:0:0:
256,192,125055,12,0,127472,0:0:0:0:
326,174,127639,6,0,B|353:204|361:266|288:283|288:283|267:224|235:245|201:231|186:285|186:285|80:272|129:173|158:181|187:176|187:176|223:167,1,491.400001874542
256,192,129805,12,0,133639,0:0:0:0:
