osu file format v14

[General]
AudioFilename: fi.mp3
AudioLeadIn: 0
PreviewTime: 82315
Countdown: 0
SampleSet: Soft
StackLeniency: 0.6
Mode: 3
LetterboxInBreaks: 0
SpecialStyle: 0
WidescreenStoryboard: 1

[Editor]
Bookmarks: 8738,19404,30071,35404,39404,42436,43428,56738,67404,72305,72639,78071,83404,96734,99401,104738,118071
DistanceSpacing: 0.8
BeatDivisor: 4
GridSize: 4
TimelineZoom: 1.9

[Metadata]
Title:F.I
TitleUnicode:F.I
Artist:44teru-k
ArtistUnicode:44teru-k
Creator:17VA
Version:Impromptu
Source:BMS
Tags:Frederic Chopin holic 44teru-k respect for Chopin O2jam Classical fantasie impromptu mix Ultimate Fantasy Electro Fantasy OST
BeatmapID:1289295
BeatmapSetID:599388

[Difficulty]
HPDrainRate:8.3
CircleSize:7
OverallDifficulty:7
ApproachRate:9
SliderMultiplier:1.9
SliderTickRate:1

[Events]
//Background and Video events
0,0,"11572606.jpg",0,0
//Break Periods
//Storyboard Layer 0 (Background)
//Storyboard Layer 1 (Fail)
//Storyboard Layer 2 (Pass)
//Storyboard Layer 3 (Foreground)
//Storyboard Sound Samples

[TimingPoints]
973,333.333333333333,4,2,1,0,1,0
34306,500,4,2,1,0,1,0
54306,333.333333333333,4,2,1,0,1,0
54306,-200,4,2,1,0,0,0
55639,-100,4,2,1,0,0,0
116972,669.642857142857,4,2,1,0,1,0

[Colours]
Combo1 : 255,255,128
Combo2 : 255,0,0
Combo3 : 128,255,128
Combo4 : 255,128,64

[HitObjects]
109,192,972,5,0,0:0:0:0:
402,192,1056,1,0,0:0:0:0:
109,192,1139,1,0,0:0:0:0:
402,192,1222,1,0,0:0:0:0:
109,192,1306,1,0,0:0:0:0:
402,192,1389,1,0,0:0:0:0:
109,192,1472,1,0,0:0:0:0:
402,192,1556,1,0,0:0:0:0:
109,192,1639,1,0,0:0:0:0:
402,192,1722,1,0,0:0:0:0:
109,192,1806,1,0,0:0:0:0:
402,192,1889,1,0,0:0:0:0:
109,192,1972,1,0,0:0:0:0:
402,192,2056,1,0,0:0:0:0:
109,192,2139,1,0,0:0:0:0:
402,192,2222,1,0,0:0:0:0:
36,192,2306,1,0,0:0:0:0:
329,192,2306,1,0,0:0:0:0:
475,192,2306,1,0,0:0:0:0:
182,192,2306,1,0,0:0:0:0:
256,192,2306,1,0,0:0:0:0:
109,192,2417,1,0,0:0:0:0:
256,192,2528,1,0,0:0:0:0:
182,192,2639,1,0,0:0:0:0:
36,192,2639,1,0,0:0:0:0:
329,192,2750,1,0,0:0:0:0:
402,192,2861,1,0,0:0:0:0:
475,192,2972,1,0,0:0:0:0:
109,192,2972,1,0,0:0:0:0:
329,192,3084,1,0,0:0:0:0:
256,192,3195,1,0,0:0:0:0:
402,192,3306,1,0,0:0:0:0:
36,192,3306,1,0,0:0:0:0:
329,192,3417,1,0,0:0:0:0:
182,192,3528,1,0,0:0:0:0:
329,192,3639,1,0,0:0:0:0:
475,192,3639,1,0,0:0:0:0:
36,192,3639,1,0,0:0:0:0:
109,192,3750,1,0,0:0:0:0:
256,192,3861,1,0,0:0:0:0:
36,192,3972,1,0,0:0:0:0:
182,192,3972,1,0,0:0:0:0:
329,192,4084,1,0,0:0:0:0:
402,192,4195,1,0,0:0:0:0:
109,192,4306,1,0,0:0:0:0:
475,192,4306,1,0,0:0:0:0:
329,192,4417,1,0,0:0:0:0:
256,192,4528,1,0,0:0:0:0:
402,192,4639,1,0,0:0:0:0:
36,192,4639,1,0,0:0:0:0:
329,192,4750,1,0,0:0:0:0:
182,192,4861,1,0,0:0:0:0:
36,192,4972,1,0,0:0:0:0:
475,192,4972,1,0,0:0:0:0:
329,192,4972,1,0,0:0:0:0:
109,192,5084,1,0,0:0:0:0:
256,192,5195,1,0,0:0:0:0:
36,192,5306,1,0,0:0:0:0:
182,192,5306,1,0,0:0:0:0:
329,192,5417,1,0,0:0:0:0:
402,192,5528,1,0,0:0:0:0:
109,192,5639,1,0,0:0:0:0:
475,192,5639,1,0,0:0:0:0:
329,192,5750,1,0,0:0:0:0:
256,192,5861,1,0,0:0:0:0:
36,192,5972,1,0,0:0:0:0:
402,192,5972,1,0,0:0:0:0:
329,192,6084,1,0,0:0:0:0:
182,192,6195,1,0,0:0:0:0:
329,192,6306,1,0,0:0:0:0:
475,192,6306,1,0,0:0:0:0:
36,192,6306,1,0,0:0:0:0:
109,192,6417,1,0,0:0:0:0:
256,192,6528,1,0,0:0:0:0:
36,192,6639,1,0,0:0:0:0:
182,192,6639,1,0,0:0:0:0:
329,192,6750,1,0,0:0:0:0:
402,192,6861,1,0,0:0:0:0:
109,192,6972,1,0,0:0:0:0:
475,192,6972,1,0,0:0:0:0:
329,192,7084,1,0,0:0:0:0:
182,192,7195,1,0,0:0:0:0:
402,192,7306,1,0,0:0:0:0:
36,192,7306,1,0,0:0:0:0:
329,192,7417,1,0,0:0:0:0:
36,192,7472,1,0,0:0:0:0:
256,192,7528,1,0,0:0:0:0:
36,192,7639,1,0,0:0:0:0:
402,192,7639,1,0,0:0:0:0:
475,192,7639,1,0,0:0:0:0:
329,192,7639,1,0,0:0:0:0:
182,192,7722,1,0,0:0:0:0:
256,192,7806,1,0,0:0:0:0:
402,192,7806,1,0,0:0:0:0:
182,192,7889,1,0,0:0:0:0:
36,192,7972,1,0,0:0:0:0:
329,192,7972,1,0,0:0:0:0:
475,192,7972,1,0,0:0:0:0:
182,192,8056,1,0,0:0:0:0:
256,192,8139,1,0,0:0:0:0:
109,192,8139,1,0,0:0:0:0:
475,192,8222,1,0,0:0:0:0:
402,192,8222,1,0,0:0:0:0:
329,192,8306,1,0,0:0:0:0:
36,192,8306,1,0,0:0:0:0:
182,192,8389,1,0,0:0:0:0:
329,192,8472,1,0,0:0:0:0:
475,192,8472,1,0,0:0:0:0:
182,192,8556,1,0,0:0:0:0:
109,192,8639,1,0,0:0:0:0:
36,192,8639,1,0,0:0:0:0:
402,192,8639,1,0,0:0:0:0:
256,192,8722,1,0,0:0:0:0:
329,192,8806,1,0,0:0:0:0:
182,192,8806,1,0,0:0:0:0:
475,192,8889,1,0,0:0:0:0:
256,192,8972,1,0,0:0:0:0:
36,192,8972,1,0,0:0:0:0:
182,192,9056,1,0,0:0:0:0:
402,192,9139,1,0,0:0:0:0:
329,192,9139,1,0,0:0:0:0:
182,192,9222,1,0,0:0:0:0:
36,192,9306,1,0,0:0:0:0:
475,192,9306,1,0,0:0:0:0:
256,192,9306,1,0,0:0:0:0:
329,192,9389,1,0,0:0:0:0:
182,192,9472,1,0,0:0:0:0:
109,192,9472,1,0,0:0:0:0:
256,192,9556,1,0,0:0:0:0:
402,192,9556,1,0,0:0:0:0:
329,192,9639,1,0,0:0:0:0:
36,192,9639,1,0,0:0:0:0:
182,192,9722,1,0,0:0:0:0:
475,192,9806,1,0,0:0:0:0:
329,192,9806,1,0,0:0:0:0:
182,192,9889,1,0,0:0:0:0:
36,192,9972,1,0,0:0:0:0:
402,192,9972,1,0,0:0:0:0:
109,192,9972,1,0,0:0:0:0:
256,192,10056,1,0,0:0:0:0:
329,192,10139,1,0,0:0:0:0:
182,192,10139,1,0,0:0:0:0:
475,192,10222,1,0,0:0:0:0:
36,192,10306,1,0,0:0:0:0:
402,192,10306,1,0,0:0:0:0:
256,192,10306,1,0,0:0:0:0:
109,192,10389,1,0,0:0:0:0:
182,192,10472,1,0,0:0:0:0:
402,192,10472,1,0,0:0:0:0:
256,192,10556,1,0,0:0:0:0:
109,192,10639,1,0,0:0:0:0:
329,192,10639,1,0,0:0:0:0:
475,192,10639,1,0,0:0:0:0:
182,192,10722,1,0,0:0:0:0:
256,192,10806,1,0,0:0:0:0:
36,192,10806,1,0,0:0:0:0:
329,192,10889,1,0,0:0:0:0:
475,192,10972,1,0,0:0:0:0:
36,192,10972,1,0,0:0:0:0:
182,192,10972,1,0,0:0:0:0:
402,192,11056,1,0,0:0:0:0:
329,192,11139,1,0,0:0:0:0:
109,192,11139,1,0,0:0:0:0:
256,192,11222,1,0,0:0:0:0:
36,192,11222,1,0,0:0:0:0:
182,192,11306,1,0,0:0:0:0:
402,192,11306,1,0,0:0:0:0:
475,192,11306,1,0,0:0:0:0:
109,192,11389,1,0,0:0:0:0:
256,192,11472,1,0,0:0:0:0:
402,192,11472,1,0,0:0:0:0:
109,192,11556,1,0,0:0:0:0:
329,192,11639,1,0,0:0:0:0:
36,192,11639,1,0,0:0:0:0:
182,192,11639,1,0,0:0:0:0:
475,192,11722,1,0,0:0:0:0:
256,192,11806,1,0,0:0:0:0:
402,192,11806,1,0,0:0:0:0:
182,192,11889,1,0,0:0:0:0:
109,192,11972,1,0,0:0:0:0:
329,192,11972,1,0,0:0:0:0:
402,192,12056,1,0,0:0:0:0:
182,192,12139,1,0,0:0:0:0:
256,192,12139,1,0,0:0:0:0:
36,192,12222,1,0,0:0:0:0:
475,192,12306,1,0,0:0:0:0:
329,192,12306,1,0,0:0:0:0:
256,192,12389,1,0,0:0:0:0:
182,192,12472,1,0,0:0:0:0:
402,192,12472,1,0,0:0:0:0:
109,192,12556,1,0,0:0:0:0:
256,192,12556,1,0,0:0:0:0:
329,192,12639,1,0,0:0:0:0:
475,192,12639,1,0,0:0:0:0:
36,192,12639,1,0,0:0:0:0:
109,192,12722,1,0,0:0:0:0:
329,192,12806,1,0,0:0:0:0:
475,192,12806,1,0,0:0:0:0:
182,192,12806,1,0,0:0:0:0:
109,192,12889,1,0,0:0:0:0:
402,192,12972,1,0,0:0:0:0:
329,192,12972,1,0,0:0:0:0:
36,192,12972,1,0,0:0:0:0:
475,192,12972,1,0,0:0:0:0:
182,192,13056,1,0,0:0:0:0:
256,192,13139,1,0,0:0:0:0:
402,192,13139,1,0,0:0:0:0:
182,192,13222,1,0,0:0:0:0:
36,192,13306,1,0,0:0:0:0:
475,192,13306,1,0,0:0:0:0:
329,192,13306,1,0,0:0:0:0:
182,192,13389,1,0,0:0:0:0:
109,192,13472,1,0,0:0:0:0:
256,192,13472,1,0,0:0:0:0:
402,192,13556,1,0,0:0:0:0:
475,192,13556,1,0,0:0:0:0:
36,192,13639,1,0,0:0:0:0:
329,192,13639,1,0,0:0:0:0:
182,192,13722,1,0,0:0:0:0:
475,192,13806,1,0,0:0:0:0:
329,192,13806,1,0,0:0:0:0:
182,192,13889,1,0,0:0:0:0:
109,192,13972,1,0,0:0:0:0:
36,192,13972,1,0,0:0:0:0:
402,192,13972,1,0,0:0:0:0:
256,192,14056,1,0,0:0:0:0:
329,192,14139,1,0,0:0:0:0:
182,192,14139,1,0,0:0:0:0:
475,192,14222,1,0,0:0:0:0:
36,192,14306,1,0,0:0:0:0:
256,192,14306,1,0,0:0:0:0:
109,192,14389,1,0,0:0:0:0:
402,192,14472,1,0,0:0:0:0:
329,192,14472,1,0,0:0:0:0:
109,192,14556,1,0,0:0:0:0:
256,192,14639,1,0,0:0:0:0:
36,192,14639,1,0,0:0:0:0:
475,192,14639,1,0,0:0:0:0:
329,192,14722,1,0,0:0:0:0:
182,192,14806,1,0,0:0:0:0:
109,192,14806,1,0,0:0:0:0:
475,192,14889,1,0,0:0:0:0:
256,192,14889,1,0,0:0:0:0:
36,192,14972,1,0,0:0:0:0:
329,192,14972,1,0,0:0:0:0:
182,192,15056,1,0,0:0:0:0:
329,192,15139,1,0,0:0:0:0:
475,192,15139,1,0,0:0:0:0:
182,192,15222,1,0,0:0:0:0:
36,192,15306,1,0,0:0:0:0:
109,192,15306,1,0,0:0:0:0:
329,192,15306,1,0,0:0:0:0:
256,192,15389,1,0,0:0:0:0:
182,192,15472,1,0,0:0:0:0:
402,192,15472,1,0,0:0:0:0:
475,192,15556,1,0,0:0:0:0:
109,192,15639,1,0,0:0:0:0:
329,192,15639,1,0,0:0:0:0:
182,192,15722,1,0,0:0:0:0:
109,192,15806,1,0,0:0:0:0:
329,192,15806,1,0,0:0:0:0:
36,192,15889,1,0,0:0:0:0:
109,192,15972,1,0,0:0:0:0:
256,192,15972,1,0,0:0:0:0:
475,192,15972,1,0,0:0:0:0:
402,192,16056,1,0,0:0:0:0:
329,192,16139,1,0,0:0:0:0:
182,192,16139,1,0,0:0:0:0:
109,192,16222,1,0,0:0:0:0:
36,192,16306,1,0,0:0:0:0:
256,192,16306,1,0,0:0:0:0:
475,192,16389,1,0,0:0:0:0:
402,192,16472,1,0,0:0:0:0:
109,192,16472,1,0,0:0:0:0:
329,192,16556,1,0,0:0:0:0:
256,192,16639,1,0,0:0:0:0:
475,192,16639,1,0,0:0:0:0:
36,192,16639,1,0,0:0:0:0:
182,192,16722,1,0,0:0:0:0:
109,192,16806,1,0,0:0:0:0:
475,192,16806,1,0,0:0:0:0:
36,192,16889,1,0,0:0:0:0:
402,192,16972,1,0,0:0:0:0:
36,192,16972,1,0,0:0:0:0:
109,192,16972,1,0,0:0:0:0:
182,192,16972,1,0,0:0:0:0:
256,192,16972,1,0,0:0:0:0:
329,192,17056,1,0,0:0:0:0:
475,192,17139,1,0,0:0:0:0:
36,192,17139,1,0,0:0:0:0:
182,192,17222,1,0,0:0:0:0:
329,192,17306,1,0,0:0:0:0:
36,192,17306,1,0,0:0:0:0:
109,192,17306,1,0,0:0:0:0:
475,192,17306,1,0,0:0:0:0:
402,192,17306,1,0,0:0:0:0:
256,192,17389,1,0,0:0:0:0:
402,192,17472,1,0,0:0:0:0:
36,192,17472,1,0,0:0:0:0:
109,192,17556,1,0,0:0:0:0:
256,192,17639,1,0,0:0:0:0:
36,192,17639,1,0,0:0:0:0:
402,192,17639,1,0,0:0:0:0:
475,192,17639,1,0,0:0:0:0:
329,192,17639,1,0,0:0:0:0:
182,192,17722,1,0,0:0:0:0:
329,192,17806,1,0,0:0:0:0:
475,192,17806,1,0,0:0:0:0:
182,192,17889,1,0,0:0:0:0:
109,192,17972,1,0,0:0:0:0:
402,192,17972,1,0,0:0:0:0:
475,192,17972,1,0,0:0:0:0:
36,192,17972,1,0,0:0:0:0:
256,192,17972,1,0,0:0:0:0:
182,192,18056,1,0,0:0:0:0:
329,192,18056,1,0,0:0:0:0:
109,192,18139,1,0,0:0:0:0:
402,192,18139,1,0,0:0:0:0:
256,192,18222,1,0,0:0:0:0:
182,192,18306,128,0,18556:0:0:0:0:
36,192,18306,1,0,0:0:0:0:
329,192,18306,1,0,0:0:0:0:
109,192,18306,1,0,0:0:0:0:
475,192,18389,1,0,0:0:0:0:
256,192,18472,1,0,0:0:0:0:
329,192,18556,1,0,0:0:0:0:
109,192,18639,128,0,18889:0:0:0:0:
182,192,18639,1,0,0:0:0:0:
475,192,18722,1,0,0:0:0:0:
256,192,18806,1,0,0:0:0:0:
329,192,18889,1,0,0:0:0:0:
36,192,18972,128,0,19222:0:0:0:0:
109,192,18972,1,0,0:0:0:0:
475,192,19056,1,0,0:0:0:0:
256,192,19139,1,0,0:0:0:0:
329,192,19222,1,0,0:0:0:0:
109,192,19306,128,0,19556:0:0:0:0:
36,192,19306,1,0,0:0:0:0:
475,192,19389,1,0,0:0:0:0:
256,192,19472,1,0,0:0:0:0:
329,192,19556,1,0,0:0:0:0:
36,192,19639,128,0,19889:0:0:0:0:
109,192,19639,1,0,0:0:0:0:
182,192,19639,1,0,0:0:0:0:
475,192,19722,1,0,0:0:0:0:
256,192,19806,1,0,0:0:0:0:
402,192,19889,1,0,0:0:0:0:
182,192,19972,128,0,20222:0:0:0:0:
36,192,19972,1,0,0:0:0:0:
109,192,19972,1,0,0:0:0:0:
475,192,20056,1,0,0:0:0:0:
256,192,20139,1,0,0:0:0:0:
402,192,20222,1,0,0:0:0:0:
329,192,20306,128,0,20556:0:0:0:0:
182,192,20306,1,0,0:0:0:0:
475,192,20306,1,0,0:0:0:0:
36,192,20389,1,0,0:0:0:0:
256,192,20472,1,0,0:0:0:0:
109,192,20556,1,0,0:0:0:0:
475,192,20639,128,0,20889:0:0:0:0:
329,192,20639,1,0,0:0:0:0:
36,192,20639,1,0,0:0:0:0:
182,192,20722,1,0,0:0:0:0:
256,192,20806,1,0,0:0:0:0:
36,192,20806,1,0,0:0:0:0:
402,192,20889,1,0,0:0:0:0:
36,192,20972,1,0,0:0:0:0:
182,192,20972,128,0,21222:0:0:0:0:
329,192,20972,1,0,0:0:0:0:
109,192,20972,1,0,0:0:0:0:
475,192,21056,1,0,0:0:0:0:
256,192,21139,1,0,0:0:0:0:
402,192,21222,1,0,0:0:0:0:
109,192,21306,128,0,21556:0:0:0:0:
182,192,21306,1,0,0:0:0:0:
475,192,21389,1,0,0:0:0:0:
256,192,21472,1,0,0:0:0:0:
402,192,21556,1,0,0:0:0:0:
36,192,21639,128,0,21889:0:0:0:0:
109,192,21639,1,0,0:0:0:0:
475,192,21722,1,0,0:0:0:0:
256,192,21806,1,0,0:0:0:0:
402,192,21889,1,0,0:0:0:0:
36,192,21972,1,0,0:0:0:0:
109,192,21972,128,0,22222:0:0:0:0:
475,192,22056,1,0,0:0:0:0:
256,192,22139,1,0,0:0:0:0:
402,192,22222,1,0,0:0:0:0:
36,192,22306,128,0,22556:0:0:0:0:
109,192,22306,1,0,0:0:0:0:
182,192,22306,1,0,0:0:0:0:
475,192,22389,1,0,0:0:0:0:
256,192,22472,1,0,0:0:0:0:
402,192,22556,1,0,0:0:0:0:
182,192,22639,128,0,22889:0:0:0:0:
36,192,22639,1,0,0:0:0:0:
109,192,22639,1,0,0:0:0:0:
475,192,22722,1,0,0:0:0:0:
256,192,22806,1,0,0:0:0:0:
402,192,22889,1,0,0:0:0:0:
475,192,22972,128,0,23222:0:0:0:0:
182,192,22972,1,0,0:0:0:0:
36,192,23056,1,0,0:0:0:0:
256,192,23139,1,0,0:0:0:0:
109,192,23222,1,0,0:0:0:0:
329,192,23306,128,0,23556:0:0:0:0:
475,192,23306,1,0,0:0:0:0:
182,192,23306,1,0,0:0:0:0:
36,192,23389,1,0,0:0:0:0:
256,192,23472,1,0,0:0:0:0:
475,192,23472,1,0,0:0:0:0:
109,192,23556,1,0,0:0:0:0:
182,192,23639,128,0,23889:0:0:0:0:
329,192,23639,1,0,0:0:0:0:
256,192,23639,1,0,0:0:0:0:
36,192,23639,1,0,0:0:0:0:
475,192,23722,1,0,0:0:0:0:
256,192,23806,1,0,0:0:0:0:
329,192,23889,1,0,0:0:0:0:
182,192,23972,1,0,0:0:0:0:
109,192,23972,128,0,24222:0:0:0:0:
475,192,24056,1,0,0:0:0:0:
256,192,24139,1,0,0:0:0:0:
329,192,24222,1,0,0:0:0:0:
36,192,24306,128,0,24556:0:0:0:0:
109,192,24306,1,0,0:0:0:0:
475,192,24389,1,0,0:0:0:0:
256,192,24472,1,0,0:0:0:0:
329,192,24556,1,0,0:0:0:0:
36,192,24639,1,0,0:0:0:0:
109,192,24639,128,0,24889:0:0:0:0:
475,192,24722,1,0,0:0:0:0:
256,192,24806,1,0,0:0:0:0:
329,192,24889,1,0,0:0:0:0:
182,192,24972,1,0,0:0:0:0:
36,192,24972,128,0,25222:0:0:0:0:
109,192,24972,1,0,0:0:0:0:
475,192,25056,1,0,0:0:0:0:
256,192,25139,1,0,0:0:0:0:
402,192,25222,1,0,0:0:0:0:
182,192,25306,128,0,25556:0:0:0:0:
109,192,25306,1,0,0:0:0:0:
36,192,25306,1,0,0:0:0:0:
475,192,25389,1,0,0:0:0:0:
256,192,25472,1,0,0:0:0:0:
402,192,25556,1,0,0:0:0:0:
329,192,25639,128,0,25889:0:0:0:0:
182,192,25639,1,0,0:0:0:0:
475,192,25639,1,0,0:0:0:0:
36,192,25722,1,0,0:0:0:0:
256,192,25806,1,0,0:0:0:0:
109,192,25889,1,0,0:0:0:0:
36,192,25972,1,0,0:0:0:0:
329,192,25972,1,0,0:0:0:0:
475,192,25972,128,0,26222:0:0:0:0:
182,192,26056,1,0,0:0:0:0:
36,192,26139,1,0,0:0:0:0:
256,192,26139,1,0,0:0:0:0:
402,192,26222,1,0,0:0:0:0:
329,192,26306,1,0,0:0:0:0:
109,192,26306,1,0,0:0:0:0:
36,192,26306,1,0,0:0:0:0:
182,192,26306,128,0,26556:0:0:0:0:
475,192,26389,1,0,0:0:0:0:
256,192,26472,1,0,0:0:0:0:
402,192,26556,1,0,0:0:0:0:
109,192,26639,128,0,26889:0:0:0:0:
182,192,26639,1,0,0:0:0:0:
475,192,26722,1,0,0:0:0:0:
256,192,26806,1,0,0:0:0:0:
402,192,26889,1,0,0:0:0:0:
475,192,26972,128,0,27222:0:0:0:0:
36,192,26972,1,0,0:0:0:0:
329,192,27056,1,0,0:0:0:0:
109,192,27139,1,0,0:0:0:0:
256,192,27222,1,0,0:0:0:0:
402,192,27306,128,0,27556:0:0:0:0:
36,192,27306,1,0,0:0:0:0:
475,192,27306,1,0,0:0:0:0:
329,192,27389,1,0,0:0:0:0:
109,192,27472,1,0,0:0:0:0:
256,192,27556,1,0,0:0:0:0:
402,192,27639,128,0,27889:0:0:0:0:
475,192,27639,1,0,0:0:0:0:
36,192,27639,1,0,0:0:0:0:
182,192,27639,1,0,0:0:0:0:
329,192,27722,1,0,0:0:0:0:
109,192,27806,1,0,0:0:0:0:
256,192,27889,1,0,0:0:0:0:
329,192,27972,128,0,28222:0:0:0:0:
36,192,27972,1,0,0:0:0:0:
475,192,28056,1,0,0:0:0:0:
109,192,28139,1,0,0:0:0:0:
256,192,28222,1,0,0:0:0:0:
182,192,28306,1,0,0:0:0:0:
329,192,28306,128,0,28556:0:0:0:0:
36,192,28306,1,0,0:0:0:0:
475,192,28389,1,0,0:0:0:0:
109,192,28472,1,0,0:0:0:0:
256,192,28556,1,0,0:0:0:0:
329,192,28639,128,0,28889:0:0:0:0:
36,192,28639,1,0,0:0:0:0:
475,192,28722,1,0,0:0:0:0:
109,192,28806,1,0,0:0:0:0:
256,192,28889,1,0,0:0:0:0:
182,192,28972,1,0,0:0:0:0:
36,192,28972,1,0,0:0:0:0:
402,192,28972,1,0,0:0:0:0:
475,192,29056,1,0,0:0:0:0:
256,192,29139,1,0,0:0:0:0:
36,192,29139,1,0,0:0:0:0:
329,192,29139,1,0,0:0:0:0:
402,192,29222,1,0,0:0:0:0:
182,192,29306,1,0,0:0:0:0:
36,192,29306,1,0,0:0:0:0:
256,192,29306,1,0,0:0:0:0:
475,192,29389,1,0,0:0:0:0:
256,192,29472,1,0,0:0:0:0:
36,192,29472,1,0,0:0:0:0:
329,192,29472,1,0,0:0:0:0:
402,192,29556,1,0,0:0:0:0:
182,192,29639,1,0,0:0:0:0:
36,192,29639,1,0,0:0:0:0:
109,192,29639,1,0,0:0:0:0:
329,192,29722,1,0,0:0:0:0:
256,192,29722,1,0,0:0:0:0:
402,192,29722,1,0,0:0:0:0:
475,192,29722,1,0,0:0:0:0:
36,192,29806,1,0,0:0:0:0:
182,192,29889,1,0,0:0:0:0:
36,192,29972,1,0,0:0:0:0:
475,192,29972,1,0,0:0:0:0:
329,192,29972,1,0,0:0:0:0:
182,192,30056,1,0,0:0:0:0:
256,192,30139,1,0,0:0:0:0:
475,192,30139,1,0,0:0:0:0:
402,192,30139,1,0,0:0:0:0:
109,192,30222,1,0,0:0:0:0:
182,192,30306,1,0,0:0:0:0:
329,192,30306,1,0,0:0:0:0:
36,192,30306,1,0,0:0:0:0:
475,192,30389,1,0,0:0:0:0:
256,192,30472,1,0,0:0:0:0:
36,192,30472,1,0,0:0:0:0:
109,192,30472,1,0,0:0:0:0:
402,192,30556,1,0,0:0:0:0:
36,192,30639,1,0,0:0:0:0:
256,192,30639,1,0,0:0:0:0:
109,192,30722,1,0,0:0:0:0:
329,192,30722,1,0,0:0:0:0:
182,192,30806,1,0,0:0:0:0:
402,192,30806,1,0,0:0:0:0:
256,192,30889,1,0,0:0:0:0:
475,192,30889,1,0,0:0:0:0:
36,192,30972,1,0,0:0:0:0:
182,192,30972,1,0,0:0:0:0:
256,192,31056,1,0,0:0:0:0:
329,192,31056,1,0,0:0:0:0:
475,192,31056,1,0,0:0:0:0:
109,192,31139,1,0,0:0:0:0:
182,192,31139,1,0,0:0:0:0:
402,192,31222,1,0,0:0:0:0:
329,192,31222,1,0,0:0:0:0:
36,192,31306,1,0,0:0:0:0:
182,192,31306,1,0,0:0:0:0:
256,192,31306,1,0,0:0:0:0:
329,192,31389,1,0,0:0:0:0:
475,192,31389,1,0,0:0:0:0:
109,192,31472,1,0,0:0:0:0:
182,192,31472,1,0,0:0:0:0:
329,192,31556,1,0,0:0:0:0:
402,192,31556,1,0,0:0:0:0:
36,192,31639,1,0,0:0:0:0:
256,192,31639,1,0,0:0:0:0:
475,192,31639,1,0,0:0:0:0:
109,192,31639,1,0,0:0:0:0:
182,192,31722,1,0,0:0:0:0:
402,192,31722,1,0,0:0:0:0:
36,192,31806,1,0,0:0:0:0:
329,192,31806,1,0,0:0:0:0:
182,192,31889,1,0,0:0:0:0:
256,192,31889,1,0,0:0:0:0:
36,192,31972,1,0,0:0:0:0:
109,192,31972,1,0,0:0:0:0:
402,192,31972,1,0,0:0:0:0:
475,192,31972,1,0,0:0:0:0:
182,192,32056,1,0,0:0:0:0:
329,192,32056,1,0,0:0:0:0:
36,192,32139,1,0,0:0:0:0:
256,192,32139,1,0,0:0:0:0:
182,192,32222,1,0,0:0:0:0:
475,192,32222,1,0,0:0:0:0:
36,192,32306,1,0,0:0:0:0:
109,192,32306,1,0,0:0:0:0:
329,192,32306,1,0,0:0:0:0:
402,192,32306,1,0,0:0:0:0:
182,192,32389,1,0,0:0:0:0:
256,192,32389,1,0,0:0:0:0:
36,192,32472,1,0,0:0:0:0:
475,192,32472,1,0,0:0:0:0:
182,192,32556,1,0,0:0:0:0:
402,192,32556,1,0,0:0:0:0:
36,192,32639,1,0,0:0:0:0:
109,192,32639,1,0,0:0:0:0:
256,192,32639,1,0,0:0:0:0:
329,192,32639,1,0,0:0:0:0:
182,192,32722,1,0,0:0:0:0:
475,192,32722,1,0,0:0:0:0:
36,192,32806,1,0,0:0:0:0:
402,192,32806,1,0,0:0:0:0:
182,192,32889,1,0,0:0:0:0:
329,192,32889,1,0,0:0:0:0:
36,192,32972,1,0,0:0:0:0:
109,192,32972,1,0,0:0:0:0:
256,192,32972,1,0,0:0:0:0:
475,192,32972,1,0,0:0:0:0:
182,192,33056,1,0,0:0:0:0:
402,192,33056,1,0,0:0:0:0:
109,192,33139,1,0,0:0:0:0:
329,192,33139,1,0,0:0:0:0:
36,192,33222,1,0,0:0:0:0:
256,192,33222,1,0,0:0:0:0:
182,192,33306,1,0,0:0:0:0:
402,192,33306,1,0,0:0:0:0:
475,192,33306,1,0,0:0:0:0:
329,192,33389,1,0,0:0:0:0:
109,192,33389,1,0,0:0:0:0:
256,192,33472,1,0,0:0:0:0:
36,192,33472,1,0,0:0:0:0:
182,192,33472,1,0,0:0:0:0:
475,192,33556,1,0,0:0:0:0:
329,192,33556,1,0,0:0:0:0:
402,192,33556,1,0,0:0:0:0:
182,192,33639,1,0,0:0:0:0:
36,192,33639,1,0,0:0:0:0:
109,192,33722,1,0,0:0:0:0:
329,192,33722,1,0,0:0:0:0:
475,192,33722,1,0,0:0:0:0:
256,192,33722,1,0,0:0:0:0:
402,192,33806,1,0,0:0:0:0:
36,192,33806,1,0,0:0:0:0:
182,192,33806,1,0,0:0:0:0:
109,192,33889,1,0,0:0:0:0:
329,192,33889,1,0,0:0:0:0:
36,192,33972,1,0,0:0:0:0:
182,192,33972,1,0,0:0:0:0:
256,192,33972,1,0,0:0:0:0:
475,192,33972,1,0,0:0:0:0:
109,192,34056,1,0,0:0:0:0:
402,192,34056,1,0,0:0:0:0:
36,192,34139,1,0,0:0:0:0:
182,192,34139,1,0,0:0:0:0:
329,192,34139,1,0,0:0:0:0:
109,192,34222,1,0,0:0:0:0:
256,192,34222,1,0,0:0:0:0:
36,192,34306,1,0,0:0:0:0:
475,192,34306,1,0,0:0:0:0:
182,192,34306,1,0,0:0:0:0:
329,192,34306,1,0,0:0:0:0:
402,192,34306,1,0,0:0:0:0:
182,192,38306,128,0,39139:0:0:0:0:
329,192,39274,1,0,0:0:0:0:
402,192,39337,1,0,0:0:0:0:
329,192,39368,1,0,0:0:0:0:
109,192,39556,128,0,39774:0:0:0:0:
256,192,39774,128,0,40024:0:0:0:0:
402,192,40024,128,0,40274:0:0:0:0:
329,192,40274,128,0,41337:0:0:0:0:
36,192,40306,1,0,0:0:0:0:
109,192,40472,1,0,0:0:0:0:
182,192,40639,1,0,0:0:0:0:
256,192,40806,1,0,0:0:0:0:
182,192,40972,1,0,0:0:0:0:
109,192,41139,1,0,0:0:0:0:
36,192,41306,1,0,0:0:0:0:
475,192,41337,128,0,42149:0:0:0:0:
109,192,41472,1,0,0:0:0:0:
182,192,41639,1,0,0:0:0:0:
329,192,41806,1,0,0:0:0:0:
256,192,41972,1,0,0:0:0:0:
182,192,42139,1,0,0:0:0:0:
329,192,42306,1,0,0:0:0:0:
475,192,42306,1,0,0:0:0:0:
256,192,42472,1,0,0:0:0:0:
36,192,42639,1,0,0:0:0:0:
256,192,42806,1,0,0:0:0:0:
402,192,42806,1,0,0:0:0:0:
182,192,42972,1,0,0:0:0:0:
36,192,43139,1,0,0:0:0:0:
182,192,43306,1,0,0:0:0:0:
329,192,43306,1,0,0:0:0:0:
109,192,43472,1,0,0:0:0:0:
475,192,43493,1,0,0:0:0:0:
402,192,43587,1,0,0:0:0:0:
329,192,43618,1,0,0:0:0:0:
36,192,43639,1,0,0:0:0:0:
402,192,43712,1,0,0:0:0:0:
475,192,43806,1,0,0:0:0:0:
256,192,43837,1,0,0:0:0:0:
109,192,43972,1,0,0:0:0:0:
329,192,44097,1,0,0:0:0:0:
36,192,44306,1,0,0:0:0:0:
256,192,44306,128,0,45139:0:0:0:0:
109,192,44472,1,0,0:0:0:0:
182,192,44639,1,0,0:0:0:0:
475,192,44806,1,0,0:0:0:0:
329,192,44972,1,0,0:0:0:0:
182,192,45139,1,0,0:0:0:0:
402,192,45306,128,0,46306:0:0:0:0:
256,192,45306,1,0,0:0:0:0:
36,192,45306,1,0,0:0:0:0:
109,192,45472,1,0,0:0:0:0:
182,192,45639,1,0,0:0:0:0:
329,192,45806,1,0,0:0:0:0:
256,192,45972,1,0,0:0:0:0:
182,192,46139,1,0,0:0:0:0:
36,192,46306,1,0,0:0:0:0:
109,192,46472,1,0,0:0:0:0:
182,192,46639,1,0,0:0:0:0:
256,192,46806,1,0,0:0:0:0:
182,192,46972,1,0,0:0:0:0:
109,192,47139,1,0,0:0:0:0:
329,192,47243,1,0,0:0:0:0:
402,192,47274,1,0,0:0:0:0:
329,192,47306,1,0,0:0:0:0:
36,192,47306,1,0,0:0:0:0:
256,192,47472,1,0,0:0:0:0:
109,192,47524,128,0,47774:0:0:0:0:
402,192,47639,1,0,0:0:0:0:
256,192,47806,128,0,48056:0:0:0:0:
475,192,47806,1,0,0:0:0:0:
329,192,47972,1,0,0:0:0:0:
402,192,48056,128,0,48306:0:0:0:0:
182,192,48139,1,0,0:0:0:0:
36,192,48306,1,0,0:0:0:0:
475,192,48306,1,0,0:0:0:0:
329,192,48306,1,0,0:0:0:0:
182,192,48472,1,0,0:0:0:0:
109,192,48639,1,0,0:0:0:0:
36,192,48806,1,0,0:0:0:0:
402,192,48806,1,0,0:0:0:0:
256,192,48806,1,0,0:0:0:0:
182,192,48972,1,0,0:0:0:0:
109,192,49139,1,0,0:0:0:0:
36,192,49306,1,0,0:0:0:0:
329,192,49306,1,0,0:0:0:0:
402,192,49306,1,0,0:0:0:0:
182,192,49472,1,0,0:0:0:0:
109,192,49639,1,0,0:0:0:0:
36,192,49806,1,0,0:0:0:0:
402,192,49806,1,0,0:0:0:0:
475,192,49806,1,0,0:0:0:0:
182,192,49972,1,0,0:0:0:0:
109,192,50139,1,0,0:0:0:0:
36,192,50306,1,0,0:0:0:0:
182,192,50337,128,0,50806:0:0:0:0:
256,192,50472,1,0,0:0:0:0:
402,192,50639,1,0,0:0:0:0:
475,192,50806,1,0,0:0:0:0:
182,192,50889,1,0,0:0:0:0:
402,192,50972,1,0,0:0:0:0:
256,192,51056,1,0,0:0:0:0:
109,192,51139,1,0,0:0:0:0:
475,192,51181,1,0,0:0:0:0:
182,192,51243,1,0,0:0:0:0:
36,192,51306,1,0,0:0:0:0:
329,192,51347,128,0,52014:0:0:0:0:
256,192,51472,1,0,0:0:0:0:
402,192,51639,1,0,0:0:0:0:
475,192,51806,1,0,0:0:0:0:
256,192,52014,1,0,0:0:0:0:
109,192,52097,1,0,0:0:0:0:
36,192,52306,1,0,0:0:0:0:
256,192,52306,128,0,54139:0:0:0:0:
109,192,52472,1,0,0:0:0:0:
182,192,52639,1,0,0:0:0:0:
475,192,52806,1,0,0:0:0:0:
402,192,52972,1,0,0:0:0:0:
329,192,53139,1,0,0:0:0:0:
36,192,53306,1,0,0:0:0:0:
109,192,53472,1,0,0:0:0:0:
182,192,53639,1,0,0:0:0:0:
475,192,53806,1,0,0:0:0:0:
402,192,53972,1,0,0:0:0:0:
329,192,54139,1,0,0:0:0:0:
36,192,54306,1,0,0:0:0:0:
256,192,54306,1,0,0:0:0:0:
109,192,54528,1,0,0:0:0:0:
329,192,54528,1,0,0:0:0:0:
182,192,54750,1,0,0:0:0:0:
402,192,54750,1,0,0:0:0:0:
256,192,54972,1,0,0:0:0:0:
475,192,54972,1,0,0:0:0:0:
182,192,55194,1,0,0:0:0:0:
402,192,55194,1,0,0:0:0:0:
109,192,55417,1,0,0:0:0:0:
329,192,55417,1,0,0:0:0:0:
36,192,55639,1,0,0:0:0:0:
109,192,55639,1,0,0:0:0:0:
329,192,55639,1,0,0:0:0:0:
402,192,55639,128,0,55889:0:0:0:0:
475,192,55639,128,0,55889:0:0:0:0:
182,192,55722,128,0,55847:0:0:0:0:
256,192,55806,128,0,55931:0:0:0:0:
329,192,55806,1,0,0:0:0:0:
182,192,55889,128,0,56014:0:0:0:0:
109,192,55972,128,0,56097:0:0:0:0:
402,192,55972,1,0,0:0:0:0:
475,192,55972,1,0,0:0:0:0:
182,192,56056,128,0,56181:0:0:0:0:
329,192,56139,128,0,56264:0:0:0:0:
36,192,56139,1,0,0:0:0:0:
475,192,56222,128,0,56347:0:0:0:0:
182,192,56306,128,0,56431:0:0:0:0:
256,192,56306,1,0,0:0:0:0:
402,192,56306,1,0,0:0:0:0:
36,192,56389,128,0,56514:0:0:0:0:
182,192,56472,128,0,56597:0:0:0:0:
329,192,56472,1,0,0:0:0:0:
36,192,56556,128,0,56681:0:0:0:0:
475,192,56639,1,0,0:0:0:0:
402,192,56639,1,0,0:0:0:0:
256,192,56639,128,0,56764:0:0:0:0:
329,192,56722,128,0,56847:0:0:0:0:
402,192,56806,128,0,56931:0:0:0:0:
109,192,56806,1,0,0:0:0:0:
475,192,56889,128,0,57014:0:0:0:0:
36,192,56972,128,0,57222:0:0:0:0:
109,192,56972,128,0,57222:0:0:0:0:
182,192,56972,1,0,0:0:0:0:
256,192,56972,1,0,0:0:0:0:
329,192,57056,128,0,57181:0:0:0:0:
256,192,57139,128,0,57264:0:0:0:0:
182,192,57139,1,0,0:0:0:0:
329,192,57222,128,0,57347:0:0:0:0:
36,192,57306,1,0,0:0:0:0:
109,192,57306,1,0,0:0:0:0:
402,192,57306,128,0,57431:0:0:0:0:
329,192,57389,128,0,57514:0:0:0:0:
182,192,57472,128,0,57597:0:0:0:0:
475,192,57472,1,0,0:0:0:0:
36,192,57556,128,0,57681:0:0:0:0:
109,192,57639,1,0,0:0:0:0:
256,192,57639,1,0,0:0:0:0:
329,192,57639,128,0,57764:0:0:0:0:
475,192,57722,128,0,57847:0:0:0:0:
182,192,57805,1,0,0:0:0:0:
329,192,57805,128,0,57930:0:0:0:0:
475,192,57889,128,0,58014:0:0:0:0:
36,192,57972,1,0,0:0:0:0:
109,192,57972,1,0,0:0:0:0:
256,192,57972,128,0,58097:0:0:0:0:
182,192,58055,128,0,58180:0:0:0:0:
329,192,58139,1,0,0:0:0:0:
109,192,58139,128,0,58264:0:0:0:0:
36,192,58222,128,0,58347:0:0:0:0:
256,192,58305,128,0,58514:0:0:0:0:
402,192,58305,1,0,0:0:0:0:
475,192,58305,1,0,0:0:0:0:
329,192,58389,128,0,58597:0:0:0:0:
402,192,58472,128,0,58680:0:0:0:0:
109,192,58472,1,0,0:0:0:0:
475,192,58555,128,0,58764:0:0:0:0:
182,192,58639,128,0,58847:0:0:0:0:
256,192,58639,1,0,0:0:0:0:
329,192,58639,1,0,0:0:0:0:
256,192,58722,128,0,58930:0:0:0:0:
329,192,58805,128,0,59014:0:0:0:0:
475,192,58805,1,0,0:0:0:0:
402,192,58889,128,0,59097:0:0:0:0:
256,192,58972,128,0,59180:0:0:0:0:
36,192,58972,1,0,0:0:0:0:
109,192,58972,1,0,0:0:0:0:
182,192,59055,128,0,59264:0:0:0:0:
109,192,59139,128,0,59347:0:0:0:0:
402,192,59139,1,0,0:0:0:0:
36,192,59222,128,0,59430:0:0:0:0:
329,192,59305,128,0,59514:0:0:0:0:
182,192,59305,1,0,0:0:0:0:
256,192,59305,1,0,0:0:0:0:
475,192,59389,128,0,59597:0:0:0:0:
256,192,59472,128,0,59680:0:0:0:0:
109,192,59472,1,0,0:0:0:0:
402,192,59555,128,0,59764:0:0:0:0:
182,192,59639,1,0,0:0:0:0:
36,192,59639,128,0,60930:0:0:0:0:
329,192,59639,1,0,0:0:0:0:
109,192,59639,1,0,0:0:0:0:
475,192,59722,128,0,59930:0:0:0:0:
402,192,59805,128,0,60014:0:0:0:0:
329,192,59889,128,0,60097:0:0:0:0:
256,192,59972,128,0,60180:0:0:0:0:
109,192,59972,1,0,0:0:0:0:
182,192,59972,1,0,0:0:0:0:
402,192,60055,128,0,60264:0:0:0:0:
329,192,60139,128,0,60347:0:0:0:0:
256,192,60222,128,0,60430:0:0:0:0:
182,192,60305,128,0,60514:0:0:0:0:
475,192,60305,1,0,0:0:0:0:
402,192,60305,1,0,0:0:0:0:
329,192,60389,128,0,60597:0:0:0:0:
256,192,60472,128,0,60680:0:0:0:0:
182,192,60555,128,0,60764:0:0:0:0:
109,192,60639,128,0,60847:0:0:0:0:
475,192,60639,1,0,0:0:0:0:
402,192,60639,1,0,0:0:0:0:
256,192,60722,128,0,60764:0:0:0:0:
475,192,60805,1,0,0:0:0:0:
402,192,60805,1,0,0:0:0:0:
182,192,60805,128,0,60847:0:0:0:0:
109,192,60889,128,0,60930:0:0:0:0:
475,192,60972,128,0,61222:0:0:0:0:
402,192,60972,128,0,61222:0:0:0:0:
256,192,60972,1,0,0:0:0:0:
36,192,60972,128,0,61014:0:0:0:0:
109,192,61055,128,0,61180:0:0:0:0:
329,192,61139,1,0,0:0:0:0:
256,192,61139,128,0,61264:0:0:0:0:
182,192,61222,128,0,61347:0:0:0:0:
475,192,61305,1,0,0:0:0:0:
109,192,61305,128,0,61430:0:0:0:0:
402,192,61305,1,0,0:0:0:0:
256,192,61389,128,0,61514:0:0:0:0:
36,192,61472,1,0,0:0:0:0:
402,192,61472,128,0,61597:0:0:0:0:
475,192,61555,128,0,61680:0:0:0:0:
109,192,61639,1,0,0:0:0:0:
182,192,61639,128,0,61764:0:0:0:0:
256,192,61639,1,0,0:0:0:0:
36,192,61722,128,0,61847:0:0:0:0:
329,192,61805,1,0,0:0:0:0:
182,192,61805,128,0,61930:0:0:0:0:
36,192,61889,128,0,62014:0:0:0:0:
256,192,61972,128,0,62097:0:0:0:0:
475,192,61972,1,0,0:0:0:0:
402,192,61972,1,0,0:0:0:0:
329,192,62055,128,0,62180:0:0:0:0:
109,192,62139,1,0,0:0:0:0:
402,192,62139,128,0,62264:0:0:0:0:
475,192,62222,128,0,62347:0:0:0:0:
256,192,62305,1,0,0:0:0:0:
109,192,62305,128,0,62555:0:0:0:0:
36,192,62305,128,0,62555:0:0:0:0:
182,192,62305,1,0,0:0:0:0:
402,192,62389,128,0,62514:0:0:0:0:
256,192,62472,128,0,62597:0:0:0:0:
475,192,62472,1,0,0:0:0:0:
329,192,62555,128,0,62680:0:0:0:0:
109,192,62639,1,0,0:0:0:0:
402,192,62639,128,0,62764:0:0:0:0:
36,192,62639,1,0,0:0:0:0:
256,192,62722,128,0,62847:0:0:0:0:
109,192,62805,128,0,62930:0:0:0:0:
475,192,62805,1,0,0:0:0:0:
36,192,62889,128,0,63014:0:0:0:0:
256,192,62972,1,0,0:0:0:0:
402,192,62972,1,0,0:0:0:0:
329,192,62972,128,0,63097:0:0:0:0:
475,192,63055,128,0,63180:0:0:0:0:
329,192,63139,128,0,63264:0:0:0:0:
182,192,63139,1,0,0:0:0:0:
475,192,63222,128,0,63347:0:0:0:0:
109,192,63305,1,0,0:0:0:0:
256,192,63305,128,0,63430:0:0:0:0:
36,192,63305,1,0,0:0:0:0:
182,192,63389,128,0,63514:0:0:0:0:
402,192,63472,1,0,0:0:0:0:
109,192,63472,128,0,63597:0:0:0:0:
36,192,63555,128,0,63680:0:0:0:0:
182,192,63639,128,0,64014:0:0:0:0:
256,192,63639,1,0,0:0:0:0:
475,192,63639,1,0,0:0:0:0:
402,192,63722,128,0,64264:0:0:0:0:
329,192,63805,128,0,63847:0:0:0:0:
256,192,63889,128,0,64097:0:0:0:0:
329,192,63972,128,0,64180:0:0:0:0:
36,192,63972,128,0,64764:0:0:0:0:
109,192,64055,128,0,64680:0:0:0:0:
182,192,64139,128,0,64597:0:0:0:0:
256,192,64222,128,0,64514:0:0:0:0:
329,192,64305,128,0,64430:0:0:0:0:
475,192,64389,128,0,64889:0:0:0:0:
402,192,64472,128,0,64889:0:0:0:0:
329,192,64555,128,0,64889:0:0:0:0:
256,192,64639,128,0,64889:0:0:0:0:
182,192,64722,128,0,64889:0:0:0:0:
109,192,64805,128,0,64889:0:0:0:0:
36,192,64889,1,0,0:0:0:0:
475,192,64972,128,0,65222:0:0:0:0:
256,192,64972,1,0,0:0:0:0:
182,192,64972,128,0,65222:0:0:0:0:
402,192,64972,128,0,65139:0:0:0:0:
329,192,64972,128,0,65055:0:0:0:0:
256,192,65055,128,0,65222:0:0:0:0:
329,192,65139,128,0,65222:0:0:0:0:
402,192,65222,1,0,0:0:0:0:
36,192,65305,128,0,65555:0:0:0:0:
329,192,65305,128,0,65555:0:0:0:0:
109,192,65305,128,0,65472:0:0:0:0:
182,192,65305,128,0,65389:0:0:0:0:
256,192,65305,1,0,0:0:0:0:
256,192,65389,128,0,65555:0:0:0:0:
182,192,65472,128,0,65555:0:0:0:0:
109,192,65555,1,0,0:0:0:0:
256,192,65639,128,0,65722:0:0:0:0:
329,192,65639,1,0,0:0:0:0:
182,192,65639,128,0,65805:0:0:0:0:
36,192,65639,128,0,65889:0:0:0:0:
475,192,65639,128,0,65889:0:0:0:0:
329,192,65722,128,0,65889:0:0:0:0:
256,192,65805,128,0,65889:0:0:0:0:
182,192,65889,1,0,0:0:0:0:
475,192,65972,128,0,66222:0:0:0:0:
36,192,65972,128,0,66222:0:0:0:0:
182,192,65972,128,0,66139:0:0:0:0:
256,192,65972,128,0,66055:0:0:0:0:
329,192,65972,1,0,0:0:0:0:
329,192,66055,128,0,66222:0:0:0:0:
256,192,66139,128,0,66222:0:0:0:0:
182,192,66222,1,0,0:0:0:0:
109,192,66305,128,0,66555:0:0:0:0:
36,192,66305,128,0,66555:0:0:0:0:
256,192,66305,1,0,0:0:0:0:
329,192,66389,1,0,0:0:0:0:
475,192,66389,1,0,0:0:0:0:
256,192,66472,1,0,0:0:0:0:
402,192,66472,1,0,0:0:0:0:
182,192,66555,1,0,0:0:0:0:
329,192,66555,1,0,0:0:0:0:
109,192,66639,128,0,66889:0:0:0:0:
36,192,66639,128,0,66889:0:0:0:0:
475,192,66722,1,0,0:0:0:0:
329,192,66722,1,0,0:0:0:0:
256,192,66805,1,0,0:0:0:0:
402,192,66805,1,0,0:0:0:0:
329,192,66889,1,0,0:0:0:0:
182,192,66889,1,0,0:0:0:0:
402,192,66972,128,0,67222:0:0:0:0:
475,192,66972,128,0,67222:0:0:0:0:
36,192,67055,1,0,0:0:0:0:
182,192,67055,1,0,0:0:0:0:
109,192,67139,1,0,0:0:0:0:
256,192,67139,1,0,0:0:0:0:
182,192,67222,1,0,0:0:0:0:
329,192,67222,1,0,0:0:0:0:
402,192,67305,128,0,67555:0:0:0:0:
475,192,67305,128,0,67555:0:0:0:0:
36,192,67389,1,0,0:0:0:0:
182,192,67389,1,0,0:0:0:0:
109,192,67472,1,0,0:0:0:0:
256,192,67472,1,0,0:0:0:0:
182,192,67555,1,0,0:0:0:0:
329,192,67555,1,0,0:0:0:0:
36,192,67639,128,0,67889:0:0:0:0:
109,192,67639,128,0,67889:0:0:0:0:
256,192,67639,128,0,67889:0:0:0:0:
402,192,67722,1,0,0:0:0:0:
475,192,67722,1,0,0:0:0:0:
329,192,67805,1,0,0:0:0:0:
402,192,67889,1,0,0:0:0:0:
475,192,67889,1,0,0:0:0:0:
475,192,67972,128,0,68222:0:0:0:0:
256,192,67972,128,0,68222:0:0:0:0:
402,192,67972,128,0,68222:0:0:0:0:
36,192,68055,1,0,0:0:0:0:
109,192,68055,1,0,0:0:0:0:
182,192,68139,1,0,0:0:0:0:
36,192,68222,1,0,0:0:0:0:
109,192,68222,1,0,0:0:0:0:
182,192,68305,128,0,68555:0:0:0:0:
256,192,68305,128,0,68889:0:0:0:0:
36,192,68305,128,0,68555:0:0:0:0:
402,192,68389,1,0,0:0:0:0:
475,192,68389,1,0,0:0:0:0:
329,192,68472,1,0,0:0:0:0:
402,192,68555,1,0,0:0:0:0:
475,192,68555,1,0,0:0:0:0:
329,192,68639,128,0,68889:0:0:0:0:
475,192,68639,128,0,68889:0:0:0:0:
36,192,68722,1,0,0:0:0:0:
109,192,68722,1,0,0:0:0:0:
182,192,68805,1,0,0:0:0:0:
109,192,68889,1,0,0:0:0:0:
36,192,68889,1,0,0:0:0:0:
36,192,68972,128,0,69222:0:0:0:0:
109,192,68972,128,0,69222:0:0:0:0:
256,192,68972,1,0,0:0:0:0:
329,192,69055,1,0,0:0:0:0:
475,192,69055,1,0,0:0:0:0:
256,192,69139,1,0,0:0:0:0:
402,192,69139,1,0,0:0:0:0:
182,192,69222,1,0,0:0:0:0:
329,192,69222,1,0,0:0:0:0:
36,192,69305,128,0,69555:0:0:0:0:
109,192,69305,128,0,69555:0:0:0:0:
329,192,69389,1,0,0:0:0:0:
475,192,69389,1,0,0:0:0:0:
256,192,69472,1,0,0:0:0:0:
402,192,69472,1,0,0:0:0:0:
182,192,69555,1,0,0:0:0:0:
329,192,69555,1,0,0:0:0:0:
402,192,69639,128,0,69889:0:0:0:0:
475,192,69639,128,0,69889:0:0:0:0:
182,192,69722,1,0,0:0:0:0:
36,192,69722,1,0,0:0:0:0:
256,192,69805,1,0,0:0:0:0:
109,192,69805,1,0,0:0:0:0:
329,192,69889,1,0,0:0:0:0:
182,192,69889,1,0,0:0:0:0:
475,192,69972,128,0,70222:0:0:0:0:
402,192,69972,128,0,70222:0:0:0:0:
182,192,70055,1,0,0:0:0:0:
36,192,70055,1,0,0:0:0:0:
109,192,70139,1,0,0:0:0:0:
256,192,70139,1,0,0:0:0:0:
182,192,70222,1,0,0:0:0:0:
329,192,70222,1,0,0:0:0:0:
36,192,70305,128,0,70555:0:0:0:0:
109,192,70305,128,0,70555:0:0:0:0:
256,192,70305,128,0,70555:0:0:0:0:
402,192,70389,1,0,0:0:0:0:
475,192,70389,1,0,0:0:0:0:
329,192,70472,1,0,0:0:0:0:
402,192,70555,1,0,0:0:0:0:
475,192,70555,1,0,0:0:0:0:
475,192,70639,128,0,70889:0:0:0:0:
256,192,70639,128,0,70889:0:0:0:0:
402,192,70639,128,0,70889:0:0:0:0:
36,192,70722,1,0,0:0:0:0:
109,192,70722,1,0,0:0:0:0:
182,192,70805,1,0,0:0:0:0:
36,192,70889,1,0,0:0:0:0:
109,192,70889,1,0,0:0:0:0:
36,192,70972,128,0,71222:0:0:0:0:
182,192,70972,128,0,71097:0:0:0:0:
402,192,71055,1,0,0:0:0:0:
475,192,71055,1,0,0:0:0:0:
256,192,71139,128,0,71555:0:0:0:0:
329,192,71139,1,0,0:0:0:0:
182,192,71139,128,0,71222:0:0:0:0:
402,192,71222,1,0,0:0:0:0:
475,192,71222,1,0,0:0:0:0:
329,192,71305,128,0,71555:0:0:0:0:
475,192,71305,128,0,71555:0:0:0:0:
36,192,71389,1,0,0:0:0:0:
109,192,71389,1,0,0:0:0:0:
182,192,71472,1,0,0:0:0:0:
109,192,71555,1,0,0:0:0:0:
36,192,71555,1,0,0:0:0:0:
475,192,71639,128,0,71889:0:0:0:0:
182,192,71639,128,0,71805:0:0:0:0:
256,192,71639,128,0,71889:0:0:0:0:
109,192,71722,128,0,71889:0:0:0:0:
402,192,71722,128,0,71889:0:0:0:0:
36,192,71805,128,0,71889:0:0:0:0:
329,192,71805,128,0,71889:0:0:0:0:
182,192,71889,1,0,0:0:0:0:
36,192,71972,128,0,72222:0:0:0:0:
256,192,71972,128,0,72222:0:0:0:0:
329,192,71972,128,0,72139:0:0:0:0:
109,192,72055,128,0,72222:0:0:0:0:
402,192,72055,128,0,72222:0:0:0:0:
475,192,72139,128,0,72222:0:0:0:0:
182,192,72139,128,0,72222:0:0:0:0:
329,192,72222,1,0,0:0:0:0:
475,192,72305,128,0,72555:0:0:0:0:
182,192,72305,128,0,72472:0:0:0:0:
256,192,72305,128,0,72555:0:0:0:0:
402,192,72389,128,0,72555:0:0:0:0:
109,192,72389,128,0,72555:0:0:0:0:
36,192,72472,128,0,72555:0:0:0:0:
329,192,72472,128,0,72555:0:0:0:0:
182,192,72555,1,0,0:0:0:0:
256,192,72639,128,0,72889:0:0:0:0:
329,192,72639,128,0,72805:0:0:0:0:
36,192,72639,128,0,72889:0:0:0:0:
109,192,72722,128,0,72889:0:0:0:0:
402,192,72722,128,0,72889:0:0:0:0:
182,192,72805,128,0,72889:0:0:0:0:
475,192,72805,128,0,72889:0:0:0:0:
329,192,72889,1,0,0:0:0:0:
475,192,72972,128,0,73222:0:0:0:0:
256,192,72972,128,0,73222:0:0:0:0:
402,192,73055,128,0,73222:0:0:0:0:
36,192,73055,1,0,0:0:0:0:
109,192,73055,1,0,0:0:0:0:
182,192,73139,1,0,0:0:0:0:
329,192,73139,128,0,73222:0:0:0:0:
36,192,73222,1,0,0:0:0:0:
109,192,73222,1,0,0:0:0:0:
36,192,73305,128,0,73555:0:0:0:0:
256,192,73305,128,0,73555:0:0:0:0:
109,192,73389,128,0,73555:0:0:0:0:
402,192,73389,1,0,0:0:0:0:
475,192,73389,1,0,0:0:0:0:
329,192,73472,1,0,0:0:0:0:
182,192,73472,128,0,73555:0:0:0:0:
402,192,73555,1,0,0:0:0:0:
475,192,73555,1,0,0:0:0:0:
475,192,73639,128,0,73889:0:0:0:0:
256,192,73639,128,0,74222:0:0:0:0:
402,192,73722,128,0,73889:0:0:0:0:
36,192,73722,1,0,0:0:0:0:
182,192,73722,1,0,0:0:0:0:
109,192,73805,1,0,0:0:0:0:
329,192,73805,128,0,73889:0:0:0:0:
182,192,73889,1,0,0:0:0:0:
36,192,73889,1,0,0:0:0:0:
36,192,73972,128,0,74222:0:0:0:0:
329,192,74055,1,0,0:0:0:0:
109,192,74055,128,0,74222:0:0:0:0:
475,192,74055,1,0,0:0:0:0:
182,192,74139,128,0,74222:0:0:0:0:
402,192,74139,1,0,0:0:0:0:
329,192,74222,1,0,0:0:0:0:
475,192,74222,1,0,0:0:0:0:
256,192,74305,128,0,74472:0:0:0:0:
475,192,74305,1,0,0:0:0:0:
36,192,74305,1,0,0:0:0:0:
182,192,74389,128,0,74555:0:0:0:0:
402,192,74389,1,0,0:0:0:0:
109,192,74472,128,0,74639:0:0:0:0:
329,192,74472,1,0,0:0:0:0:
36,192,74555,128,0,74722:0:0:0:0:
256,192,74555,1,0,0:0:0:0:
329,192,74639,128,0,74805:0:0:0:0:
182,192,74639,1,0,0:0:0:0:
402,192,74722,128,0,74889:0:0:0:0:
109,192,74722,1,0,0:0:0:0:
475,192,74805,128,0,74972:0:0:0:0:
36,192,74805,1,0,0:0:0:0:
329,192,74889,1,0,0:0:0:0:
256,192,74889,128,0,75055:0:0:0:0:
402,192,74972,1,0,0:0:0:0:
36,192,74972,128,0,75139:0:0:0:0:
475,192,75055,1,0,0:0:0:0:
182,192,75055,128,0,75222:0:0:0:0:
256,192,75139,1,0,0:0:0:0:
329,192,75139,128,0,75305:0:0:0:0:
475,192,75222,128,0,75389:0:0:0:0:
36,192,75222,128,0,75305:0:0:0:0:
182,192,75305,128,0,75389:0:0:0:0:
329,192,75389,128,0,75472:0:0:0:0:
36,192,75389,1,0,0:0:0:0:
475,192,75472,128,0,75555:0:0:0:0:
182,192,75472,1,0,0:0:0:0:
329,192,75555,1,0,0:0:0:0:
256,192,75639,1,0,0:0:0:0:
182,192,75639,128,0,75805:0:0:0:0:
36,192,75639,128,0,76222:0:0:0:0:
475,192,75639,1,0,0:0:0:0:
256,192,75722,128,0,75889:0:0:0:0:
329,192,75722,1,0,0:0:0:0:
329,192,75805,128,0,75972:0:0:0:0:
402,192,75805,1,0,0:0:0:0:
402,192,75889,128,0,76055:0:0:0:0:
475,192,75889,1,0,0:0:0:0:
182,192,75889,1,0,0:0:0:0:
109,192,75972,1,0,0:0:0:0:
256,192,75972,1,0,0:0:0:0:
329,192,76055,1,0,0:0:0:0:
182,192,76055,1,0,0:0:0:0:
256,192,76139,1,0,0:0:0:0:
402,192,76139,1,0,0:0:0:0:
475,192,76139,128,0,76222:0:0:0:0:
109,192,76222,1,0,0:0:0:0:
182,192,76222,1,0,0:0:0:0:
329,192,76305,128,0,76472:0:0:0:0:
475,192,76305,128,0,76889:0:0:0:0:
256,192,76305,1,0,0:0:0:0:
36,192,76305,1,0,0:0:0:0:
256,192,76389,128,0,76555:0:0:0:0:
182,192,76389,1,0,0:0:0:0:
182,192,76472,128,0,76639:0:0:0:0:
109,192,76472,1,0,0:0:0:0:
109,192,76555,128,0,76722:0:0:0:0:
36,192,76555,1,0,0:0:0:0:
329,192,76555,1,0,0:0:0:0:
256,192,76639,1,0,0:0:0:0:
402,192,76639,1,0,0:0:0:0:
329,192,76722,1,0,0:0:0:0:
182,192,76722,1,0,0:0:0:0:
256,192,76805,1,0,0:0:0:0:
109,192,76805,1,0,0:0:0:0:
36,192,76805,128,0,76889:0:0:0:0:
329,192,76889,1,0,0:0:0:0:
402,192,76889,1,0,0:0:0:0:
36,192,76972,128,0,77222:0:0:0:0:
256,192,76972,128,0,77139:0:0:0:0:
475,192,76972,1,0,0:0:0:0:
109,192,77055,128,0,77139:0:0:0:0:
329,192,77055,1,0,0:0:0:0:
182,192,77055,1,0,0:0:0:0:
182,192,77139,128,0,77222:0:0:0:0:
256,192,77222,128,0,77305:0:0:0:0:
109,192,77305,128,0,77555:0:0:0:0:
329,192,77305,128,0,77472:0:0:0:0:
36,192,77305,1,0,0:0:0:0:
182,192,77389,128,0,77472:0:0:0:0:
256,192,77389,1,0,0:0:0:0:
402,192,77389,1,0,0:0:0:0:
256,192,77472,128,0,77555:0:0:0:0:
329,192,77555,128,0,77639:0:0:0:0:
402,192,77639,128,0,77805:0:0:0:0:
182,192,77639,128,0,77889:0:0:0:0:
109,192,77639,1,0,0:0:0:0:
36,192,77639,128,0,78305:0:0:0:0:
256,192,77722,128,0,77805:0:0:0:0:
329,192,77722,1,0,0:0:0:0:
475,192,77722,1,0,0:0:0:0:
329,192,77805,128,0,77889:0:0:0:0:
402,192,77889,128,0,77972:0:0:0:0:
256,192,77972,128,0,78222:0:0:0:0:
475,192,77972,128,0,78139:0:0:0:0:
182,192,77972,1,0,0:0:0:0:
329,192,78055,128,0,78139:0:0:0:0:
402,192,78055,1,0,0:0:0:0:
109,192,78055,128,0,78305:0:0:0:0:
402,192,78139,128,0,78222:0:0:0:0:
475,192,78222,128,0,78305:0:0:0:0:
329,192,78305,128,0,78472:0:0:0:0:
256,192,78305,1,0,0:0:0:0:
109,192,78389,128,0,78555:0:0:0:0:
402,192,78389,128,0,78555:0:0:0:0:
475,192,78472,128,0,78639:0:0:0:0:
182,192,78472,128,0,78639:0:0:0:0:
256,192,78555,128,0,78722:0:0:0:0:
329,192,78639,128,0,78805:0:0:0:0:
36,192,78639,1,0,0:0:0:0:
402,192,78722,128,0,78889:0:0:0:0:
182,192,78722,128,0,78889:0:0:0:0:
475,192,78805,128,0,78972:0:0:0:0:
109,192,78805,128,0,78972:0:0:0:0:
36,192,78889,128,0,79055:0:0:0:0:
256,192,78972,1,0,0:0:0:0:
329,192,78972,128,0,79139:0:0:0:0:
182,192,79055,128,0,79222:0:0:0:0:
402,192,79055,128,0,79222:0:0:0:0:
109,192,79139,128,0,79305:0:0:0:0:
475,192,79139,128,0,79305:0:0:0:0:
36,192,79222,128,0,79389:0:0:0:0:
256,192,79305,1,0,0:0:0:0:
329,192,79305,128,0,79389:0:0:0:0:
182,192,79389,128,0,79472:0:0:0:0:
402,192,79389,128,0,79472:0:0:0:0:
475,192,79472,128,0,79555:0:0:0:0:
109,192,79472,128,0,79555:0:0:0:0:
36,192,79555,128,0,79639:0:0:0:0:
329,192,79639,128,0,79722:0:0:0:0:
182,192,79639,128,0,79889:0:0:0:0:
402,192,79722,128,0,79805:0:0:0:0:
475,192,79722,128,0,79889:0:0:0:0:
256,192,79722,1,0,0:0:0:0:
329,192,79805,128,0,79972:0:0:0:0:
36,192,79805,1,0,0:0:0:0:
402,192,79889,128,0,79972:0:0:0:0:
475,192,79972,1,0,0:0:0:0:
109,192,79972,128,0,80222:0:0:0:0:
256,192,79972,128,0,80055:0:0:0:0:
182,192,80055,1,0,0:0:0:0:
402,192,80055,128,0,80222:0:0:0:0:
329,192,80055,128,0,80139:0:0:0:0:
256,192,80139,128,0,80305:0:0:0:0:
329,192,80222,128,0,80305:0:0:0:0:
402,192,80305,1,0,0:0:0:0:
182,192,80305,128,0,80389:0:0:0:0:
36,192,80305,128,0,80555:0:0:0:0:
109,192,80389,1,0,0:0:0:0:
256,192,80389,128,0,80472:0:0:0:0:
329,192,80389,128,0,80555:0:0:0:0:
182,192,80472,128,0,80639:0:0:0:0:
256,192,80555,128,0,80639:0:0:0:0:
329,192,80639,1,0,0:0:0:0:
109,192,80639,128,0,80722:0:0:0:0:
475,192,80639,128,0,80889:0:0:0:0:
36,192,80722,1,0,0:0:0:0:
256,192,80722,128,0,80889:0:0:0:0:
182,192,80722,128,0,80805:0:0:0:0:
109,192,80805,128,0,80972:0:0:0:0:
182,192,80889,128,0,80972:0:0:0:0:
256,192,80972,1,0,0:0:0:0:
36,192,80972,128,0,81222:0:0:0:0:
402,192,80972,1,0,0:0:0:0:
475,192,80972,1,0,0:0:0:0:
109,192,81055,128,0,81222:0:0:0:0:
182,192,81055,128,0,81305:0:0:0:0:
329,192,81055,1,0,0:0:0:0:
256,192,81139,128,0,81305:0:0:0:0:
402,192,81139,1,0,0:0:0:0:
475,192,81139,1,0,0:0:0:0:
329,192,81222,1,0,0:0:0:0:
36,192,81305,1,0,0:0:0:0:
109,192,81305,1,0,0:0:0:0:
475,192,81305,128,0,81555:0:0:0:0:
402,192,81389,128,0,81555:0:0:0:0:
182,192,81389,1,0,0:0:0:0:
329,192,81389,128,0,81639:0:0:0:0:
36,192,81472,1,0,0:0:0:0:
109,192,81472,1,0,0:0:0:0:
256,192,81472,128,0,81639:0:0:0:0:
182,192,81555,1,0,0:0:0:0:
402,192,81639,1,0,0:0:0:0:
475,192,81639,1,0,0:0:0:0:
36,192,81639,128,0,81889:0:0:0:0:
109,192,81639,128,0,81889:0:0:0:0:
256,192,81722,1,0,0:0:0:0:
329,192,81722,1,0,0:0:0:0:
182,192,81722,128,0,81972:0:0:0:0:
402,192,81805,1,0,0:0:0:0:
475,192,81805,1,0,0:0:0:0:
256,192,81889,1,0,0:0:0:0:
329,192,81889,1,0,0:0:0:0:
36,192,81972,1,0,0:0:0:0:
109,192,81972,1,0,0:0:0:0:
475,192,81972,128,0,82222:0:0:0:0:
402,192,81972,128,0,82222:0:0:0:0:
182,192,82055,1,0,0:0:0:0:
256,192,82055,1,0,0:0:0:0:
329,192,82055,128,0,82305:0:0:0:0:
36,192,82139,1,0,0:0:0:0:
109,192,82139,1,0,0:0:0:0:
182,192,82222,1,0,0:0:0:0:
256,192,82222,1,0,0:0:0:0:
109,192,82305,128,0,82555:0:0:0:0:
36,192,82305,128,0,82555:0:0:0:0:
475,192,82305,1,0,0:0:0:0:
402,192,82305,1,0,0:0:0:0:
329,192,82389,128,0,82514:0:0:0:0:
256,192,82472,128,0,82597:0:0:0:0:
475,192,82472,1,0,0:0:0:0:
329,192,82555,128,0,82680:0:0:0:0:
36,192,82639,1,0,0:0:0:0:
402,192,82639,128,0,82764:0:0:0:0:
109,192,82639,1,0,0:0:0:0:
182,192,82639,1,0,0:0:0:0:
256,192,82639,1,0,0:0:0:0:
329,192,82722,128,0,82847:0:0:0:0:
475,192,82805,1,0,0:0:0:0:
182,192,82805,128,0,82930:0:0:0:0:
36,192,82889,128,0,83014:0:0:0:0:
329,192,82972,128,0,83097:0:0:0:0:
109,192,82972,1,0,0:0:0:0:
256,192,82972,1,0,0:0:0:0:
475,192,83055,128,0,83180:0:0:0:0:
329,192,83139,128,0,83264:0:0:0:0:
182,192,83139,1,0,0:0:0:0:
475,192,83222,128,0,83347:0:0:0:0:
36,192,83305,1,0,0:0:0:0:
256,192,83305,128,0,83430:0:0:0:0:
109,192,83305,1,0,0:0:0:0:
329,192,83305,1,0,0:0:0:0:
402,192,83305,1,0,0:0:0:0:
182,192,83389,128,0,83514:0:0:0:0:
329,192,83472,1,0,0:0:0:0:
109,192,83472,128,0,83597:0:0:0:0:
36,192,83555,128,0,83680:0:0:0:0:
329,192,83639,1,0,0:0:0:0:
402,192,83639,128,0,83889:0:0:0:0:
256,192,83639,1,0,0:0:0:0:
475,192,83639,128,0,83889:0:0:0:0:
182,192,83722,128,0,83847:0:0:0:0:
256,192,83805,128,0,83930:0:0:0:0:
36,192,83805,1,0,0:0:0:0:
182,192,83889,128,0,84014:0:0:0:0:
475,192,83972,1,0,0:0:0:0:
402,192,83972,1,0,0:0:0:0:
109,192,83972,128,0,84097:0:0:0:0:
256,192,83972,1,0,0:0:0:0:
329,192,83972,1,0,0:0:0:0:
182,192,84055,128,0,84180:0:0:0:0:
36,192,84139,1,0,0:0:0:0:
329,192,84139,128,0,84264:0:0:0:0:
475,192,84222,128,0,84347:0:0:0:0:
182,192,84305,128,0,84430:0:0:0:0:
256,192,84305,1,0,0:0:0:0:
402,192,84305,1,0,0:0:0:0:
36,192,84389,128,0,84514:0:0:0:0:
182,192,84472,128,0,84597:0:0:0:0:
329,192,84472,1,0,0:0:0:0:
36,192,84555,128,0,84680:0:0:0:0:
475,192,84639,1,0,0:0:0:0:
402,192,84639,1,0,0:0:0:0:
256,192,84639,128,0,84764:0:0:0:0:
182,192,84639,1,0,0:0:0:0:
109,192,84639,1,0,0:0:0:0:
329,192,84722,128,0,84847:0:0:0:0:
402,192,84805,128,0,84930:0:0:0:0:
182,192,84805,1,0,0:0:0:0:
475,192,84889,128,0,85014:0:0:0:0:
256,192,84972,128,0,85180:0:0:0:0:
109,192,84972,1,0,0:0:0:0:
36,192,84972,1,0,0:0:0:0:
182,192,85055,128,0,85264:0:0:0:0:
402,192,85139,1,0,0:0:0:0:
109,192,85139,128,0,85347:0:0:0:0:
36,192,85222,128,0,85430:0:0:0:0:
256,192,85305,1,0,0:0:0:0:
329,192,85305,128,0,85514:0:0:0:0:
402,192,85305,1,0,0:0:0:0:
475,192,85305,1,0,0:0:0:0:
256,192,85389,128,0,85597:0:0:0:0:
182,192,85472,128,0,85680:0:0:0:0:
36,192,85472,1,0,0:0:0:0:
109,192,85555,128,0,85764:0:0:0:0:
402,192,85639,1,0,0:0:0:0:
475,192,85639,1,0,0:0:0:0:
256,192,85639,128,0,85847:0:0:0:0:
329,192,85722,128,0,85930:0:0:0:0:
402,192,85805,128,0,86014:0:0:0:0:
109,192,85805,1,0,0:0:0:0:
475,192,85889,128,0,86097:0:0:0:0:
182,192,85972,128,0,86180:0:0:0:0:
256,192,85972,1,0,0:0:0:0:
36,192,85972,1,0,0:0:0:0:
109,192,85972,1,0,0:0:0:0:
36,192,86055,128,0,86264:0:0:0:0:
402,192,86139,1,0,0:0:0:0:
256,192,86139,128,0,86347:0:0:0:0:
109,192,86222,128,0,86430:0:0:0:0:
182,192,86305,1,0,0:0:0:0:
329,192,86305,1,0,0:0:0:0:
475,192,86305,128,0,87597:0:0:0:0:
402,192,86305,1,0,0:0:0:0:
36,192,86389,128,0,86597:0:0:0:0:
109,192,86472,128,0,86680:0:0:0:0:
182,192,86555,128,0,86764:0:0:0:0:
402,192,86639,1,0,0:0:0:0:
256,192,86639,128,0,86847:0:0:0:0:
329,192,86639,1,0,0:0:0:0:
109,192,86722,128,0,86930:0:0:0:0:
182,192,86805,128,0,87014:0:0:0:0:
256,192,86889,128,0,87097:0:0:0:0:
109,192,86972,1,0,0:0:0:0:
329,192,86972,128,0,87180:0:0:0:0:
36,192,86972,1,0,0:0:0:0:
182,192,87055,128,0,87264:0:0:0:0:
256,192,87139,128,0,87347:0:0:0:0:
329,192,87222,128,0,87430:0:0:0:0:
109,192,87305,1,0,0:0:0:0:
36,192,87305,1,0,0:0:0:0:
402,192,87305,128,0,87514:0:0:0:0:
256,192,87389,128,0,87430:0:0:0:0:
329,192,87472,128,0,87514:0:0:0:0:
109,192,87472,1,0,0:0:0:0:
36,192,87472,1,0,0:0:0:0:
402,192,87555,128,0,87597:0:0:0:0:
475,192,87639,128,0,87680:0:0:0:0:
182,192,87639,1,0,0:0:0:0:
109,192,87639,128,0,87889:0:0:0:0:
36,192,87639,128,0,87889:0:0:0:0:
329,192,87722,128,0,87847:0:0:0:0:
256,192,87805,128,0,87930:0:0:0:0:
475,192,87805,1,0,0:0:0:0:
402,192,87889,128,0,88014:0:0:0:0:
109,192,87972,1,0,0:0:0:0:
36,192,87972,1,0,0:0:0:0:
475,192,87972,128,0,88097:0:0:0:0:
182,192,87972,1,0,0:0:0:0:
256,192,87972,1,0,0:0:0:0:
329,192,88055,128,0,88180:0:0:0:0:
182,192,88139,128,0,88264:0:0:0:0:
256,192,88139,1,0,0:0:0:0:
36,192,88222,128,0,88347:0:0:0:0:
329,192,88305,128,0,88430:0:0:0:0:
475,192,88305,1,0,0:0:0:0:
402,192,88305,1,0,0:0:0:0:
182,192,88389,128,0,88514:0:0:0:0:
329,192,88472,128,0,88597:0:0:0:0:
109,192,88472,1,0,0:0:0:0:
182,192,88555,128,0,88680:0:0:0:0:
36,192,88639,128,0,88764:0:0:0:0:
475,192,88639,1,0,0:0:0:0:
402,192,88639,1,0,0:0:0:0:
329,192,88639,1,0,0:0:0:0:
256,192,88639,1,0,0:0:0:0:
256,192,88722,128,0,88847:0:0:0:0:
402,192,88805,128,0,88930:0:0:0:0:
182,192,88805,1,0,0:0:0:0:
475,192,88889,128,0,89014:0:0:0:0:
256,192,88972,128,0,89097:0:0:0:0:
182,192,88972,1,0,0:0:0:0:
36,192,88972,1,0,0:0:0:0:
109,192,89055,128,0,89180:0:0:0:0:
256,192,89139,128,0,89264:0:0:0:0:
402,192,89139,1,0,0:0:0:0:
109,192,89222,128,0,89347:0:0:0:0:
36,192,89305,128,0,89430:0:0:0:0:
329,192,89305,1,0,0:0:0:0:
475,192,89305,1,0,0:0:0:0:
256,192,89305,1,0,0:0:0:0:
402,192,89305,1,0,0:0:0:0:
256,192,89389,128,0,89514:0:0:0:0:
402,192,89472,128,0,89597:0:0:0:0:
182,192,89472,1,0,0:0:0:0:
475,192,89555,128,0,89680:0:0:0:0:
329,192,89639,128,0,89764:0:0:0:0:
36,192,89639,1,0,0:0:0:0:
109,192,89639,1,0,0:0:0:0:
182,192,89722,128,0,89847:0:0:0:0:
329,192,89805,128,0,89930:0:0:0:0:
256,192,89805,1,0,0:0:0:0:
182,192,89889,128,0,90014:0:0:0:0:
36,192,89972,128,0,90097:0:0:0:0:
402,192,89972,1,0,0:0:0:0:
475,192,89972,1,0,0:0:0:0:
256,192,89972,1,0,0:0:0:0:
329,192,89972,1,0,0:0:0:0:
256,192,90055,128,0,90180:0:0:0:0:
402,192,90139,128,0,90264:0:0:0:0:
109,192,90139,1,0,0:0:0:0:
475,192,90222,128,0,90347:0:0:0:0:
182,192,90222,1,0,0:0:0:0:
36,192,90305,1,0,0:0:0:0:
256,192,90305,128,0,90555:0:0:0:0:
329,192,90305,128,0,90555:0:0:0:0:
109,192,90389,128,0,90514:0:0:0:0:
182,192,90472,128,0,90597:0:0:0:0:
475,192,90472,1,0,0:0:0:0:
109,192,90555,128,0,90680:0:0:0:0:
36,192,90639,128,0,90930:0:0:0:0:
256,192,90639,1,0,0:0:0:0:
329,192,90639,1,0,0:0:0:0:
402,192,90639,1,0,0:0:0:0:
475,192,90639,1,0,0:0:0:0:
182,192,90722,128,0,91014:0:0:0:0:
329,192,90805,128,0,91347:0:0:0:0:
475,192,90889,128,0,91264:0:0:0:0:
109,192,90972,128,0,91097:0:0:0:0:
36,192,90972,128,0,91097:0:0:0:0:
256,192,91055,128,0,91180:0:0:0:0:
182,192,91055,128,0,91180:0:0:0:0:
109,192,91139,128,0,91264:0:0:0:0:
36,192,91139,128,0,91264:0:0:0:0:
256,192,91222,128,0,91680:0:0:0:0:
182,192,91222,128,0,91430:0:0:0:0:
475,192,91305,128,0,91597:0:0:0:0:
36,192,91305,128,0,91514:0:0:0:0:
109,192,91305,1,0,0:0:0:0:
329,192,91389,128,0,91680:0:0:0:0:
182,192,91472,128,0,92014:0:0:0:0:
36,192,91555,128,0,91930:0:0:0:0:
402,192,91639,128,0,91764:0:0:0:0:
475,192,91639,128,0,91764:0:0:0:0:
256,192,91722,128,0,91847:0:0:0:0:
329,192,91722,128,0,91847:0:0:0:0:
402,192,91805,128,0,91930:0:0:0:0:
475,192,91805,128,0,91930:0:0:0:0:
256,192,91889,128,0,92597:0:0:0:0:
329,192,91889,128,0,92097:0:0:0:0:
36,192,91972,128,0,92597:0:0:0:0:
475,192,91972,128,0,92180:0:0:0:0:
402,192,91972,1,0,0:0:0:0:
182,192,92055,128,0,92264:0:0:0:0:
329,192,92139,128,0,92347:0:0:0:0:
475,192,92222,128,0,92805:0:0:0:0:
109,192,92305,128,0,92430:0:0:0:0:
182,192,92305,128,0,92347:0:0:0:0:
329,192,92389,128,0,92430:0:0:0:0:
402,192,92389,128,0,92514:0:0:0:0:
182,192,92472,128,0,92597:0:0:0:0:
109,192,92472,128,0,92514:0:0:0:0:
402,192,92555,128,0,92597:0:0:0:0:
329,192,92555,128,0,92680:0:0:0:0:
36,192,92639,128,0,92680:0:0:0:0:
256,192,92639,128,0,92680:0:0:0:0:
109,192,92722,128,0,92764:0:0:0:0:
329,192,92722,128,0,92764:0:0:0:0:
182,192,92805,128,0,92847:0:0:0:0:
402,192,92805,128,0,92847:0:0:0:0:
256,192,92889,128,0,92930:0:0:0:0:
475,192,92889,128,0,92930:0:0:0:0:
109,192,92972,128,0,93264:0:0:0:0:
182,192,92972,128,0,93264:0:0:0:0:
36,192,92972,1,0,0:0:0:0:
329,192,92972,128,0,93097:0:0:0:0:
256,192,92972,1,0,0:0:0:0:
402,192,93055,128,0,93180:0:0:0:0:
475,192,93139,128,0,93264:0:0:0:0:
329,192,93139,1,0,0:0:0:0:
256,192,93222,128,0,93347:0:0:0:0:
182,192,93305,1,0,0:0:0:0:
109,192,93305,1,0,0:0:0:0:
36,192,93305,128,0,93430:0:0:0:0:
329,192,93305,1,0,0:0:0:0:
402,192,93305,1,0,0:0:0:0:
475,192,93389,128,0,93847:0:0:0:0:
402,192,93472,128,0,94264:0:0:0:0:
256,192,93472,1,0,0:0:0:0:
329,192,93555,128,0,93847:0:0:0:0:
256,192,93639,128,0,93930:0:0:0:0:
36,192,93639,1,0,0:0:0:0:
109,192,93639,1,0,0:0:0:0:
182,192,93722,128,0,94014:0:0:0:0:
109,192,93805,128,0,94097:0:0:0:0:
36,192,93889,128,0,94180:0:0:0:0:
475,192,93972,128,0,94264:0:0:0:0:
329,192,93972,128,0,94014:0:0:0:0:
256,192,94055,128,0,94097:0:0:0:0:
182,192,94139,128,0,94180:0:0:0:0:
109,192,94222,128,0,94264:0:0:0:0:
36,192,94305,128,0,94597:0:0:0:0:
182,192,94305,128,0,94597:0:0:0:0:
256,192,94305,1,0,0:0:0:0:
402,192,94305,128,0,94430:0:0:0:0:
475,192,94305,1,0,0:0:0:0:
329,192,94389,128,0,94514:0:0:0:0:
475,192,94472,128,0,94597:0:0:0:0:
109,192,94472,1,0,0:0:0:0:
256,192,94555,128,0,94680:0:0:0:0:
36,192,94639,128,0,94764:0:0:0:0:
329,192,94639,1,0,0:0:0:0:
402,192,94639,1,0,0:0:0:0:
109,192,94639,1,0,0:0:0:0:
182,192,94639,1,0,0:0:0:0:
475,192,94722,128,0,95180:0:0:0:0:
402,192,94805,128,0,95597:0:0:0:0:
182,192,94805,1,0,0:0:0:0:
329,192,94889,128,0,95180:0:0:0:0:
256,192,94972,128,0,95264:0:0:0:0:
36,192,94972,1,0,0:0:0:0:
109,192,94972,1,0,0:0:0:0:
182,192,95055,128,0,95347:0:0:0:0:
109,192,95139,128,0,95430:0:0:0:0:
36,192,95222,128,0,95514:0:0:0:0:
475,192,95305,128,0,95597:0:0:0:0:
329,192,95305,128,0,95347:0:0:0:0:
256,192,95389,128,0,95430:0:0:0:0:
182,192,95472,128,0,95514:0:0:0:0:
109,192,95555,128,0,95597:0:0:0:0:
182,192,95639,128,0,95930:0:0:0:0:
36,192,95639,128,0,96097:0:0:0:0:
256,192,95639,128,0,95847:0:0:0:0:
475,192,95639,1,0,0:0:0:0:
329,192,95639,128,0,95764:0:0:0:0:
402,192,95639,1,0,0:0:0:0:
475,192,95722,128,0,95930:0:0:0:0:
402,192,95805,128,0,96014:0:0:0:0:
329,192,95889,128,0,96097:0:0:0:0:
256,192,95972,128,0,96180:0:0:0:0:
109,192,95972,1,0,0:0:0:0:
182,192,96055,128,0,96264:0:0:0:0:
109,192,96139,128,0,96347:0:0:0:0:
36,192,96222,128,0,96430:0:0:0:0:
329,192,96305,128,0,96680:0:0:0:0:
402,192,96305,128,0,96597:0:0:0:0:
475,192,96305,128,0,96514:0:0:0:0:
256,192,96305,1,0,0:0:0:0:
182,192,96389,128,0,96847:0:0:0:0:
109,192,96472,128,0,96930:0:0:0:0:
36,192,96555,128,0,97014:0:0:0:0:
475,192,96639,128,0,97097:0:0:0:0:
402,192,96722,128,0,97180:0:0:0:0:
329,192,96805,128,0,97264:0:0:0:0:
256,192,96889,128,0,97347:0:0:0:0:
182,192,96972,128,0,97430:0:0:0:0:
109,192,97055,128,0,97514:0:0:0:0:
36,192,97139,128,0,97597:0:0:0:0:
475,192,97222,128,0,97639:0:0:0:0:
402,192,97305,128,0,97722:0:0:0:0:
329,192,97389,128,0,97805:0:0:0:0:
256,192,97472,128,0,97889:0:0:0:0:
182,192,97555,128,0,97972:0:0:0:0:
109,192,97639,128,0,98055:0:0:0:0:
36,192,97722,128,0,98139:0:0:0:0:
475,192,97722,1,0,0:0:0:0:
475,192,97805,128,0,97847:0:0:0:0:
402,192,97805,1,0,0:0:0:0:
402,192,97889,128,0,97930:0:0:0:0:
329,192,97889,1,0,0:0:0:0:
329,192,97972,128,0,98014:0:0:0:0:
256,192,97972,1,0,0:0:0:0:
256,192,98055,128,0,98097:0:0:0:0:
182,192,98055,1,0,0:0:0:0:
182,192,98139,128,0,98180:0:0:0:0:
109,192,98139,1,0,0:0:0:0:
109,192,98222,128,0,98264:0:0:0:0:
36,192,98222,1,0,0:0:0:0:
329,192,98305,128,0,98555:0:0:0:0:
182,192,98305,128,0,98555:0:0:0:0:
475,192,98305,128,0,98555:0:0:0:0:
36,192,98305,128,0,98555:0:0:0:0:
256,192,98305,128,0,98555:0:0:0:0:
256,192,98639,128,0,98805:0:0:0:0:
475,192,98639,128,0,98889:0:0:0:0:
36,192,98639,128,0,98889:0:0:0:0:
109,192,98639,1,0,0:0:0:0:
182,192,98722,1,0,0:0:0:0:
402,192,98722,128,0,98805:0:0:0:0:
329,192,98722,1,0,0:0:0:0:
329,192,98805,128,0,98889:0:0:0:0:
256,192,98889,128,0,98972:0:0:0:0:
402,192,98972,128,0,99222:0:0:0:0:
475,192,98972,1,0,0:0:0:0:
182,192,98972,128,0,99139:0:0:0:0:
36,192,98972,128,0,99222:0:0:0:0:
109,192,99055,1,0,0:0:0:0:
256,192,99055,1,0,0:0:0:0:
329,192,99055,128,0,99139:0:0:0:0:
256,192,99139,128,0,99222:0:0:0:0:
182,192,99222,128,0,99305:0:0:0:0:
402,192,99305,1,0,0:0:0:0:
109,192,99305,128,0,99472:0:0:0:0:
329,192,99305,128,0,99555:0:0:0:0:
475,192,99305,128,0,99555:0:0:0:0:
182,192,99389,1,0,0:0:0:0:
36,192,99389,1,0,0:0:0:0:
256,192,99389,128,0,99472:0:0:0:0:
182,192,99472,128,0,99555:0:0:0:0:
109,192,99555,128,0,99639:0:0:0:0:
36,192,99639,128,0,99889:0:0:0:0:
256,192,99639,128,0,99805:0:0:0:0:
402,192,99639,1,0,0:0:0:0:
475,192,99639,128,0,99889:0:0:0:0:
329,192,99722,1,0,0:0:0:0:
182,192,99722,1,0,0:0:0:0:
109,192,99722,128,0,99805:0:0:0:0:
182,192,99805,128,0,99889:0:0:0:0:
256,192,99889,128,0,99972:0:0:0:0:
36,192,99972,1,0,0:0:0:0:
109,192,99972,128,0,100222:0:0:0:0:
329,192,99972,128,0,100139:0:0:0:0:
475,192,99972,128,0,100222:0:0:0:0:
256,192,100055,1,0,0:0:0:0:
182,192,100055,128,0,100139:0:0:0:0:
402,192,100055,1,0,0:0:0:0:
256,192,100139,128,0,100222:0:0:0:0:
329,192,100222,128,0,100305:0:0:0:0:
182,192,100305,128,0,100555:0:0:0:0:
109,192,100305,1,0,0:0:0:0:
402,192,100305,128,0,100472:0:0:0:0:
36,192,100305,128,0,100555:0:0:0:0:
329,192,100389,1,0,0:0:0:0:
256,192,100389,128,0,100472:0:0:0:0:
475,192,100389,1,0,0:0:0:0:
329,192,100472,128,0,100555:0:0:0:0:
402,192,100555,128,0,100639:0:0:0:0:
256,192,100639,128,0,100805:0:0:0:0:
475,192,100639,128,0,100889:0:0:0:0:
109,192,100639,1,0,0:0:0:0:
36,192,100639,128,0,100889:0:0:0:0:
402,192,100722,128,0,100805:0:0:0:0:
329,192,100722,1,0,0:0:0:0:
182,192,100722,1,0,0:0:0:0:
329,192,100805,128,0,100889:0:0:0:0:
256,192,100889,128,0,100972:0:0:0:0:
475,192,100972,1,0,0:0:0:0:
182,192,100972,128,0,101139:0:0:0:0:
402,192,100972,128,0,101222:0:0:0:0:
36,192,100972,128,0,101222:0:0:0:0:
256,192,101055,1,0,0:0:0:0:
109,192,101055,1,0,0:0:0:0:
329,192,101055,128,0,101139:0:0:0:0:
256,192,101139,128,0,101222:0:0:0:0:
182,192,101222,128,0,101305:0:0:0:0:
36,192,101305,128,0,101555:0:0:0:0:
109,192,101305,128,0,101555:0:0:0:0:
402,192,101305,1,0,0:0:0:0:
329,192,101305,128,0,101389:0:0:0:0:
475,192,101389,128,0,101472:0:0:0:0:
256,192,101472,128,0,101555:0:0:0:0:
329,192,101472,128,0,101555:0:0:0:0:
402,192,101555,128,0,101639:0:0:0:0:
36,192,101639,128,0,101889:0:0:0:0:
109,192,101639,128,0,101889:0:0:0:0:
182,192,101639,128,0,101722:0:0:0:0:
256,192,101639,1,0,0:0:0:0:
402,192,101722,128,0,101805:0:0:0:0:
329,192,101805,128,0,101889:0:0:0:0:
256,192,101805,128,0,101889:0:0:0:0:
475,192,101889,128,0,101972:0:0:0:0:
109,192,101972,128,0,102222:0:0:0:0:
182,192,101972,128,0,102222:0:0:0:0:
256,192,101972,128,0,102055:0:0:0:0:
36,192,101972,1,0,0:0:0:0:
475,192,102055,128,0,102139:0:0:0:0:
329,192,102139,128,0,102222:0:0:0:0:
402,192,102139,128,0,102222:0:0:0:0:
475,192,102222,128,0,102305:0:0:0:0:
36,192,102305,128,0,102555:0:0:0:0:
109,192,102305,128,0,102555:0:0:0:0:
256,192,102305,128,0,102389:0:0:0:0:
329,192,102305,1,0,0:0:0:0:
182,192,102389,128,0,102472:0:0:0:0:
329,192,102472,128,0,102555:0:0:0:0:
402,192,102472,128,0,102555:0:0:0:0:
256,192,102555,128,0,102639:0:0:0:0:
402,192,102639,128,0,102889:0:0:0:0:
475,192,102639,128,0,102889:0:0:0:0:
36,192,102639,128,0,102722:0:0:0:0:
109,192,102639,1,0,0:0:0:0:
182,192,102722,128,0,102805:0:0:0:0:
329,192,102805,128,0,102889:0:0:0:0:
256,192,102805,128,0,102889:0:0:0:0:
182,192,102889,128,0,102972:0:0:0:0:
36,192,102972,128,0,103222:0:0:0:0:
109,192,102972,128,0,103222:0:0:0:0:
475,192,102972,128,0,103055:0:0:0:0:
256,192,102972,1,0,0:0:0:0:
329,192,103055,128,0,103139:0:0:0:0:
256,192,103139,128,0,103222:0:0:0:0:
182,192,103139,128,0,103222:0:0:0:0:
402,192,103222,128,0,103305:0:0:0:0:
475,192,103305,128,0,103555:0:0:0:0:
36,192,103305,128,0,103555:0:0:0:0:
329,192,103305,128,0,103472:0:0:0:0:
109,192,103305,1,0,0:0:0:0:
256,192,103389,128,0,103472:0:0:0:0:
182,192,103472,128,0,103639:0:0:0:0:
256,192,103555,128,0,103639:0:0:0:0:
475,192,103639,128,0,103889:0:0:0:0:
329,192,103639,128,0,103889:0:0:0:0:
402,192,103639,1,0,0:0:0:0:
36,192,103639,128,0,103722:0:0:0:0:
109,192,103639,128,0,103722:0:0:0:0:
402,192,103722,128,0,103889:0:0:0:0:
256,192,103722,1,0,0:0:0:0:
36,192,103805,128,0,104055:0:0:0:0:
182,192,103805,128,0,104055:0:0:0:0:
109,192,103805,1,0,0:0:0:0:
109,192,103889,128,0,104055:0:0:0:0:
256,192,103889,1,0,0:0:0:0:
329,192,103972,1,0,0:0:0:0:
402,192,103972,128,0,104180:0:0:0:0:
475,192,103972,1,0,0:0:0:0:
475,192,104055,128,0,104264:0:0:0:0:
256,192,104055,1,0,0:0:0:0:
36,192,104139,1,0,0:0:0:0:
182,192,104139,1,0,0:0:0:0:
109,192,104139,1,0,0:0:0:0:
329,192,104139,128,0,104180:0:0:0:0:
256,192,104222,1,0,0:0:0:0:
402,192,104222,128,0,104264:0:0:0:0:
329,192,104305,128,0,104514:0:0:0:0:
109,192,104305,1,0,0:0:0:0:
36,192,104305,1,0,0:0:0:0:
182,192,104305,1,0,0:0:0:0:
475,192,104305,1,0,0:0:0:0:
402,192,104389,128,0,104597:0:0:0:0:
182,192,104389,1,0,0:0:0:0:
475,192,104472,1,0,0:0:0:0:
36,192,104472,1,0,0:0:0:0:
256,192,104472,128,0,104514:0:0:0:0:
182,192,104555,1,0,0:0:0:0:
329,192,104555,128,0,104597:0:0:0:0:
256,192,104639,128,0,104847:0:0:0:0:
36,192,104639,1,0,0:0:0:0:
109,192,104639,1,0,0:0:0:0:
475,192,104639,1,0,0:0:0:0:
402,192,104639,1,0,0:0:0:0:
329,192,104722,128,0,104930:0:0:0:0:
182,192,104722,1,0,0:0:0:0:
36,192,104805,1,0,0:0:0:0:
109,192,104805,1,0,0:0:0:0:
475,192,104805,1,0,0:0:0:0:
182,192,104805,128,0,104847:0:0:0:0:
256,192,104889,128,0,104930:0:0:0:0:
182,192,104972,128,0,105180:0:0:0:0:
109,192,104972,1,0,0:0:0:0:
36,192,104972,1,0,0:0:0:0:
475,192,104972,1,0,0:0:0:0:
329,192,104972,1,0,0:0:0:0:
256,192,105055,128,0,105264:0:0:0:0:
402,192,105055,1,0,0:0:0:0:
329,192,105139,1,0,0:0:0:0:
475,192,105139,1,0,0:0:0:0:
109,192,105139,128,0,105180:0:0:0:0:
182,192,105222,128,0,105264:0:0:0:0:
109,192,105305,128,0,105514:0:0:0:0:
475,192,105305,1,0,0:0:0:0:
36,192,105305,1,0,0:0:0:0:
402,192,105305,1,0,0:0:0:0:
256,192,105305,1,0,0:0:0:0:
182,192,105389,128,0,105597:0:0:0:0:
329,192,105389,1,0,0:0:0:0:
256,192,105472,1,0,0:0:0:0:
475,192,105472,1,0,0:0:0:0:
36,192,105472,128,0,105514:0:0:0:0:
109,192,105555,128,0,105597:0:0:0:0:
36,192,105639,128,0,105847:0:0:0:0:
329,192,105639,1,0,0:0:0:0:
402,192,105639,1,0,0:0:0:0:
475,192,105639,1,0,0:0:0:0:
182,192,105639,1,0,0:0:0:0:
109,192,105722,128,0,105930:0:0:0:0:
256,192,105722,1,0,0:0:0:0:
329,192,105805,1,0,0:0:0:0:
182,192,105805,1,0,0:0:0:0:
475,192,105805,128,0,105847:0:0:0:0:
256,192,105889,1,0,0:0:0:0:
36,192,105889,128,0,105930:0:0:0:0:
475,192,105972,128,0,106180:0:0:0:0:
402,192,105972,1,0,0:0:0:0:
256,192,105972,1,0,0:0:0:0:
109,192,105972,1,0,0:0:0:0:
182,192,106055,1,0,0:0:0:0:
329,192,106055,1,0,0:0:0:0:
402,192,106055,128,0,106264:0:0:0:0:
36,192,106139,1,0,0:0:0:0:
256,192,106139,1,0,0:0:0:0:
109,192,106139,1,0,0:0:0:0:
182,192,106222,1,0,0:0:0:0:
329,192,106222,1,0,0:0:0:0:
36,192,106305,128,0,106555:0:0:0:0:
182,192,106305,128,0,106555:0:0:0:0:
475,192,106305,128,0,106389:0:0:0:0:
402,192,106305,128,0,106389:0:0:0:0:
109,192,106305,1,0,0:0:0:0:
109,192,106389,128,0,106555:0:0:0:0:
256,192,106389,1,0,0:0:0:0:
475,192,106472,128,0,106722:0:0:0:0:
329,192,106472,128,0,106722:0:0:0:0:
402,192,106472,1,0,0:0:0:0:
402,192,106555,128,0,106722:0:0:0:0:
256,192,106555,1,0,0:0:0:0:
182,192,106639,1,0,0:0:0:0:
109,192,106639,128,0,106847:0:0:0:0:
36,192,106639,1,0,0:0:0:0:
36,192,106722,128,0,106930:0:0:0:0:
256,192,106722,1,0,0:0:0:0:
475,192,106805,1,0,0:0:0:0:
329,192,106805,1,0,0:0:0:0:
402,192,106805,1,0,0:0:0:0:
182,192,106805,128,0,106847:0:0:0:0:
256,192,106889,1,0,0:0:0:0:
109,192,106889,128,0,106930:0:0:0:0:
182,192,106972,128,0,107180:0:0:0:0:
402,192,106972,1,0,0:0:0:0:
475,192,106972,1,0,0:0:0:0:
329,192,106972,1,0,0:0:0:0:
36,192,106972,1,0,0:0:0:0:
109,192,107055,128,0,107264:0:0:0:0:
329,192,107055,1,0,0:0:0:0:
36,192,107139,1,0,0:0:0:0:
475,192,107139,1,0,0:0:0:0:
256,192,107139,128,0,107180:0:0:0:0:
329,192,107222,1,0,0:0:0:0:
182,192,107222,128,0,107264:0:0:0:0:
256,192,107305,128,0,107514:0:0:0:0:
475,192,107305,1,0,0:0:0:0:
402,192,107305,1,0,0:0:0:0:
36,192,107305,1,0,0:0:0:0:
109,192,107305,1,0,0:0:0:0:
182,192,107389,128,0,107597:0:0:0:0:
329,192,107389,1,0,0:0:0:0:
475,192,107472,1,0,0:0:0:0:
402,192,107472,1,0,0:0:0:0:
36,192,107472,1,0,0:0:0:0:
329,192,107472,128,0,107514:0:0:0:0:
256,192,107555,128,0,107597:0:0:0:0:
329,192,107639,128,0,107847:0:0:0:0:
402,192,107639,1,0,0:0:0:0:
475,192,107639,1,0,0:0:0:0:
36,192,107639,1,0,0:0:0:0:
182,192,107639,1,0,0:0:0:0:
256,192,107722,128,0,107930:0:0:0:0:
109,192,107722,1,0,0:0:0:0:
182,192,107805,1,0,0:0:0:0:
36,192,107805,1,0,0:0:0:0:
402,192,107805,128,0,107847:0:0:0:0:
329,192,107889,128,0,107930:0:0:0:0:
402,192,107972,128,0,108180:0:0:0:0:
36,192,107972,1,0,0:0:0:0:
475,192,107972,1,0,0:0:0:0:
109,192,107972,1,0,0:0:0:0:
256,192,107972,1,0,0:0:0:0:
329,192,108055,128,0,108264:0:0:0:0:
182,192,108055,1,0,0:0:0:0:
256,192,108139,1,0,0:0:0:0:
36,192,108139,1,0,0:0:0:0:
475,192,108139,128,0,108180:0:0:0:0:
402,192,108222,128,0,108264:0:0:0:0:
475,192,108305,128,0,108514:0:0:0:0:
182,192,108305,1,0,0:0:0:0:
109,192,108305,1,0,0:0:0:0:
36,192,108305,1,0,0:0:0:0:
329,192,108305,1,0,0:0:0:0:
402,192,108389,128,0,108597:0:0:0:0:
256,192,108389,1,0,0:0:0:0:
182,192,108472,1,0,0:0:0:0:
329,192,108472,1,0,0:0:0:0:
36,192,108472,128,0,108514:0:0:0:0:
256,192,108555,1,0,0:0:0:0:
475,192,108555,128,0,108597:0:0:0:0:
402,192,108639,1,0,0:0:0:0:
36,192,108639,128,0,108847:0:0:0:0:
109,192,108639,1,0,0:0:0:0:
256,192,108639,1,0,0:0:0:0:
329,192,108722,1,0,0:0:0:0:
182,192,108722,1,0,0:0:0:0:
109,192,108722,128,0,108930:0:0:0:0:
475,192,108805,1,0,0:0:0:0:
256,192,108805,1,0,0:0:0:0:
402,192,108805,1,0,0:0:0:0:
329,192,108889,1,0,0:0:0:0:
182,192,108889,1,0,0:0:0:0:
475,192,108972,128,0,109222:0:0:0:0:
329,192,108972,128,0,109222:0:0:0:0:
36,192,108972,128,0,109055:0:0:0:0:
109,192,108972,128,0,109055:0:0:0:0:
402,192,108972,1,0,0:0:0:0:
402,192,109055,128,0,109222:0:0:0:0:
256,192,109055,1,0,0:0:0:0:
36,192,109139,128,0,109389:0:0:0:0:
182,192,109139,128,0,109389:0:0:0:0:
109,192,109139,1,0,0:0:0:0:
109,192,109222,128,0,109389:0:0:0:0:
256,192,109222,1,0,0:0:0:0:
402,192,109305,1,0,0:0:0:0:
329,192,109305,128,0,109514:0:0:0:0:
475,192,109305,1,0,0:0:0:0:
475,192,109389,128,0,109597:0:0:0:0:
256,192,109389,1,0,0:0:0:0:
36,192,109472,1,0,0:0:0:0:
109,192,109472,1,0,0:0:0:0:
182,192,109472,128,0,109514:0:0:0:0:
329,192,109555,128,0,109597:0:0:0:0:
256,192,109639,128,0,109847:0:0:0:0:
109,192,109639,1,0,0:0:0:0:
36,192,109639,1,0,0:0:0:0:
402,192,109639,1,0,0:0:0:0:
475,192,109639,128,0,109680:0:0:0:0:
402,192,109722,128,0,109930:0:0:0:0:
182,192,109722,1,0,0:0:0:0:
329,192,109805,1,0,0:0:0:0:
475,192,109805,1,0,0:0:0:0:
109,192,109805,128,0,109847:0:0:0:0:
256,192,109889,128,0,109930:0:0:0:0:
109,192,109972,1,0,0:0:0:0:
182,192,109972,128,0,110180:0:0:0:0:
36,192,109972,1,0,0:0:0:0:
475,192,109972,1,0,0:0:0:0:
402,192,109972,128,0,110014:0:0:0:0:
256,192,110055,1,0,0:0:0:0:
36,192,110055,128,0,110264:0:0:0:0:
402,192,110139,1,0,0:0:0:0:
475,192,110139,1,0,0:0:0:0:
329,192,110139,128,0,110180:0:0:0:0:
182,192,110222,128,0,110264:0:0:0:0:
475,192,110305,1,0,0:0:0:0:
256,192,110305,128,0,110514:0:0:0:0:
109,192,110305,1,0,0:0:0:0:
402,192,110305,1,0,0:0:0:0:
36,192,110305,128,0,110347:0:0:0:0:
109,192,110389,128,0,110597:0:0:0:0:
329,192,110389,1,0,0:0:0:0:
182,192,110472,1,0,0:0:0:0:
36,192,110472,1,0,0:0:0:0:
402,192,110472,128,0,110514:0:0:0:0:
256,192,110555,128,0,110597:0:0:0:0:
36,192,110639,1,0,0:0:0:0:
329,192,110639,128,0,110847:0:0:0:0:
475,192,110639,1,0,0:0:0:0:
402,192,110639,1,0,0:0:0:0:
109,192,110639,128,0,110680:0:0:0:0:
256,192,110722,1,0,0:0:0:0:
475,192,110722,128,0,110930:0:0:0:0:
36,192,110805,1,0,0:0:0:0:
182,192,110805,128,0,110847:0:0:0:0:
329,192,110889,128,0,110930:0:0:0:0:
256,192,110972,128,0,111180:0:0:0:0:
402,192,110972,1,0,0:0:0:0:
109,192,110972,1,0,0:0:0:0:
36,192,110972,1,0,0:0:0:0:
475,192,110972,128,0,111014:0:0:0:0:
182,192,111055,1,0,0:0:0:0:
402,192,111055,128,0,111264:0:0:0:0:
475,192,111139,1,0,0:0:0:0:
329,192,111139,1,0,0:0:0:0:
109,192,111139,128,0,111180:0:0:0:0:
256,192,111222,128,0,111264:0:0:0:0:
109,192,111305,1,0,0:0:0:0:
182,192,111305,128,0,111514:0:0:0:0:
36,192,111305,1,0,0:0:0:0:
475,192,111305,1,0,0:0:0:0:
402,192,111305,128,0,111347:0:0:0:0:
36,192,111389,128,0,111597:0:0:0:0:
256,192,111389,1,0,0:0:0:0:
402,192,111472,1,0,0:0:0:0:
475,192,111472,1,0,0:0:0:0:
329,192,111472,128,0,111514:0:0:0:0:
182,192,111555,128,0,111597:0:0:0:0:
329,192,111639,128,0,111930:0:0:0:0:
475,192,111639,128,0,111930:0:0:0:0:
402,192,111639,128,0,112264:0:0:0:0:
109,192,111639,1,0,0:0:0:0:
256,192,111639,1,0,0:0:0:0:
36,192,111639,128,0,111680:0:0:0:0:
182,192,111722,1,0,0:0:0:0:
109,192,111805,1,0,0:0:0:0:
36,192,111805,128,0,111847:0:0:0:0:
182,192,111889,1,0,0:0:0:0:
329,192,111972,128,0,112264:0:0:0:0:
475,192,111972,128,0,112264:0:0:0:0:
109,192,111972,1,0,0:0:0:0:
256,192,111972,1,0,0:0:0:0:
36,192,111972,128,0,112014:0:0:0:0:
182,192,112055,1,0,0:0:0:0:
36,192,112139,128,0,112180:0:0:0:0:
182,192,112222,1,0,0:0:0:0:
182,192,112305,128,0,112597:0:0:0:0:
109,192,112305,128,0,112930:0:0:0:0:
36,192,112305,128,0,112597:0:0:0:0:
256,192,112305,1,0,0:0:0:0:
402,192,112305,1,0,0:0:0:0:
475,192,112305,128,0,112347:0:0:0:0:
329,192,112389,1,0,0:0:0:0:
475,192,112472,128,0,112514:0:0:0:0:
329,192,112555,1,0,0:0:0:0:
182,192,112639,128,0,112930:0:0:0:0:
36,192,112639,128,0,112930:0:0:0:0:
402,192,112639,1,0,0:0:0:0:
256,192,112639,1,0,0:0:0:0:
475,192,112639,128,0,112680:0:0:0:0:
329,192,112722,1,0,0:0:0:0:
402,192,112805,1,0,0:0:0:0:
475,192,112805,128,0,112847:0:0:0:0:
329,192,112889,1,0,0:0:0:0:
36,192,112972,1,0,0:0:0:0:
109,192,112972,1,0,0:0:0:0:
475,192,112972,128,0,113430:0:0:0:0:
402,192,112972,1,0,0:0:0:0:
256,192,112972,1,0,0:0:0:0:
402,192,113055,128,0,113222:0:0:0:0:
182,192,113055,1,0,0:0:0:0:
329,192,113139,128,0,113347:0:0:0:0:
256,192,113139,1,0,0:0:0:0:
109,192,113222,1,0,0:0:0:0:
36,192,113222,128,0,113347:0:0:0:0:
256,192,113305,1,0,0:0:0:0:
182,192,113305,128,0,113430:0:0:0:0:
402,192,113389,1,0,0:0:0:0:
36,192,113389,1,0,0:0:0:0:
329,192,113389,128,0,113514:0:0:0:0:
475,192,113472,128,0,113597:0:0:0:0:
182,192,113472,1,0,0:0:0:0:
329,192,113555,1,0,0:0:0:0:
256,192,113639,1,0,0:0:0:0:
36,192,113639,128,0,114097:0:0:0:0:
475,192,113639,1,0,0:0:0:0:
402,192,113639,1,0,0:0:0:0:
329,192,113722,1,0,0:0:0:0:
109,192,113722,128,0,113889:0:0:0:0:
256,192,113805,1,0,0:0:0:0:
182,192,113805,128,0,114014:0:0:0:0:
402,192,113889,1,0,0:0:0:0:
475,192,113889,128,0,114014:0:0:0:0:
329,192,113972,128,0,114097:0:0:0:0:
256,192,113972,1,0,0:0:0:0:
109,192,114055,1,0,0:0:0:0:
475,192,114055,1,0,0:0:0:0:
182,192,114055,128,0,114180:0:0:0:0:
329,192,114139,1,0,0:0:0:0:
36,192,114139,128,0,114264:0:0:0:0:
182,192,114222,1,0,0:0:0:0:
36,192,114305,128,0,114889:0:0:0:0:
475,192,114305,128,0,114889:0:0:0:0:
256,192,114305,1,0,0:0:0:0:
329,192,114305,1,0,0:0:0:0:
402,192,114305,1,0,0:0:0:0:
182,192,114389,1,0,0:0:0:0:
109,192,114389,1,0,0:0:0:0:
329,192,114472,1,0,0:0:0:0:
402,192,114472,1,0,0:0:0:0:
109,192,114555,1,0,0:0:0:0:
182,192,114555,1,0,0:0:0:0:
256,192,114639,1,0,0:0:0:0:
329,192,114639,1,0,0:0:0:0:
402,192,114639,1,0,0:0:0:0:
109,192,114722,1,0,0:0:0:0:
182,192,114722,1,0,0:0:0:0:
329,192,114805,1,0,0:0:0:0:
402,192,114805,1,0,0:0:0:0:
109,192,114889,1,0,0:0:0:0:
256,192,114889,1,0,0:0:0:0:
475,192,114972,128,0,115014:0:0:0:0:
36,192,114972,1,0,0:0:0:0:
182,192,114972,1,0,0:0:0:0:
329,192,114972,128,0,115055:0:0:0:0:
402,192,115055,128,0,115139:0:0:0:0:
109,192,115055,1,0,0:0:0:0:
256,192,115055,128,0,115097:0:0:0:0:
329,192,115139,1,0,0:0:0:0:
475,192,115139,1,0,0:0:0:0:
36,192,115139,128,0,115180:0:0:0:0:
182,192,115139,128,0,115222:0:0:0:0:
256,192,115139,1,0,0:0:0:0:
402,192,115222,1,0,0:0:0:0:
109,192,115222,128,0,115305:0:0:0:0:
256,192,115222,128,0,115264:0:0:0:0:
36,192,115305,1,0,0:0:0:0:
182,192,115305,1,0,0:0:0:0:
475,192,115305,128,0,115389:0:0:0:0:
329,192,115305,128,0,115347:0:0:0:0:
256,192,115305,1,0,0:0:0:0:
109,192,115389,1,0,0:0:0:0:
402,192,115389,128,0,115472:0:0:0:0:
256,192,115389,128,0,115430:0:0:0:0:
329,192,115472,1,0,0:0:0:0:
475,192,115472,1,0,0:0:0:0:
36,192,115472,128,0,115555:0:0:0:0:
182,192,115472,128,0,115514:0:0:0:0:
256,192,115472,1,0,0:0:0:0:
402,192,115555,1,0,0:0:0:0:
109,192,115555,128,0,115639:0:0:0:0:
256,192,115555,128,0,115597:0:0:0:0:
475,192,115639,128,0,115889:0:0:0:0:
36,192,115639,1,0,0:0:0:0:
182,192,115639,1,0,0:0:0:0:
329,192,115639,128,0,115680:0:0:0:0:
256,192,115639,1,0,0:0:0:0:
402,192,115722,128,0,115972:0:0:0:0:
256,192,115722,128,0,115764:0:0:0:0:
109,192,115722,1,0,0:0:0:0:
329,192,115805,128,0,116055:0:0:0:0:
182,192,115805,128,0,115847:0:0:0:0:
36,192,115805,1,0,0:0:0:0:
109,192,115889,128,0,115930:0:0:0:0:
256,192,115889,128,0,116389:0:0:0:0:
36,192,115972,128,0,116139:0:0:0:0:
182,192,115972,128,0,116014:0:0:0:0:
475,192,115972,128,0,116014:0:0:0:0:
109,192,116055,128,0,116222:0:0:0:0:
402,192,116055,128,0,116097:0:0:0:0:
329,192,116139,128,0,116180:0:0:0:0:
182,192,116139,128,0,116305:0:0:0:0:
402,192,116222,128,0,116264:0:0:0:0:
36,192,116222,1,0,0:0:0:0:
329,192,116305,128,0,116472:0:0:0:0:
475,192,116305,128,0,116347:0:0:0:0:
36,192,116305,128,0,116597:0:0:0:0:
109,192,116305,1,0,0:0:0:0:
402,192,116389,128,0,116555:0:0:0:0:
109,192,116389,128,0,116514:0:0:0:0:
182,192,116389,1,0,0:0:0:0:
475,192,116472,128,0,116639:0:0:0:0:
182,192,116472,128,0,116764:0:0:0:0:
256,192,116472,1,0,0:0:0:0:
256,192,116555,128,0,116680:0:0:0:0:
329,192,116555,1,0,0:0:0:0:
109,192,116555,128,0,116597:0:0:0:0:
36,192,116639,128,0,116680:0:0:0:0:
329,192,116639,128,0,116764:0:0:0:0:
402,192,116639,1,0,0:0:0:0:
109,192,116722,128,0,116847:0:0:0:0:
402,192,116722,128,0,116847:0:0:0:0:
475,192,116722,1,0,0:0:0:0:
256,192,116722,128,0,116764:0:0:0:0:
36,192,116805,128,0,116930:0:0:0:0:
475,192,116805,128,0,116930:0:0:0:0:
256,192,116805,128,0,116930:0:0:0:0:
329,192,116889,128,0,116930:0:0:0:0:
182,192,116889,128,0,116930:0:0:0:0:
36,192,116972,1,0,0:0:0:0:
402,192,116972,1,0,0:0:0:0:
256,192,116972,1,0,0:0:0:0:
109,192,116972,1,0,0:0:0:0:
475,192,116972,1,0,0:0:0:0:
182,192,116972,1,0,0:0:0:0:
