osu file format v14

[General]
AudioFilename: audio.mp3
AudioLeadIn: 0
PreviewTime: 72439
Countdown: 0
SampleSet: Soft
StackLeniency: 0.3
Mode: 0
LetterboxInBreaks: 0
WidescreenStoryboard: 1

[Editor]
DistanceSpacing: 1.5
BeatDivisor: 4
GridSize: 4
TimelineZoom: 2

[Metadata]
Title:Delta
TitleUnicode:Delta
Artist:40mp feat. Mayumi Morinaga
ArtistUnicode:40㍍P feat. 森永真由美
Creator:Lunala
Version:Delta
Source:
Tags:Glitter 神巫詞 kamiuta ___aya___ japanese
BeatmapID:1990185
BeatmapSetID:953187

[Difficulty]
HPDrainRate:6
CircleSize:4
OverallDifficulty:8
ApproachRate:9
SliderMultiplier:1.5
SliderTickRate:1

[Events]
//Background and Video events
0,0,"2c1ec2011b9c586377d6b5e4064abd9d.jpg",0,0
//Break Periods
2,182277,190951
//Storyboard Layer 0 (Background)
//Storyboard Layer 1 (Fail)
//Storyboard Layer 2 (Pass)
//Storyboard Layer 3 (Foreground)
//Storyboard Sound Samples

[TimingPoints]
498,394.736842105263,4,2,1,50,1,0
1287,-100,4,2,1,70,0,0
2077.76923076923,394.736842105263,4,2,1,80,1,0
33656,-111.111111111111,4,2,1,60,0,0
58919,-100,4,2,1,75,0,0
59511,-90.9090909090909,4,2,1,75,0,0
60104,-100,4,2,1,75,0,0
65827,-90.9090909090909,4,2,1,75,0,0
66419,-100,4,2,1,75,0,0
68393,-111.111111111111,4,2,1,75,0,0
69084,-111.111111111111,4,2,1,5,0,0
69183,-111.111111111111,4,2,1,75,0,0
69873,-111.111111111111,4,2,1,5,0,0
69972,-111.111111111111,4,2,1,75,0,0
70465,-111.111111111111,4,2,1,5,0,0
70564,-111.111111111111,4,2,1,75,0,0
73130,-90.9090909090909,4,2,1,90,0,1
98393,-100,4,2,1,75,0,0
104709,-117.647058823529,4,2,1,50,0,0
117340,-111.111111111111,4,2,1,60,0,0
129972,-100,4,2,1,75,0,0
130564,-90.9090909090909,4,2,1,75,0,0
131156,-100,4,2,1,75,0,0
139446,-111.111111111111,4,2,1,75,0,0
140136,-111.111111111111,4,2,1,5,0,0
140235,-111.111111111111,4,2,1,75,0,0
140926,-111.111111111111,4,2,1,5,0,0
141025,-111.111111111111,4,2,1,75,0,0
141518,-111.111111111111,4,2,1,5,0,0
141617,-111.111111111111,4,2,1,75,0,0
144183,-90.9090909090909,4,2,1,90,0,1
169446,-100,4,2,1,80,0,0
194709,-86.9565217391304,4,2,1,90,0,1
207340,-100,4,2,1,80,0,0
233196,-111.111111111111,4,2,1,50,0,0
237242,-111.111111111111,4,2,1,5,0,0

[Colours]
Combo1 : 179,109,255
Combo2 : 81,255,239

[HitObjects]
426,69,498,5,0,3:0:0:0:
426,69,893,1,0,3:0:0:0:
250,103,1288,5,0,0:0:0:0:
308,15,1485,1,8,0:0:0:0:
347,167,1683,1,8,0:0:0:0:
347,167,1781,1,8,0:0:0:0:
347,167,1880,1,8,0:0:0:0:
164,212,2077,6,0,L|1:194,1,150,6|8,0:0|0:0,0:0:0:0:
116,299,2669,2,0,L|16:309,1,75,0|0,0:0|3:0,0:0:0:0:
207,383,3064,2,0,L|286:368,1,75,0|8,0:0|0:0,0:0:0:0:
398,279,3459,6,0,P|402:226|384:177,1,75,2|0,3:2|0:0,0:0:0:0:
244,106,3854,1,0,3:0:0:0:
295,207,4051,1,8,0:0:0:0:
427,127,4248,2,0,L|511:117,1,75,0|0,3:0|0:0,0:0:0:0:
333,54,4643,1,0,0:0:0:0:
295,207,4840,1,8,0:0:0:0:
244,106,5038,1,0,0:0:0:0:
169,232,5235,6,0,L|185:394,1,150,2|8,3:2|0:0,0:0:0:0:
295,207,5827,2,0,L|287:301,1,75,0|0,0:0|3:0,0:0:0:0:
244,106,6222,2,0,L|254:18,1,75,0|8,0:0|0:0,0:0:0:0:
137,173,6617,6,0,L|55:174,1,75,2|0,3:2|0:0,0:0:0:0:
265,217,7011,2,0,L|367:204,1,75,0|8,3:0|0:0,0:0:0:0:
405,289,7406,2,0,P|377:223|421:142,1,150,0|0,3:0|0:0,0:0:0:0:
317,74,7998,1,8,0:0:0:0:
448,22,8196,1,0,0:0:0:0:
376,173,8393,6,0,L|206:143,1,150,2|8,3:2|0:0,0:0:0:0:
77,173,8985,1,8,0:0:0:0:
137,34,9182,1,0,3:2:0:0:
169,184,9379,1,8,0:0:0:0:
54,81,9577,1,8,0:0:0:0:
213,97,9775,6,0,P|258:151|250:228,1,150,2|0,0:0|0:0,0:0:0:0:
362,284,10367,2,0,L|451:262,1,75,8|0,0:0|0:0,0:0:0:0:
308,384,10761,2,0,L|407:369,1,75,0|0,3:0|0:0,0:0:0:0:
184,323,11156,2,0,L|85:338,1,75,8|0,0:0|0:0,0:0:0:0:
250,226,11551,6,0,L|416:237,1,150,2|8,3:2|0:0,0:0:0:0:
442,146,12143,2,0,P|397:125|383:79,1,75,0|0,3:0|0:0,0:0:0:0:
424,6,12538,2,0,P|469:27|483:73,1,75,0|8,3:0|0:0,0:0:0:0:
298,94,12933,6,0,L|139:95,1,150,2|8,3:2|0:0,0:0:0:0:
45,168,13525,1,8,0:0:0:0:
160,71,13722,1,0,3:2:0:0:
123,219,13919,1,8,0:0:0:0:
65,77,14117,1,8,0:0:0:0:
201,160,14314,1,8,0:0:0:0:
209,179,14413,1,8,0:0:0:0:
215,201,14511,1,8,0:0:0:0:
213,222,14610,1,8,0:0:0:0:
207,241,14709,6,0,L|374:227,1,150,6|8,0:0|0:0,0:0:0:0:
459,120,15301,2,0,L|375:108,1,75,0|0,0:0|3:0,0:0:0:0:
433,254,15696,2,0,L|518:244,1,75,0|8,0:0|0:0,0:0:0:0:
321,283,16090,6,0,P|320:351|333:376,1,75,2|0,3:2|0:0,0:0:0:0:
377,132,16485,1,0,3:0:0:0:
433,254,16683,1,8,0:0:0:0:
273,161,16880,2,0,L|193:151,1,75,0|0,3:0|0:0,0:0:0:0:
316,53,17275,1,0,0:0:0:0:
355,220,17472,1,8,0:0:0:0:
401,126,17670,1,0,0:0:0:0:
250,273,17867,6,0,L|87:293,1,150,2|8,3:2|0:0,0:0:0:0:
177,177,18459,2,0,L|94:166,1,75,0|0,0:0|3:0,0:0:0:0:
31,48,18854,2,0,L|115:38,1,75,0|8,0:0|0:0,0:0:0:0:
259,133,19248,6,0,P|270:188|257:228,1,75,2|0,3:2|0:0,0:0:0:0:
355,86,19643,2,0,P|358:30|381:-5,1,75,0|0,3:0|0:0,0:0:0:0:
431,178,20038,2,0,L|411:350,1,150,0|8,3:0|0:0,0:0:0:0:
244,327,20630,1,8,0:0:0:0:
336,239,20827,1,8,0:0:0:0:
307,375,21025,6,0,L|142:357,1,150,6|0,0:0|0:0,0:0:0:0:
75,255,21617,1,0,0:0:0:0:
201,183,21814,1,8,0:0:0:0:
79,313,22011,5,0,0:0:0:0:
75,255,22209,1,0,3:0:0:0:
69,198,22406,1,8,0:0:0:0:
170,89,22604,5,2,3:2:0:0:
225,235,22801,1,8,0:0:0:0:
69,198,22998,2,0,L|-14:193,1,75,0|0,3:0|0:0,0:0:0:0:
170,89,23393,2,0,L|175:7,1,75,8|0,3:2|0:0,0:0:0:0:
303,166,23788,2,0,L|389:158,1,75,0|0,3:0|0:0,0:0:0:0:
468,272,24183,6,0,L|305:261,1,150,2|0,3:2|0:0,0:0:0:0:
237,305,24775,1,0,3:0:0:0:
209,160,24972,1,8,0:0:0:0:
319,262,25169,1,0,3:0:0:0:
170,243,25367,1,8,0:0:0:0:
303,166,25564,6,0,P|384:207|407:270,1,150,6|8,0:0|0:0,0:0:0:0:
499,195,26156,1,8,0:0:0:0:
512,100,26354,1,2,3:2:0:0:
394,12,26551,1,8,0:0:0:0:
389,110,26748,1,8,0:0:0:0:
273,200,26946,1,8,0:0:0:0:
266,173,27044,1,8,0:0:0:0:
259,143,27143,1,8,0:0:0:0:
212,269,27340,6,0,P|285:296|357:258,1,150,6|2,0:0|0:0,0:0:0:0:
380,229,27933,1,0,0:0:0:0:
380,229,28130,2,0,L|387:326,1,75,2|0,0:0|0:0,0:0:0:0:
471,167,28525,2,0,L|470:255,1,75,2|0,0:0|0:0,0:0:0:0:
383,82,28919,6,0,L|376:-15,1,75,2|0,0:0|0:0,0:0:0:0:
299,139,29314,2,0,L|300:51,1,75,2|0,0:0|0:0,0:0:0:0:
221,206,29709,5,2,0:0:0:0:
299,138,29906,1,8,0:0:0:0:
320,242,30104,1,2,0:0:0:0:
201,330,30498,6,0,L|40:308,1,150,6|2,0:0|0:0,0:0:0:0:
3,277,31090,1,0,0:0:0:0:
3,277,31288,2,0,L|13:357,1,75,2|0,0:0|0:0,0:0:0:0:
97,214,31683,2,0,L|91:301,1,75,2|0,0:0|0:0,0:0:0:0:
196,168,32077,6,0,L|175:266,1,75,2|0,0:0|0:0,0:0:0:0:
282,111,32472,1,2,0:0:0:0:
369,7,32669,1,8,0:0:0:0:
361,141,32867,1,2,0:0:0:0:
283,25,33064,1,8,0:0:0:0:
420,75,33261,1,2,0:0:0:0:
173,183,33656,6,0,L|79:171,2,67.4999979400635,6|0|2,0:0|0:0|0:0,0:0:0:0:
252,253,34248,1,0,0:0:0:0:
336,192,34446,1,2,0:0:0:0:
397,289,34643,2,0,L|406:369,1,67.4999979400635,0|2,0:0|0:0,0:0:0:0:
468,198,35038,1,0,0:0:0:0:
468,198,35235,6,0,L|451:47,1,134.999995880127,2|2,0:0|0:0,0:0:0:0:
338,25,35827,2,0,L|333:109,1,67.4999979400635,0|2,0:0|0:0,0:0:0:0:
220,149,36222,2,0,L|208:67,1,67.4999979400635,0|2,0:0|0:0,0:0:0:0:
291,217,36617,1,0,0:0:0:0:
291,217,36814,6,0,P|233:242|144:206,1,134.999995880127,2|2,0:0|0:0,0:0:0:0:
61,172,37406,2,0,L|63:251,1,67.4999979400635,0|2,0:0|0:0,0:0:0:0:
165,225,37801,2,0,L|153:310,1,67.4999979400635,0|2,0:0|0:0,0:0:0:0:
227,378,38196,1,0,0:0:0:0:
227,378,38393,6,0,L|391:355,1,134.999995880127,2|2,0:0|0:0,0:0:0:0:
363,253,38985,2,0,P|327:295|387:363,1,134.999995880127,0|0,0:0|3:0,0:0:0:0:
449,375,39577,1,8,0:0:0:0:
512,282,39775,1,0,0:0:0:0:
512,282,39972,6,0,L|497:126,1,134.999995880127,2|2,0:0|0:0,0:0:0:0:
399,74,40564,2,0,L|387:146,2,67.4999979400635,0|2|0,0:0|0:0|0:0,0:0:0:0:
300,8,41156,1,2,0:0:0:0:
300,8,41354,2,0,L|208:14,2,67.4999979400635,0|2|0,0:0|0:0|0:0,0:0:0:0:
263,111,41946,5,2,0:0:0:0:
263,111,42143,2,0,L|173:98,1,67.4999979400635,0|2,0:0|0:0,0:0:0:0:
129,208,42538,2,0,L|212:197,1,67.4999979400635,0|2,0:0|0:0,0:0:0:0:
55,139,42933,1,0,0:0:0:0:
55,139,43130,6,0,P|29:210|54:275,1,134.999995880127,2|2,0:0|0:0,0:0:0:0:
163,310,43722,2,0,P|159:262|142:235,1,67.4999979400635,0|2,0:0|0:0,0:0:0:0:
228,380,44117,2,0,P|246:342|247:297,2,67.4999979400635,0|2|0,0:0|0:0|0:0,0:0:0:0:
353,380,44709,6,0,L|507:358,1,134.999995880127,2|2,0:0|0:0,0:0:0:0:
511,256,45301,2,0,P|497:197|474:175,1,67.4999979400635,0|2,0:0|0:0,0:0:0:0:
354,169,45696,1,8,3:2:0:0:
321,283,45893,1,2,0:0:0:0:
429,251,46090,1,0,0:0:0:0:
266,155,46288,6,0,P|209:170|139:146,1,134.999995880127,6|2,0:0|0:0,0:0:0:0:
55,77,46880,1,0,0:0:0:0:
122,0,47077,1,2,0:0:0:0:
210,65,47275,2,0,L|206:135,1,67.4999979400635,0|2,0:0|0:0,0:0:0:0:
299,185,47669,1,0,0:0:0:0:
299,185,47867,6,0,L|287:340,1,134.999995880127,2|2,0:0|0:0,0:0:0:0:
385,384,48459,2,0,L|458:371,1,67.4999979400635,0|2,0:0|0:0,0:0:0:0:
288,319,48854,2,0,L|200:325,1,67.4999979400635,0|8,3:0|0:0,0:0:0:0:
114,257,49248,1,0,0:0:0:0:
114,257,49446,6,0,P|126:187|100:121,1,134.999995880127,2|2,0:0|0:0,0:0:0:0:
44,106,50038,2,0,P|79:127|126:121,1,67.4999979400635,0|2,0:0|0:0,0:0:0:0:
150,3,50433,2,0,P|116:20|95:63,1,67.4999979400635,0|2,0:0|0:0,0:0:0:0:
195,128,50827,1,0,0:0:0:0:
195,128,51025,6,0,L|352:127,1,134.999995880127,2|2,0:0|0:0,0:0:0:0:
463,71,51617,2,0,L|456:-2,1,67.4999979400635,0|2,0:0|0:0,0:0:0:0:
366,131,52011,1,0,3:0:0:0:
454,246,52209,1,8,0:0:0:0:
459,156,52406,1,0,0:0:0:0:
362,291,52604,6,0,L|207:276,1,134.999995880127,2|2,0:0|0:0,0:0:0:0:
93,225,53196,1,0,0:0:0:0:
38,318,53393,1,2,0:0:0:0:
186,253,53590,2,0,P|192:195|177:159,1,67.4999979400635,0|2,0:0|0:0,0:0:0:0:
131,97,53985,1,0,0:0:0:0:
131,97,54183,6,0,L|291:77,1,134.999995880127,2|2,0:0|0:0,0:0:0:0:
383,170,54775,2,0,L|373:253,1,67.4999979400635,0|2,0:0|0:0,0:0:0:0:
491,138,55169,2,0,L|480:52,1,67.4999979400635,0|8,3:0|0:0,0:0:0:0:
339,152,55564,1,0,0:0:0:0:
339,152,55761,6,0,L|364:298,1,134.999995880127,2|2,0:0|0:0,0:0:0:0:
283,384,56354,2,0,L|200:370,1,67.4999979400635,0|2,0:0|0:0,0:0:0:0:
82,327,56748,1,0,0:0:0:0:
102,215,56946,1,2,0:0:0:0:
190,286,57143,1,0,0:0:0:0:
17,236,57340,6,0,P|10:161|34:95,1,134.999995880127,2|2,0:0|0:0,0:0:0:0:
165,30,57933,2,0,P|169:78|151:113,1,67.4999979400635,0|2,0:0|0:0,0:0:0:0:
245,186,58327,1,8,3:2:0:0:
351,100,58525,1,8,0:0:0:0:
351,100,58623,1,8,0:0:0:0:
351,100,58722,1,8,0:0:0:0:
311,250,58919,6,0,P|252:278|166:232,1,150,4|8,0:0|0:0,0:0:0:0:
335,293,59511,6,0,P|258:299|167:245,1,165.000005035401,2|2,0:0|0:0,0:0:0:0:
355,334,60104,6,0,P|245:330|157:246,1,225,6|0,0:0|0:0,0:0:0:0:
174,125,60893,1,0,3:0:0:0:
265,153,61090,1,0,0:0:0:0:
189,210,61288,1,8,0:0:0:0:
244,74,61485,1,8,0:0:0:0:
274,239,61683,1,8,0:0:0:0:
274,239,61781,1,8,0:0:0:0:
274,239,61880,1,8,0:0:0:0:
116,173,62077,6,0,L|21:185,1,75,4|0,0:0|0:0,0:0:0:0:
147,77,62472,1,8,0:0:0:0:
294,128,62669,2,0,P|373:119|418:79,1,112.5,2|0,0:0|0:0,0:0:0:0:
440,80,63064,2,0,L|444:138,1,37.5,2|0,0:0|0:0,0:0:0:0:
447,268,63261,6,0,B|413:269|389:244|389:244|338:267|338:267|292:223|209:240,1,225,6|0,0:0|0:0,0:0:0:0:
84,275,64051,2,0,L|90:362,1,75,0|0,3:0|0:0,0:0:0:0:
126,143,64446,5,8,0:0:0:0:
166,273,64643,1,8,0:0:0:0:
50,195,64840,1,8,0:0:0:0:
50,195,64939,1,8,0:0:0:0:
50,195,65038,1,8,0:0:0:0:
177,68,65235,6,0,P|215:160|183:220,1,150,4|8,0:0|0:0,0:0:0:0:
210,38,65827,6,0,P|235:122|208:201,1,165.000005035401,2|2,0:0|0:0,0:0:0:0:
246,12,66419,6,0,P|265:95|197:223,1,225,6|0,0:0|0:0,0:0:0:0:
263,333,67209,1,0,3:0:0:0:
372,241,67406,1,2,0:0:0:0:
339,381,67604,1,8,0:0:0:0:
280,251,67801,1,8,0:0:0:0:
404,328,67998,1,8,0:0:0:0:
404,328,68097,1,8,0:0:0:0:
404,328,68196,1,8,0:0:0:0:
457,191,68393,6,0,B|419:189|402:151|402:151|356:166|356:166|297:133|225:161,1,236.249992790222,6|0,0:0|0:0,0:0:0:0:
207,236,69183,6,0,B|143:207|152:134|152:134|96:185|96:185|57:156,1,236.249992790222,6|0,0:0|0:0,0:0:0:0:
14,54,69972,6,0,B|61:66|80:89|80:89|111:41|175:39,1,168.749994850159,6|0,0:0|0:0,0:0:0:0:
234,64,70564,6,0,P|231:112|345:95,1,202.499993820191,6|0,0:0|0:0,0:0:0:0:
493,61,71354,5,2,0:0:0:0:
493,61,71452,1,2,0:0:0:0:
493,61,71551,1,8,0:0:0:0:
390,193,71748,1,8,0:0:0:0:
398,23,71946,1,8,0:0:0:0:
470,242,72143,1,12,0:0:0:0:
228,212,72538,5,2,0:0:0:0:
313,112,72735,1,2,0:0:0:0:
351,243,72933,1,0,0:0:0:0:
184,130,73130,6,0,B|140:145|140:145|50:112,1,123.75000377655,6|0,0:0|0:0,0:0:0:0:
0,151,73525,1,8,0:0:0:0:
76,272,73722,2,0,P|134:261|183:281,1,82.5000025177003,0|0,0:0|3:0,0:0:0:0:
294,378,74117,2,0,P|236:389|187:369,1,82.5000025177003,0|8,0:0|0:0,0:0:0:0:
385,309,74511,6,0,P|411:368|405:400,1,82.5000025177003,2|0,3:2|0:0,0:0:0:0:
373,200,74906,2,0,P|442:218|471:251,1,82.5000025177003,2|8,3:2|0:0,0:0:0:0:
271,116,75301,2,0,P|293:29|382:2,1,165.000005035401,2|2,3:2|0:0,0:0:0:0:
446,141,75893,1,8,0:0:0:0:
356,239,76090,1,0,0:0:0:0:
193,184,76288,6,0,L|43:177,1,123.75000377655,2|0,3:2|0:0,0:0:0:0:
1,145,76683,1,8,0:0:0:0:
108,23,76880,2,0,P|159:35|209:9,1,82.5000025177003,0|0,0:0|3:0,0:0:0:0:
336,82,77275,2,0,P|285:70|235:96,1,82.5000025177003,0|8,0:0|0:0,0:0:0:0:
405,155,77669,6,0,P|442:90|434:52,1,82.5000025177003,2|0,3:2|0:0,0:0:0:0:
344,232,78064,2,0,P|424:250|449:238,1,82.5000025177003,2|8,3:2|0:0,0:0:0:0:
278,307,78459,2,0,P|283:363|318:404,1,82.5000025177003,2|0,3:2|0:0,0:0:0:0:
419,279,78854,1,2,0:0:0:0:
283,199,79051,1,8,0:0:0:0:
295,330,79248,1,2,0:0:0:0:
197,171,79446,6,0,L|109:179,1,82.5000025177003,2|0,3:2|0:0,0:0:0:0:
18,309,79840,2,0,L|116:297,1,82.5000025177003,8|0,0:0|0:0,0:0:0:0:
234,258,80235,1,0,3:0:0:0:
271,117,80433,1,0,0:0:0:0:
326,230,80630,1,8,0:0:0:0:
171,156,80827,6,0,B|113:174|113:174|-2:117,1,165.000005035401,2|0,0:0|0:0,0:0:0:0:
217,64,81419,2,0,P|271:121|263:150,1,82.5000025177003,8|0,0:0|0:0,0:0:0:0:
224,208,81814,2,0,P|170:151|178:122,1,82.5000025177003,0|0,3:0|0:0,0:0:0:0:
326,230,82209,2,0,L|318:318,1,82.5000025177003,8|0,0:0|0:0,0:0:0:0:
429,161,82604,6,0,B|447:109|447:109|399:-16,1,165.000005035401,2|0,3:2|0:0,0:0:0:0:
305,119,83196,2,0,P|308:176|324:202,1,82.5000025177003,0|0,3:0|0:0,0:0:0:0:
429,161,83590,2,0,L|511:143,1,82.5000025177003,2|8,0:0|0:0,0:0:0:0:
351,278,83985,6,0,L|171:260,1,165.000005035401,2|8,0:0|0:0,0:0:0:0:
87,314,84577,1,8,0:0:0:0:
41,172,84775,1,8,0:0:0:0:
165,261,84972,1,8,0:0:0:0:
12,257,85169,1,8,0:0:0:0:
142,172,85367,1,8,0:0:0:0:
142,172,85465,1,8,0:0:0:0:
142,172,85564,1,8,0:0:0:0:
260,37,85761,6,0,P|282:121|259:173,1,123.75000377655,6|0,0:0|0:0,0:0:0:0:
337,199,86156,1,8,0:0:0:0:
450,312,86354,2,0,L|328:299,1,82.5000025177003,2|0,0:0|3:0,0:0:0:0:
223,383,86748,2,0,L|345:370,1,82.5000025177003,2|8,0:0|0:0,0:0:0:0:
155,294,87143,6,0,P|95:326|81:367,1,82.5000025177003,2|0,3:2|0:0,0:0:0:0:
234,222,87538,2,0,P|203:191|168:176,1,82.5000025177003,2|8,3:2|0:0,0:0:0:0:
347,220,87933,2,0,P|338:104|298:47,1,165.000005035401,2|2,3:2|0:0,0:0:0:0:
151,122,88525,1,8,0:0:0:0:
240,197,88722,1,0,0:0:0:0:
70,64,88919,6,0,P|60:142|93:196,1,123.75000377655,2|0,3:2|0:0,0:0:0:0:
27,238,89314,1,8,0:0:0:0:
154,337,89511,2,0,L|274:324,1,82.5000025177003,2|0,0:0|3:0,0:0:0:0:
322,205,89906,2,0,L|202:192,1,82.5000025177003,2|8,0:0|0:0,0:0:0:0:
372,121,90301,6,0,P|423:180|420:214,1,82.5000025177003,2|0,3:2|0:0,0:0:0:0:
295,43,90696,2,0,P|331:8|376:0,1,82.5000025177003,2|0,3:2|0:0,0:0:0:0:
195,94,91090,2,0,P|163:45|165:5,1,82.5000025177003,2|0,3:2|0:0,0:0:0:0:
285,145,91485,1,8,0:0:0:0:
170,242,91683,1,8,0:0:0:0:
195,94,91880,1,8,0:0:0:0:
300,238,92077,6,0,L|477:210,1,165.000005035401,6|0,0:0|3:0,0:0:0:0:
484,315,92669,1,2,0:0:0:0:
484,315,92867,1,8,0:0:0:0:
452,225,93064,1,0,0:0:0:0:
421,138,93261,1,0,3:0:0:0:
511,156,93459,1,8,0:0:0:0:
364,201,93656,6,0,L|244:196,1,82.5000025177003,2|8,0:0|0:0,0:0:0:0:
205,89,94051,2,0,L|325:94,1,82.5000025177003,0|0,3:0|0:0,0:0:0:0:
189,198,94446,2,0,P|159:232|101:230,1,82.5000025177003,8|0,0:3|0:0,0:0:0:0:
47,136,94840,2,0,P|77:102|135:104,1,82.5000025177003,2|8,0:0|0:0,0:0:0:0:
269,157,95235,6,0,B|287:199|269:237|269:237|371:218,1,165.000005035401,0|0,3:0|0:0,0:0:0:0:
417,50,95827,2,0,P|380:33|323:43,1,82.5000025177003,0|8,3:0|0:0,0:0:0:0:
429,199,96222,2,0,P|462:175|482:121,1,82.5000025177003,0|8,3:0|0:0,0:0:0:0:
269,157,96617,6,0,L|276:338,1,165.000005035401,6|8,0:0|0:0,0:0:0:0:
132,366,97209,1,8,0:0:0:0:
34,250,97406,1,0,0:0:0:0:
190,285,97604,1,8,0:0:0:0:
43,341,97801,1,8,0:0:0:0:
128,206,97998,1,8,0:0:0:0:
128,206,98097,1,8,0:0:0:0:
128,206,98196,1,8,0:0:0:0:
248,62,98393,6,0,P|267:155|238:227,1,150,6|2,0:0|0:0,0:0:0:0:
313,287,98985,1,0,0:0:0:0:
313,287,99183,2,0,L|391:283,1,75,2|0,0:0|0:0,0:0:0:0:
368,193,99577,2,0,L|462:197,1,75,2|0,0:0|0:0,0:0:0:0:
420,103,99972,6,0,L|512:114,2,75,2|0|2,0:0|0:0|0:0,0:0:0:0:
328,97,100564,1,0,0:0:0:0:
196,156,100761,1,2,0:0:0:0:
259,33,100959,1,8,0:0:0:0:
281,172,101156,1,2,0:0:0:0:
104,86,101551,6,0,P|83:138|110:231,1,150,6|2,0:0|0:0,0:0:0:0:
74,314,102143,1,0,0:0:0:0:
74,314,102340,2,0,L|-32:307,1,75,2|0,0:0|0:0,0:0:0:0:
149,384,102735,2,0,L|228:378,1,75,2|0,0:0|0:0,0:0:0:0:
314,324,103130,6,0,P|314:259|292:224,1,75,2|0,0:0|0:0,0:0:0:0:
172,172,103525,1,2,0:0:0:0:
235,286,103722,1,8,0:0:0:0:
256,154,103919,1,2,0:0:0:0:
160,252,104117,1,8,0:0:0:0:
301,228,104314,1,2,0:0:0:0:
433,81,104709,6,0,B|379:102|379:102|299:72,1,127.50000243187,2|2,0:0|0:0,0:0:0:0:
222,90,105301,1,0,0:0:0:0:
222,90,105498,2,0,P|202:161|235:217,1,127.50000243187,2|2,0:0|0:0,0:0:0:0:
295,147,106090,1,0,0:0:0:0:
295,147,106288,6,0,L|153:145,1,127.50000243187,2|2,0:0|0:0,0:0:0:0:
113,250,106880,2,0,L|262:237,1,127.50000243187
323,311,107472,2,0,L|319:380,1,63.7500012159348,2|0,0:0|0:0,0:0:0:0:
422,293,107867,6,0,P|429:244|401:151,1,127.50000243187,2|2,0:0|0:0,0:0:0:0:
348,117,108459,2,0,B|410:146|410:146|483:114,1,127.50000243187
381,36,109051,2,0,P|335:29|306:40,1,63.7500012159348,2|0,0:0|0:0,0:0:0:0:
212,82,109446,6,0,P|165:90|87:53,1,127.50000243187,2|2,0:0|0:0,0:0:0:0:
10,125,110038,2,0,L|16:205,1,63.7500012159348,0|2,0:0|0:0,0:0:0:0:
108,227,110433,2,0,L|98:292,1,63.7500012159348,0|8,3:0|0:0,0:0:0:0:
170,362,110827,1,0,0:0:0:0:
170,362,111025,6,0,B|237:386|237:386|302:348,1,127.50000243187,2|2,0:0|0:0,0:0:0:0:
369,311,111617,1,0,0:0:0:0:
369,311,111814,2,0,P|356:233|391:186,1,127.50000243187,2|2,0:0|0:0,0:0:0:0:
454,263,112406,1,0,0:0:0:0:
454,263,112604,6,0,L|315:232,1,127.50000243187,2|2,0:0|0:0,0:0:0:0:
240,211,113196,2,0,P|185:241|125:212,1,127.50000243187
36,255,113788,2,0,L|46:322,1,63.7500012159348,2|0,0:0|0:0,0:0:0:0:
129,217,114183,6,0,L|129:76,1,127.50000243187,2|2,0:0|0:0,0:0:0:0:
206,30,114775,2,0,B|279:50|279:50|343:22,1,127.50000243187,0|0,0:0|0:0,0:0:0:0:
419,72,115367,2,0,P|416:130|428:146,1,63.7500012159348,2|0,0:0|0:0,0:0:0:0:
494,173,115761,6,0,L|356:165,1,127.50000243187,2|0,0:0|0:0,0:0:0:0:
304,264,116354,2,0,L|378:254,1,63.7500012159348,0|2,0:0|0:0,0:0:0:0:
240,188,116748,1,8,3:2:0:0:
202,303,116946,1,2,0:0:0:0:
138,204,117143,1,0,0:0:0:0:
284,347,117340,6,0,L|127:341,1,134.999995880127,6|2,0:0|0:0,0:0:0:0:
64,279,117933,1,0,0:0:0:0:
59,187,118130,1,2,0:0:0:0:
146,112,118327,2,0,L|135:29,1,67.4999979400635,0|2,0:0|0:0,0:0:0:0:
247,181,118722,1,0,0:0:0:0:
247,181,118919,6,0,L|241:327,1,134.999995880127,2|2,0:0|0:0,0:0:0:0:
334,382,119511,2,0,L|413:364,1,67.4999979400635,2|0,0:0|0:0,0:0:0:0:
241,315,119906,2,0,L|164:304,1,67.4999979400635,0|8,3:0|0:0,0:0:0:0:
97,228,120301,1,0,0:0:0:0:
97,228,120498,6,0,P|172:196|179:137,1,134.999995880127,2|2,0:0|0:0,0:0:0:0:
69,93,121090,2,0,P|80:137|107:153,1,67.4999979400635,0|2,0:0|0:0,0:0:0:0:
184,69,121485,2,0,P|173:25|146:9,1,67.4999979400635,0|2,0:0|0:0,0:0:0:0:
238,160,121880,1,0,0:0:0:0:
238,160,122077,6,0,L|402:139,1,134.999995880127,2|2,0:0|0:0,0:0:0:0:
461,62,122669,2,0,L|387:47,1,67.4999979400635,0|2,0:0|0:0,0:0:0:0:
361,212,123064,1,0,3:0:0:0:
473,136,123261,1,8,0:0:0:0:
306,147,123459,1,0,0:0:0:0:
394,303,123656,6,0,L|471:292,2,67.4999979400635,2|0|2,0:0|0:0|0:0,0:0:0:0:
234,242,124248,1,0,0:0:0:0:
285,362,124446,1,2,0:0:0:0:
293,179,124643,2,0,P|241:156|208:159,1,67.4999979400635,0|2,0:0|0:0,0:0:0:0:
103,156,125038,1,0,0:0:0:0:
103,156,125235,6,0,P|167:167|217:101,1,134.999995880127,2|2,0:0|0:0,0:0:0:0:
327,87,125827,2,0,L|338:168,1,67.4999979400635,2|0,0:0|0:0,0:0:0:0:
452,68,126222,2,0,L|460:-4,1,67.4999979400635,0|8,3:0|0:0,0:0:0:0:
512,148,126617,1,0,0:0:0:0:
408,216,126814,6,0,L|243:199,1,134.999995880127,2|2,0:0|0:0,0:0:0:0:
168,272,127406,2,0,P|171:340|186:361,1,67.4999979400635,0|2,0:0|0:0,0:0:0:0:
240,190,127801,2,0,P|237:122|222:101,1,67.4999979400635,0|2,0:0|0:0,0:0:0:0:
129,162,128196,1,0,0:0:0:0:
302,266,128393,6,0,P|330:211|314:117,1,134.999995880127,2|2,0:0|0:0,0:0:0:0:
389,40,128985,2,0,L|463:50,1,67.4999979400635,0|2,0:0|0:0,0:0:0:0:
325,139,129380,1,8,3:2:0:0:
228,51,129577,1,8,0:0:0:0:
228,51,129676,1,8,0:0:0:0:
228,51,129775,1,8,0:0:0:0:
119,148,129972,6,0,B|92:222|92:222|126:293,1,150,4|8,0:0|0:0,0:0:0:0:
77,121,130564,6,0,B|63:204|63:204|113:291,1,165.000005035401,2|2,0:0|0:0,0:0:0:0:
37,93,131157,6,0,B|30:203|30:203|110:296,1,225,6|0,0:0|0:0,0:0:0:0:
252,328,131946,1,0,3:0:0:0:
234,246,132143,1,0,0:0:0:0:
175,303,132340,1,8,0:0:0:0:
311,272,132538,1,8,0:0:0:0:
159,224,132735,1,8,0:0:0:0:
159,224,132834,1,8,0:0:0:0:
159,224,132933,1,8,0:0:0:0:
191,384,133130,6,0,L|286:371,1,75,4|0,0:0|0:0,0:0:0:0:
389,334,133525,1,8,0:0:0:0:
447,185,133722,2,0,P|468:265|451:320,1,112.5,2|0,0:0|0:0,0:0:0:0:
475,335,134117,2,0,L|529:323,1,37.5,2|0,0:0|0:0,0:0:0:0:
369,247,134314,6,0,B|335:248|311:223|311:223|260:246|260:246|214:202|131:219,1,225,4|0,0:0|0:0,0:0:0:0:
64,129,135104,2,0,L|149:112,1,75,0|0,3:0|0:0,0:0:0:0:
306,136,135498,5,8,0:0:0:0:
163,214,135696,1,8,0:0:0:0:
227,88,135893,1,8,0:0:0:0:
227,88,135992,1,8,0:0:0:0:
227,88,136090,1,8,0:0:0:0:
259,252,136288,6,0,B|187:284|187:284|113:255,1,150,4|8,0:0|0:0,0:0:0:0:
288,292,136880,6,0,B|206:311|206:311|115:267,1,165.000005035401,2|2,0:0|0:0,0:0:0:0:
318,330,137473,6,0,B|208:344|208:344|110:271,1,225,6|0,0:0|0:0,0:0:0:0:
61,183,138261,1,0,3:0:0:0:
165,85,138458,1,2,0:0:0:0:
139,226,138656,1,8,0:0:0:0:
73,100,138853,1,8,0:0:0:0:
212,169,139050,1,8,0:0:0:0:
212,169,139149,1,8,0:0:0:0:
212,169,139248,1,8,0:0:0:0:
376,188,139446,6,0,P|399:94|285:-4,1,236.249992790222,6|0,0:0|0:0,0:0:0:0:
222,50,140235,6,0,B|239:106|211:169|211:169|246:108|313:112,1,236.249992790222,6|0,0:0|0:0,0:0:0:0:
376,188,141025,6,0,P|344:291|276:306,1,168.749994850159,6|0,0:0|0:0,0:0:0:0:
209,310,141617,6,0,P|268:275|353:359,1,202.499993820191,6|0,0:0|0:0,0:0:0:0:
478,281,142406,5,2,0:0:0:0:
478,281,142505,1,2,0:0:0:0:
478,281,142604,1,8,0:0:0:0:
301,223,142801,1,8,0:0:0:0:
486,185,142998,1,8,0:0:0:0:
293,313,143196,1,12,0:0:0:0:
117,228,143590,6,0,L|57:223,1,33.7499989700318,2|0,0:0|0:0,0:0:0:0:
12,127,143788,2,0,L|79:132,1,67.4999979400635,2|0,0:0|0:0,0:0:0:0:
280,137,144183,6,0,P|333:147|418:106,1,123.75000377655,6|0,0:0|0:0,0:0:0:0:
479,130,144577,1,8,0:0:0:0:
396,255,144775,2,0,P|357:249|293:269,1,82.5000025177003,0|0,0:0|3:0,0:0:0:0:
258,384,145169,2,0,P|297:390|361:370,1,82.5000025177003,8|8,0:3|0:0,0:0:0:0:
192,290,145564,6,0,P|160:329|153:366,1,82.5000025177003,2|0,3:2|0:0,0:0:0:0:
232,191,145959,2,0,P|187:169|119:175,1,82.5000025177003,2|8,3:2|0:0,0:0:0:0:
361,175,146354,2,0,P|376:73|343:-17,1,165.000005035401,2|2,3:2|0:0,0:0:0:0:
212,84,146946,1,8,0:0:0:0:
264,213,147143,1,0,0:0:0:0:
164,325,147340,6,0,L|23:312,1,123.75000377655,2|0,3:2|0:0,0:0:0:0:
0,251,147735,1,8,0:0:0:0:
111,161,147933,2,0,P|118:100|92:54,1,82.5000025177003,0|0,0:0|3:0,0:0:0:0:
212,0,148327,2,0,P|205:61|231:107,1,82.5000025177003,0|8,0:0|0:0,0:0:0:0:
321,148,148722,6,0,L|433:140,1,82.5000025177003,2|0,3:2|0:0,0:0:0:0:
333,252,149117,2,0,L|215:248,1,82.5000025177003,2|0,3:2|0:0,0:0:0:0:
394,349,149511,2,0,L|490:331,1,82.5000025177003,2|0,3:2|0:0,0:0:0:0:
306,379,149906,1,2,0:0:0:0:
336,234,150104,1,8,0:0:0:0:
426,345,150301,1,0,0:0:0:0:
240,276,150498,6,0,L|126:262,1,82.5000025177003,2|0,3:2|0:0,0:0:0:0:
69,129,150893,2,0,L|183:143,1,82.5000025177003,2|0,0:0|0:0,0:0:0:0:
273,182,151288,1,0,3:0:0:0:
161,237,151485,1,0,0:0:0:0:
207,96,151683,1,8,0:0:0:0:
371,163,151880,6,0,B|388:212|388:212|354:333,1,165.000005035401,2|0,0:0|0:0,0:0:0:0:
273,182,152472,2,0,P|271:121|292:86,1,82.5000025177003,8|0,0:0|0:0,0:0:0:0:
377,83,152867,2,0,P|379:144|358:179,1,82.5000025177003,0|0,3:0|0:0,0:0:0:0:
431,260,153261,2,0,L|520:243,1,82.5000025177003,8|0,0:0|0:0,0:0:0:0:
292,304,153656,6,0,B|253:328|253:328|112:280,1,165.000005035401,2|2,3:2|0:0,0:0:0:0:
170,141,154248,2,0,P|179:195|162:228,1,82.5000025177003
34,154,154643,2,0,P|23:98|40:65,1,82.5000025177003,0|8,0:0|0:0,0:0:0:0:
202,59,155038,6,0,B|248:104|248:104|372:62,1,165.000005035401,2|8,0:0|0:0,0:0:0:0:
452,32,155630,1,8,0:0:0:0:
417,181,155827,1,8,0:0:0:0:
352,38,156025,1,8,0:0:0:0:
492,123,156222,1,8,0:0:0:0:
346,127,156419,1,8,0:0:0:0:
346,127,156518,1,8,0:0:0:0:
346,127,156616,1,8,0:0:0:0:
193,198,156814,6,0,P|179:129|215:52,1,123.75000377655,6|0,0:0|0:0,0:0:0:0:
260,33,157209,1,8,0:0:0:0:
111,101,157406,2,0,L|7:108,1,82.5000025177003,0|0,0:0|3:0,0:0:0:0:
193,198,157801,2,0,L|300:187,1,82.5000025177003,0|8,0:0|0:0,0:0:0:0:
394,276,158196,6,0,P|408:334|395:368,1,82.5000025177003,2|0,3:2|0:0,0:0:0:0:
371,176,158590,2,0,P|423:177|474:214,1,82.5000025177003,2|8,3:2|0:0,0:0:0:0:
274,128,158985,2,0,P|286:44|371:-4,1,165.000005035401,2|2,3:2|0:0,0:0:0:0:
414,131,159577,1,8,0:0:0:0:
325,206,159774,1,0,0:0:0:0:
492,77,159971,6,0,P|502:155|469:209,1,123.75000377655,2|0,3:2|0:0,0:0:0:0:
434,254,160367,1,8,0:0:0:0:
301,303,160564,2,0,L|318:405,1,82.5000025177003,0|0,0:0|3:0,0:0:0:0:
171,301,160959,2,0,L|183:203,1,82.5000025177003,0|8,0:0|0:0,0:0:0:0:
314,137,161354,6,0,P|324:187|308:226,1,82.5000025177003,2|0,3:2|0:0,0:0:0:0:
222,44,161748,2,0,P|260:10|302:4,1,82.5000025177003,2|0,3:2|0:0,0:0:0:0:
183,160,162143,2,0,P|125:142|99:109,1,82.5000025177003,2|0,3:2|0:0,0:0:0:0:
60,12,162538,1,8,0:0:0:0:
179,75,162735,1,8,0:0:0:0:
56,182,162933,1,8,0:0:0:0:
214,257,163130,6,0,L|403:233,1,165.000005035401,6|0,0:0|3:0,0:0:0:0:
475,198,163722,1,2,0:0:0:0:
475,198,163919,1,8,0:0:0:0:
437,290,164117,1,0,0:0:0:0:
378,208,164314,1,0,3:0:0:0:
319,123,164511,1,8,0:0:0:0:
383,44,164709,6,0,L|472:55,1,82.5000025177003,0|8,3:0|0:0,0:0:0:0:
378,208,165104,2,0,L|289:197,1,82.5000025177003,0|0,3:0|0:0,0:0:0:0:
190,106,165498,2,0,P|201:45|230:20,1,82.5000025177003,2|0,0:0|0:0,0:0:0:0:
319,123,165893,2,0,P|308:184|279:209,1,82.5000025177003,2|0,0:0|0:0,0:0:0:0:
169,245,166288,6,0,B|229:241|252:218|252:218|285:252|347:243,1,165.000005035401,2|0,0:0|0:0,0:0:0:0:
481,255,166880,2,0,P|481:188|460:155,1,82.5000025177003,0|8,3:0|0:0,0:0:0:0:
349,53,167275,2,0,P|349:120|370:153,1,82.5000025177003,0|8,0:0|0:0,0:0:0:0:
486,117,167669,6,0,L|306:108,1,165.000005035401,6|8,0:0|0:0,0:0:0:0:
183,167,168261,1,8,0:0:0:0:
270,32,168459,1,8,0:0:0:0:
276,188,168656,1,8,0:0:0:0:
176,72,168854,1,8,0:0:0:0:
337,116,169051,1,8,0:0:0:0:
337,116,169150,1,8,0:0:0:0:
337,116,169248,1,8,0:0:0:0:
244,267,169446,6,0,P|197:282|92:245,1,150,6|0,0:0|3:0,0:0:0:0:
45,168,170038,1,2,0:0:0:0:
128,112,170235,1,8,0:0:0:0:
135,208,170433,1,0,0:0:0:0:
37,75,170630,1,8,0:0:0:0:
216,63,170827,6,0,L|377:36,1,150,6|2,0:0|0:0,0:0:0:0:
490,75,171419,1,8,0:0:0:0:
465,164,171617,1,2,0:0:0:0:
392,89,171814,1,8,0:0:0:0:
382,215,172011,1,2,0:0:0:0:
295,104,172209,1,8,0:0:0:0:
294,262,172406,1,8,0:0:0:0:
144,322,172604,6,0,L|325:291,1,150,6|0,0:0|3:0,0:0:0:0:
396,314,173196,1,2,0:0:0:0:
488,203,173393,1,8,0:0:0:0:
482,342,173590,1,0,0:0:0:0:
364,220,173788,1,8,0:0:0:0:
477,61,173985,6,0,P|503:137|485:208,1,150,6|2,0:0|0:0,0:0:0:0:
364,220,174577,1,8,0:0:0:0:
266,92,174775,1,2,0:0:0:0:
414,132,174972,1,8,0:0:0:0:
274,180,175169,1,2,0:0:0:0:
116,109,175367,1,8,0:0:0:0:
114,131,175465,1,8,0:0:0:0:
111,156,175564,1,8,0:0:0:0:
109,178,175663,1,8,0:0:0:0:
106,200,175761,6,0,L|267:184,1,150,6|0,0:0|3:0,0:0:0:0:
377,238,176354,1,2,0:0:0:0:
289,102,176551,1,8,0:0:0:0:
286,262,176748,1,0,0:0:0:0:
387,136,176946,1,8,0:0:0:0:
359,331,177143,6,0,P|292:357|194:317,1,150,6|2,0:0|0:0,0:0:0:0:
130,272,177735,1,8,0:0:0:0:
81,353,177933,1,2,0:0:0:0:
54,211,178130,2,0,L|63:115,1,75,8|0,0:0|0:0,0:0:0:0:
203,66,178525,1,8,0:0:0:0:
149,177,178722,1,8,0:0:0:0:
128,26,178919,6,0,B|182:49|182:49|294:9,1,150,6|0,0:0|3:0,0:0:0:0:
366,65,179511,1,0,0:0:0:0:
448,207,179709,2,0,L|362:203,1,75,8|0,0:0|0:0,0:0:0:0:
249,131,180104,1,8,0:0:0:0:
395,301,180301,6,0,L|274:288,1,112.5,6|0,0:0|0:0,0:0:0:0:
214,343,180696,2,0,L|225:402,1,37.5,8|0,0:0|0:0,0:0:0:0:
179,244,180893,2,0,L|186:190,1,37.5,8|0,0:0|0:0,0:0:0:0:
97,297,181090,6,0,P|32:283|3:203,1,150,6|8,0:0|0:0,0:0:0:0:
98,60,181683,5,8,0:0:0:0:
102,89,181781,1,8,0:0:0:0:
107,114,181880,1,8,0:0:0:0:
112,139,181979,1,8,0:0:0:0:
117,167,182077,1,8,0:0:0:0:
394,99,191551,5,8,3:2:0:0:
394,99,191748,1,8,0:0:0:0:
307,192,191946,5,8,0:0:0:0:
307,192,192143,1,8,0:0:0:0:
305,58,192340,5,8,0:0:0:0:
305,58,192538,1,8,0:0:0:0:
392,223,192735,5,8,0:0:0:0:
218,176,192933,6,0,P|168:189|86:158,1,112.5,6|0,0:0|0:0,0:0:0:0:
25,212,193327,1,8,0:0:0:0:
96,307,193525,1,8,0:0:0:0:
90,158,193722,1,0,0:0:0:0:
16,328,193919,1,8,0:0:0:0:
167,269,194117,1,8,0:0:0:0:
305,199,194314,5,8,0:0:0:0:
321,231,194413,1,8,0:0:0:0:
326,270,194511,1,8,0:0:0:0:
321,304,194610,1,8,0:0:0:0:
299,338,194709,6,0,L|460:309,1,129.375002467632,6|0,0:0|0:0,0:0:0:0:
506,346,195104,1,8,3:2:0:0:
506,207,195301,2,0,P|488:140|459:108,1,86.2500016450882
352,186,195696,1,0,0:0:0:0:
431,273,195893,1,8,0:0:0:0:
270,132,196090,6,0,P|199:143|176:159,1,86.2500016450882,2|0,3:2|0:0,0:0:0:0:
404,75,196485,2,0,P|392:24|359:-9,1,86.2500016450882,2|8,3:2|0:0,0:0:0:0:
352,186,196880,2,0,L|341:366,1,172.500003290176,2|2,3:2|0:0,0:0:0:0:
208,322,197472,1,8,0:0:0:0:
249,201,197669,1,0,0:0:0:0:
189,351,197867,6,0,P|148:356|45:320,1,129.375002467632,2|0,0:0|0:0,0:0:0:0:
10,259,198261,1,8,0:0:0:0:
138,133,198459,2,0,P|159:194|146:241,1,86.2500016450882,0|0,0:0|3:0,0:0:0:0:
245,304,198854,1,2,0:0:0:0:
338,229,199051,1,2,0:0:0:0:
467,150,199248,6,0,L|463:249,1,86.2500016450882,2|0,3:2|0:0,0:0:0:0:
331,86,199643,2,0,L|340:-3,1,86.2500016450882,2|0,3:2|0:0,0:0:0:0:
191,135,200038,2,0,L|203:238,1,86.2500016450882,2|0,3:2|0:0,0:0:0:0:
298,340,200433,1,8,0:0:0:0:
376,204,200630,1,8,0:0:0:0:
252,243,200827,1,8,0:0:0:0:
456,277,201025,6,0,P|478:198|425:97,1,172.500003290176,6|0,0:0|3:0,0:0:0:0:
361,43,201617,1,2,0:0:0:0:
271,188,201814,1,8,0:0:0:0:
355,145,202011,1,0,0:0:0:0:
444,107,202209,1,0,3:0:0:0:
268,82,202406,1,8,0:0:0:0:
175,239,202604,6,0,L|190:351,1,86.2500016450882,0|8,0:0|0:0,0:0:0:0:
369,231,202998,2,0,L|352:124,1,86.2500016450882,0|0,3:0|0:0,0:0:0:0:
151,74,203393,2,0,L|42:67,1,86.2500016450882,8|0,0:0|0:0,0:0:0:0:
355,145,203788,2,0,L|453:145,1,86.2500016450882,2|2,0:0|0:0,0:0:0:0:
186,209,204183,6,0,P|152:297|190:381,1,172.500003290176,2|0,0:0|0:0,0:0:0:0:
321,245,204775,2,0,P|257:281|245:312,1,86.2500016450882,0|2,3:0|0:0,0:0:0:0:
415,337,205169,2,0,P|355:327|324:339,1,86.2500016450882,0|2,3:0|0:0,0:0:0:0:
501,268,205564,6,0,L|476:69,1,172.500003290176,6|8,0:0|0:0,0:0:0:0:
325,41,206156,1,8,0:0:0:0:
304,203,206354,1,8,0:0:0:0:
406,180,206551,1,8,0:0:0:0:
253,116,206748,1,8,0:0:0:0:
424,87,206946,1,8,0:0:0:0:
424,87,207044,1,8,0:0:0:0:
424,87,207143,1,8,0:0:0:0:
206,34,207340,6,0,P|108:23|40:46,1,150,6|0,0:0|0:0,0:0:0:0:
126,130,207933,2,0,P|83:162|65:214,1,75,0|0,0:0|3:0,0:0:0:0:
162,236,208327,2,0,P|148:298|152:328,1,75,0|8,0:0|0:0,0:0:0:0:
300,266,208722,6,0,L|400:252,1,75,2|0,3:2|0:0,0:0:0:0:
492,180,209117,1,0,0:0:0:0:
446,316,209314,1,8,0:0:0:0:
407,145,209511,2,0,P|443:97|488:82,1,75,0|0,3:0|0:0,0:0:0:0:
359,243,209906,1,0,0:0:0:0:
315,84,210104,1,8,0:0:0:0:
407,145,210301,1,0,0:0:0:0:
249,205,210498,6,0,P|191:206|81:163,1,150,2|8,3:2|0:0,0:0:0:0:
189,102,211090,2,0,P|154:51|157:10,1,75,0|0,0:0|3:0,0:0:0:0:
294,62,211485,2,0,P|322:12|343:-9,1,75,0|8,0:0|0:0,0:0:0:0:
450,154,211880,6,0,L|444:246,1,75,2|0,3:2|0:0,0:0:0:0:
297,294,212275,2,0,L|306:188,1,75,0|8,3:0|0:0,0:0:0:0:
370,350,212669,2,0,P|299:380|213:339,1,150,0|0,3:2|0:0,0:0:0:0:
122,217,213261,1,8,0:0:0:0:
228,248,213459,1,0,0:0:0:0:
48,295,213656,6,0,B|26:257|26:257|54:121,1,150,2|8,3:2|0:0,0:0:0:0:
167,45,214248,1,0,0:0:0:0:
121,190,214446,1,0,3:0:0:0:
76,60,214643,1,0,0:0:0:0:
206,141,214840,1,8,0:0:0:0:
366,97,215038,6,0,P|351:26|281:2,1,150,2|0,0:0|0:0,0:0:0:0:
425,193,215630,2,0,L|524:190,1,75,8|0,0:0|0:0,0:0:0:0:
334,288,216025,2,0,P|329:343|346:384,1,75,0|0,3:0|0:0,0:0:0:0:
425,193,216419,2,0,P|430:138|413:97,1,75,8|0,0:0|0:0,0:0:0:0:
270,207,216814,6,0,B|230:234|230:234|115:191,1,150,2|8,3:2|0:0,0:0:0:0:
80,74,217406,2,0,P|125:116|129:138,1,75,0|0,3:0|0:0,0:0:0:0:
47,193,217801,2,0,P|2:151|-2:129,1,75,0|8,3:0|0:0,0:0:0:0:
119,6,218196,6,0,B|167:39|167:39|285:5,1,150,2|8,3:2|0:0,0:0:0:0:
360,7,218788,1,8,0:0:0:0:
467,110,218985,1,0,0:0:0:0:
320,83,219183,1,8,0:0:0:0:
451,20,219380,1,8,0:0:0:0:
381,149,219577,1,8,0:0:0:0:
361,160,219676,1,8,0:0:0:0:
343,171,219775,1,8,0:0:0:0:
326,182,219873,1,8,0:0:0:0:
311,193,219972,6,0,L|158:165,1,150,6|8,0:0|0:0,0:0:0:0:
52,93,220564,2,0,L|138:88,1,75,0|0,0:0|3:0,0:0:0:0:
77,222,220959,2,0,L|-9:227,1,75,0|8,0:0|0:0,0:0:0:0:
161,306,221354,6,0,P|165:351|146:398,1,75,2|0,3:2|0:0,0:0:0:0:
231,222,221748,2,0,P|288:255|302:286,1,75,0|0,3:0|0:0,0:0:0:0:
138,152,222143,2,0,L|149:-8,1,150,0|0,3:0|0:0,0:0:0:0:
300,51,222735,1,8,0:0:0:0:
230,131,222933,1,0,0:0:0:0:
386,7,223130,6,0,P|394:69|344:139,1,150,2|8,3:2|0:0,0:0:0:0:
405,252,223722,2,0,L|503:237,1,75,0|0,0:0|3:0,0:0:0:0:
343,347,224117,2,0,L|257:339,1,75,0|8,0:0|0:0,0:0:0:0:
164,241,224511,6,0,P|181:168|194:154,1,75,2|0,3:2|0:0,0:0:0:0:
317,127,224906,2,0,P|300:200|287:214,1,75,0|8,3:0|0:0,0:0:0:0:
368,32,225301,2,0,P|419:93|408:188,1,150,0|8,3:0|0:0,0:0:0:0:
298,234,225893,1,8,0:0:0:0:
317,127,226090,1,8,0:0:0:0:
380,288,226288,6,0,L|206:281,1,150,6|0,0:2|3:0,0:0:0:0:
141,319,226880,1,0,0:0:0:0:
157,209,227077,1,8,0:0:0:0:
45,254,227275,5,0,0:0:0:0:
54,200,227472,1,0,3:0:0:0:
64,146,227669,1,8,0:0:0:0:
210,55,227867,6,0,P|220:106|208:152,1,75,8|8,3:2|0:0,0:0:0:0:
315,152,228261,2,0,P|289:223|280:234,1,75,0|0,3:0|0:0,0:0:0:0:
375,286,228656,2,0,P|345:315|296:332,1,75,8|0,3:2|0:0,0:0:0:0:
154,293,229051,2,0,P|149:217|158:191,1,75,0|8,3:0|0:0,0:0:0:0:
243,180,229446,6,0,L|58:195,1,150,2|0,3:2|0:0,0:0:0:0:
28,85,230038,2,0,L|112:86,1,75,0|8,3:0|0:0,0:0:0:0:
238,17,230433,2,0,L|138:6,1,75,0|8,3:0|0:0,0:0:0:0:
359,79,230827,6,0,P|374:12|365:-25,1,75,6|0,0:0|0:0,0:0:0:0:
274,126,231222,1,8,0:0:0:0:
391,223,231419,1,8,0:0:0:0:
359,79,231617,1,2,3:2:0:0:
296,214,231814,1,8,0:0:0:0:
444,301,232011,1,8,0:0:0:0:
433,137,232209,1,8,0:0:0:0:
433,137,232308,1,8,0:0:0:0:
433,137,232406,1,8,0:0:0:0:
309,299,232604,6,0,B|266:324|266:324|155:281,1,150,6|0,0:0|0:0,0:0:0:0:
117,228,233196,6,0,P|133:298|106:369,2,134.999995880127,0|2|2,0:0|0:0|0:0,0:0:0:0:
256,192,234084,12,0,237340,0:0:0:0:
