osu file format v14

[General]
AudioFilename: audio.mp3
AudioLeadIn: 0
PreviewTime: 51405
Countdown: 0
SampleSet: Soft
StackLeniency: 0.7
Mode: 0
LetterboxInBreaks: 0
WidescreenStoryboard: 1

[Editor]
DistanceSpacing: 1.5
BeatDivisor: 4
GridSize: 4
TimelineZoom: 2.200003

[Metadata]
Title:KusouRyuseigun (Short ver.)
TitleUnicode:KusouRyuseigun (Short ver.)
Artist:40mp
ArtistUnicode:40mp
Creator:watermelonistnt
Version:Circles Meteors
Source:
Tags:
BeatmapID:1875711
BeatmapSetID:889886

[Difficulty]
HPDrainRate:5.5
CircleSize:4
OverallDifficulty:9
ApproachRate:9.3
SliderMultiplier:1.4
SliderTickRate:1

[Events]
//Background and Video events
0,0,"background.jpg",0,0
//Break Periods
//Storyboard Layer 0 (Background)
//Storyboard Layer 1 (Fail)
//Storyboard Layer 2 (Pass)
//Storyboard Layer 3 (Foreground)
//Storyboard Sound Samples

[TimingPoints]
593,375,4,2,0,65,1,0
2655,-200,4,2,0,65,0,0
3593,-100,4,2,0,65,0,0
4905,-166.666666666667,4,2,0,65,0,0
8093,-100,4,2,0,65,0,0
21593,-100,4,2,0,50,0,0
31905,-133.333333333333,4,2,0,50,0,0
32093,-100,4,2,0,50,0,0
33593,-100,4,2,0,60,0,0
45593,-133.333333333333,4,2,0,50,0,0
47843,-166.666666666667,4,2,0,50,0,0
48593,-133.333333333333,4,2,0,50,0,0
49718,-166.666666666667,4,2,0,50,0,0
51593,-66.6666666666667,4,2,0,65,0,0
54593,-100,4,2,0,65,0,0
55343,-100,4,2,0,65,0,0
57030,-100,4,2,0,5,0,0
57218,-100,4,2,0,65,0,0
59843,-100,4,2,0,70,0,0
60218,-100,4,2,0,75,0,0
60593,-100,4,2,0,80,0,1
69968,-100,4,2,0,70,0,0
71843,-100,4,2,0,80,0,1
72218,-100,4,2,0,85,0,1
72593,-66.6666666666667,4,2,0,90,0,1
75405,-58.8235294117647,4,2,0,90,0,1
78593,-100,4,2,0,80,0,1
84593,-100,4,2,0,60,0,0
85343,-100,4,2,0,60,0,0
97343,-200,4,2,0,60,0,0

[HitObjects]
125,98,405,5,0,0:0:0:0:
112,128,499,1,0,0:0:0:0:
101,157,593,2,0,P|149:197|171:204,1,70
299,111,968,1,0,0:0:0:0:
287,245,1155,2,0,P|244:304|182:334,1,140
105,252,1718,1,0,0:0:0:0:
341,234,1905,6,0,P|332:281|291:307,1,70
150,212,2280,1,0,0:0:0:0:
233,248,2468,1,0,0:0:0:0:
222,133,2655,2,0,P|282:114|326:117,1,105
340,189,3405,5,0,0:0:0:0:
353,220,3499,1,0,0:0:0:0:
366,254,3593,2,0,L|407:317,1,70
283,343,3968,1,0,0:0:0:0:
262,237,4155,1,0,0:0:0:0:
340,93,4530,2,0,L|426:114,1,70
409,244,4905,6,0,P|355:285|285:298,1,125.999996154785
191,190,5843,2,0,P|148:226|130:262,1,83.9999974365235
302,167,6593,1,0,0:0:0:0:
312,142,7343,5,8,0:0:0:0:
44,302,7530,1,8,0:0:0:0:
100,282,7905,5,0,0:0:0:0:
120,295,7999,1,0,0:0:0:0:
142,309,8093,1,4,0:0:0:0:
224,134,8280,1,0,0:0:0:0:
388,340,8468,1,4,0:0:0:0:
382,203,8655,1,0,0:0:0:0:
118,256,8843,1,4,0:0:0:0:
98,28,9030,1,0,0:0:0:0:
264,339,9218,1,4,0:0:0:0:
298,153,9405,2,0,L|372:180,1,70,0|4,0:0|0:0,0:0:0:0:
411,237,9780,5,0,0:0:0:0:
305,285,9968,1,0,0:0:0:0:
251,123,10155,1,0,0:0:0:0:
203,236,10343,2,0,P|253:256|291:248,1,70,4|0,0:0|0:0,0:0:0:0:
376,227,10718,1,0,0:0:0:0:
208,293,10905,5,0,0:0:0:0:
196,307,10999,1,0,0:0:0:0:
183,324,11093,1,4,0:0:0:0:
50,239,11280,1,0,0:0:0:0:
406,304,11468,1,4,0:0:0:0:
419,190,11655,1,0,0:0:0:0:
110,318,11843,1,4,0:0:0:0:
232,354,12030,1,0,0:0:0:0:
159,70,12218,1,4,0:0:0:0:
112,187,12405,2,0,P|153:214|243:233,1,140,0|4,0:0|0:0,0:0:0:0:
318,217,12968,5,0,0:0:0:0:
217,298,13155,1,0,0:0:0:0:
300,309,13343,1,4,0:0:0:0:
361,184,13530,2,0,P|417:197|439:232,1,70
397,301,13905,5,0,0:0:0:0:
376,317,13999,1,0,0:0:0:0:
355,330,14093,2,0,L|265:345,1,70,4|0,0:0|0:0,0:0:0:0:
55,192,14468,1,4,0:0:0:0:
175,110,14655,1,0,0:0:0:0:
128,378,14843,1,4,0:0:0:0:
411,71,15030,1,0,0:0:0:0:
420,262,15218,1,4,0:0:0:0:
298,217,15405,2,0,P|353:224|381:250,1,70,0|4,0:0|0:0,0:0:0:0:
414,302,15780,5,0,0:0:0:0:
336,257,15968,1,0,0:0:0:0:
386,110,16155,1,0,0:0:0:0:
267,202,16343,2,0,L|186:252,1,70,4|0,0:0|0:0,0:0:0:0:
113,286,16718,2,0,L|167:346,1,70
178,340,16999,1,0,0:0:0:0:
201,346,17093,1,4,0:0:0:0:
290,305,17280,5,0,0:0:0:0:
12,142,17468,1,4,0:0:0:0:
337,120,17655,1,0,0:0:0:0:
14,290,17843,1,4,0:0:0:0:
100,151,18030,1,0,0:0:0:0:
438,257,18218,1,4,0:0:0:0:
270,291,18405,1,0,0:0:0:0:
313,149,18593,6,0,P|251:123|173:136,1,140
95,218,19155,1,0,0:0:0:0:
399,210,19343,2,0,P|432:137|406:67,1,140
112,57,19905,1,0,0:0:0:0:
256,192,20093,12,0,21593,0:0:0:0:
196,91,22155,6,0,L|123:131,1,70
45,155,22530,1,0,0:0:0:0:
116,248,22718,2,0,L|205:226,1,70
414,232,23093,2,0,B|426:176|387:75,1,140
329,157,23655,1,0,0:0:0:0:
285,78,23843,1,0,0:0:0:0:
179,202,24030,1,0,0:0:0:0:
392,163,24218,1,0,0:0:0:0:
278,111,24593,5,0,0:0:0:0:
271,89,24968,5,0,0:0:0:0:
382,154,25155,2,0,L|456:128,1,70
411,260,25530,1,0,0:0:0:0:
245,303,25718,2,0,L|175:363,1,70
331,356,26093,2,0,P|372:327|398:234,1,140
331,174,26655,1,0,0:0:0:0:
335,79,26843,1,0,0:0:0:0:
195,203,27030,1,0,0:0:0:0:
361,233,27218,2,0,L|433:280,1,70
152,283,27593,5,0,0:0:0:0:
160,283,27968,1,0,0:0:0:0:
186,93,28155,1,0,0:0:0:0:
193,99,28249,1,0,0:0:0:0:
200,102,28343,1,0,0:0:0:0:
275,191,28530,1,0,0:0:0:0:
362,149,28718,2,0,L|291:84,1,70
219,181,29093,2,0,P|272:202|339:260,1,140
138,242,29655,1,0,0:0:0:0:
180,158,30030,5,0,0:0:0:0:
119,268,30218,1,0,0:0:0:0:
212,340,30405,1,0,0:0:0:0:
379,202,30593,2,0,L|493:294,1,140
384,66,31155,2,0,L|302:104,1,70
126,77,31530,1,0,0:0:0:0:
230,258,31718,1,0,0:0:0:0:
244,121,31905,1,0,0:0:0:0:
128,172,32093,6,0,P|111:227|149:303,1,140
315,201,32655,1,0,0:0:0:0:
414,317,32843,2,0,P|384:260|422:180,1,140
34,215,33593,5,0,0:0:0:0:
295,163,33780,1,0,0:0:0:0:
257,268,33968,2,0,L|351:298,1,70,4|0,0:0|0:0,0:0:0:0:
471,64,34343,1,0,0:0:0:0:
459,178,34530,1,0,0:0:0:0:
333,122,34718,2,0,P|257:123|190:157,1,140,4|0,0:0|0:0,0:0:0:0:
155,243,35280,1,0,0:0:0:0:
474,240,35468,1,4,0:0:0:0:
358,315,35655,1,0,0:0:0:0:
305,170,35843,6,0,L|282:241,1,70
188,199,36218,2,0,P|171:166|201:113,1,70,4|0,0:0|0:0,0:0:0:0:
290,98,36593,2,0,P|331:126|387:223,1,140,0|4,0:0|0:0,0:0:0:0:
216,294,37155,1,0,0:0:0:0:
211,302,37249,1,0,0:0:0:0:
205,310,37343,2,0,L|116:355,1,70
206,76,37718,1,4,0:0:0:0:
238,180,37905,2,0,L|378:195,1,140
444,98,38468,6,0,P|411:47|376:34,1,70,4|0,0:0|0:0,0:0:0:0:
81,96,38843,1,0,0:0:0:0:
62,225,39030,2,0,L|120:178,1,70,0|4,0:0|0:0,0:0:0:0:
126,340,39405,1,0,0:0:0:0:
243,70,39593,2,0,L|338:175,1,140,0|4,0:0|0:0,0:0:0:0:
457,200,40155,5,0,0:0:0:0:
471,220,40249,1,0,0:0:0:0:
485,241,40343,2,0,L|430:294,1,70
148,189,40718,1,4,0:0:0:0:
240,107,40905,2,0,L|378:50,1,140
424,228,41468,1,4,0:0:0:0:
289,272,41655,1,0,0:0:0:0:
266,343,41843,6,0,L|365:318,1,70
501,154,42218,1,4,0:0:0:0:
328,86,42405,1,0,0:0:0:0:
300,100,42499,1,0,0:0:0:0:
274,113,42593,2,0,P|214:157|174:227,1,140,0|4,0:0|0:0,0:0:0:0:
247,303,43155,1,0,0:0:0:0:
324,138,43343,2,0,P|384:113|469:107,1,140,0|4,0:0|0:0,0:0:0:0:
403,236,43905,1,0,0:0:0:0:
197,135,44093,2,0,P|166:171|160:215,1,70
321,270,44655,6,0,L|328:186,1,70
243,113,45030,1,0,0:0:0:0:
126,239,45218,2,0,L|96:147,1,70
157,67,45593,2,0,P|254:57|276:63,1,105.000004005432
356,242,46343,2,0,P|309:305|264:313,1,105.000004005432
143,161,47093,2,0,L|181:263,1,105.000004005432
298,157,47655,1,0,0:0:0:0:
386,212,47843,6,0,L|357:259,1,41.9999987182618
291,132,48218,2,0,L|258:177,1,41.9999987182618
134,58,48593,2,0,P|92:103|105:201,1,157.500006008148
226,164,49343,1,0,0:0:0:0:
361,193,49530,2,0,L|418:180,1,52.5000020027161
307,66,49905,2,0,L|301:112,1,41.9999987182618
175,270,50655,5,0,0:0:0:0:
267,155,50843,2,0,L|316:176,1,41.9999987182618
122,139,51218,2,0,L|125:193,1,41.9999987182618
234,283,51593,6,0,P|293:301|363:284,1,105.000004005432,4|0,0:0|0:0,0:0:0:0:
444,115,51968,1,4,0:0:0:0:
301,166,52155,2,0,P|219:140|181:136,1,105.000004005432,0|4,0:0|0:0,0:0:0:0:
168,263,52530,1,0,0:0:0:0:
299,40,52718,1,4,0:0:0:0:
347,125,52905,5,0,0:0:0:0:
362,134,52999,1,0,0:0:0:0:
379,145,53093,1,4,0:0:0:0:
161,337,53280,1,0,0:0:0:0:
157,169,53468,1,4,0:0:0:0:
240,236,53655,2,0,P|307:237|346:248,1,105.000004005432,0|4,0:0|0:0,0:0:0:0:
473,324,54030,1,0,0:0:0:0:
379,342,54218,1,4,0:0:0:0:
348,49,54405,5,0,0:0:0:0:
331,65,54499,1,0,0:0:0:0:
312,83,54593,2,0,P|251:159|238:222,1,140,4|0,0:0|0:0,0:0:0:0:
447,149,55343,2,0,P|356:70|330:59,1,140
202,128,55905,1,0,0:0:0:0:
371,176,56093,6,0,P|374:256|327:293,1,140
141,270,56655,1,0,0:0:0:0:
189,115,56843,1,0,0:0:0:0:
330,208,57030,2,0,L|242:262,1,70
211,173,57405,1,0,0:0:0:0:
242,90,57593,5,4,0:0:0:0:
78,232,57780,1,0,0:0:0:0:
425,182,57968,1,0,0:0:0:0:
210,91,58155,5,4,0:0:0:0:
404,246,58343,1,0,0:0:0:0:
64,308,58530,1,0,0:0:0:0:
326,109,58718,5,4,0:0:0:0:
204,384,58905,1,0,0:0:0:0:
56,205,59093,5,2,0:0:0:0:
422,50,59280,5,2,0:0:0:0:
141,75,60593,6,0,L|226:73,1,70
263,249,60968,2,0,L|357:243,1,70,4|0,0:0|0:0,0:0:0:0:
352,104,61343,1,0,0:0:0:0:
201,122,61530,1,0,0:0:0:0:
436,241,61718,1,4,0:0:0:0:
275,306,61905,2,0,P|206:235|187:169,1,140
339,107,62468,2,0,L|424:93,1,70,4|0,0:0|0:0,0:0:0:0:
195,55,62843,5,0,0:0:0:0:
120,171,63030,1,0,0:0:0:0:
339,230,63218,1,4,0:0:0:0:
386,329,63405,1,0,0:0:0:0:
277,304,63593,2,0,P|181:291|144:257,1,140,0|4,0:0|0:0,0:0:0:0:
190,137,64155,1,0,0:0:0:0:
435,333,64343,1,0,0:0:0:0:
473,230,64530,2,0,L|428:155,1,70,0|4,0:0|0:0,0:0:0:0:
167,137,64905,6,0,L|139:275,1,140
255,174,65468,1,4,0:0:0:0:
112,170,65655,1,0,0:0:0:0:
272,305,65843,2,0,L|355:280,1,70,4|0,0:0|0:0,0:0:0:0:
396,67,66218,2,0,L|333:22,1,70,4|0,0:0|0:0,0:0:0:0:
243,36,66593,6,0,L|152:38,1,70,4|0,0:0|0:0,0:0:0:0:
26,324,66968,1,0,0:0:0:0:
15,183,67155,1,0,0:0:0:0:
221,189,67343,1,4,0:0:0:0:
322,104,67530,2,0,L|396:137,1,70
132,168,67905,2,0,L|81:95,1,70,0|4,0:0|0:0,0:0:0:0:
258,24,68280,1,0,0:0:0:0:
321,311,68468,1,0,0:0:0:0:
422,228,68655,2,0,L|490:276,1,70,0|4,0:0|0:0,0:0:0:0:
236,108,69030,2,0,L|151:90,1,70,0|4,0:0|0:0,0:0:0:0:
146,220,69405,5,0,0:0:0:0:
331,147,69593,1,4,0:0:0:0:
260,52,69780,2,0,L|345:56,1,70
188,315,70155,1,0,0:0:0:0:
247,0,70530,1,0,0:0:0:0:
512,282,70905,1,0,0:0:0:0:
489,229,71280,5,0,0:0:0:0:
171,355,71468,1,0,0:0:0:0:
179,246,71655,1,0,0:0:0:0:
365,277,71843,1,4,0:0:0:0:
389,255,71936,1,0,0:0:0:0:
411,230,72030,1,0,0:0:0:0:
426,204,72124,1,0,0:0:0:0:
432,175,72218,1,4,0:0:0:0:
434,143,72311,1,0,0:0:0:0:
426,110,72405,1,0,0:0:0:0:
208,74,72593,5,4,0:0:0:0:
284,185,72780,1,0,0:0:0:0:
82,316,72968,1,0,0:0:0:0:
115,190,73155,1,0,0:0:0:0:
442,185,73343,1,4,0:0:0:0:
343,276,73530,1,0,0:0:0:0:
268,14,73718,2,0,P|201:21|130:62,1,105.000004005432
436,293,74093,6,0,P|483:237|481:190,1,105.000004005432,4|0,0:0|0:0,0:0:0:0:
80,113,74468,1,0,0:0:0:0:
65,223,74655,2,0,B|28:306|28:306|58:308,1,105.000004005432,0|4,0:0|0:0,0:0:0:0:
268,324,75030,2,0,B|338:209|338:209|250:207,1,210.000008010865
67,234,75593,5,0,0:0:0:0:
47,226,75686,1,0,0:0:0:0:
30,218,75780,1,0,0:0:0:0:
376,263,75968,1,0,0:0:0:0:
78,24,76155,1,0,0:0:0:0:
78,24,76530,1,0,0:0:0:0:
178,371,76718,1,0,0:0:0:0:
300,54,76905,5,0,0:0:0:0:
311,37,76999,1,0,0:0:0:0:
323,21,77093,1,0,0:0:0:0:
500,265,77280,1,0,0:0:0:0:
48,131,77468,1,4,0:0:0:0:
250,124,77655,1,0,0:0:0:0:
270,125,77749,1,0,0:0:0:0:
293,124,77843,1,4,0:0:0:0:
189,257,78030,5,0,0:0:0:0:
482,295,78218,1,4,0:0:0:0:
122,0,78405,1,0,0:0:0:0:
435,113,78593,1,0,0:0:0:0:
450,155,78686,1,0,0:0:0:0:
451,205,78780,1,0,0:0:0:0:
440,244,78874,1,0,0:0:0:0:
415,279,78968,1,0,0:0:0:0:
308,267,79155,2,0,B|252:244|252:244|214:256|214:256|158:232,1,140
118,121,79718,1,4,0:0:0:0:
217,143,80093,5,0,0:0:0:0:
107,294,80280,1,0,0:0:0:0:
442,145,80468,1,0,0:0:0:0:
104,79,80655,1,0,0:0:0:0:
95,90,80749,1,0,0:0:0:0:
86,102,80843,1,0,0:0:0:0:
119,263,81030,1,0,0:0:0:0:
432,281,81218,2,0,B|447:226|389:203,1,70,4|0,0:0|0:0,0:0:0:0:
139,194,81593,6,0,B|135:261|230:299,1,140,4|4,0:0|0:0,0:0:0:0:
399,208,82155,1,0,0:0:0:0:
218,114,82343,2,0,P|151:112|68:137,1,140,4|0,0:0|0:0,0:0:0:0:
327,15,82905,1,0,0:0:0:0:
471,130,83093,5,6,0:0:0:0:
0,135,83280,1,2,0:0:0:0:
321,202,84405,5,0,0:0:0:0:
309,232,84499,1,0,0:0:0:0:
296,258,84593,2,0,P|261:276|152:283,1,140
424,225,85155,2,0,L|454:298,1,70
271,273,85530,1,0,0:0:0:0:
320,146,85718,2,0,L|243:114,2,70,4|0|0,0:0|0:0|0:0,0:0:0:0:
180,242,86280,2,0,L|257:296,1,70,0|4,0:0|0:0,0:0:0:0:
188,145,86655,1,0,0:0:0:0:
116,277,86843,5,0,0:0:0:0:
271,206,87030,1,0,0:0:0:0:
156,78,87218,2,0,P|100:116|88:146,1,70,4|0,0:0|0:0,0:0:0:0:
87,133,87499,1,0,0:0:0:0:
75,162,87593,1,0,0:0:0:0:
192,273,87780,1,0,0:0:0:0:
256,114,87968,2,0,L|329:112,1,70,4|0,0:0|0:0,0:0:0:0:
295,273,88343,1,0,0:0:0:0:
161,163,88530,1,0,0:0:0:0:
174,282,88718,1,4,0:0:0:0:
361,133,88905,6,0,L|439:271,1,140
325,303,89468,1,4,0:0:0:0:
336,137,89655,1,0,0:0:0:0:
148,198,89843,2,0,L|76:253,1,70,4|0,0:0|0:0,0:0:0:0:
270,325,90218,1,4,0:0:0:0:
410,137,90405,5,0,0:0:0:0:
428,150,90499,1,0,0:0:0:0:
449,166,90593,2,0,L|449:252,1,70
276,185,90968,1,4,0:0:0:0:
307,326,91155,2,0,L|152:376,1,140
344,117,91718,1,4,0:0:0:0:
189,55,91905,6,0,L|120:115,1,70
294,234,92280,1,0,0:0:0:0:
164,297,92468,1,4,0:0:0:0:
344,342,92655,1,0,0:0:0:0:
312,101,92843,2,0,L|296:196,1,70,4|0,0:0|0:0,0:0:0:0:
181,191,93218,1,4,0:0:0:0:
352,278,93405,5,0,0:0:0:0:
387,256,93499,1,0,0:0:0:0:
423,231,93593,1,0,0:0:0:0:
258,55,93780,1,0,0:0:0:0:
202,199,93968,1,4,0:0:0:0:
421,88,94155,1,0,0:0:0:0:
395,261,94343,2,0,L|449:332,1,70
481,129,94718,5,4,0:0:0:0:
73,311,94905,1,0,0:0:0:0:
80,161,95093,5,0,0:0:0:0:
423,355,95280,1,0,0:0:0:0:
339,24,95468,1,0,0:0:0:0:
232,136,95655,1,0,0:0:0:0:
478,236,95843,5,0,0:0:0:0:
119,381,96030,1,0,0:0:0:0:
407,52,96218,1,0,0:0:0:0:
216,27,96405,1,0,0:0:0:0:
279,119,96593,5,0,0:0:0:0:
296,133,96686,1,0,0:0:0:0:
312,149,96780,1,0,0:0:0:0:
50,332,96968,1,0,0:0:0:0:
302,231,97343,2,0,L|238:283,1,70
191,339,97905,1,0,0:0:0:0:
109,123,98093,5,2,0:0:0:0:
494,318,98280,1,2,0:0:0:0:
