osu file format v14

[General]
AudioFilename: Yume+chizu.mp3
AudioLeadIn: 0
PreviewTime: 56663
Countdown: 0
SampleSet: Soft
StackLeniency: 0.7
Mode: 0
LetterboxInBreaks: 0
WidescreenStoryboard: 1

[Editor]
DistanceSpacing: 1.5
BeatDivisor: 4
GridSize: 4
TimelineZoom: 3.599999

[Metadata]
Title:Yume chizu
TitleUnicode:夢地図
Artist:40mP feat.yuikonnu
ArtistUnicode:40㍍P feat.ゆいこんぬ
Creator:_kotachi_
Version:Hard
Source:40㍍P
Tags:ゆいこんぬ yuikonnu _kotachi_ Hatsumin Akitoshi Yasaija_714 koyomiya
BeatmapID:831569
BeatmapSetID:377707

[Difficulty]
HPDrainRate:5
CircleSize:4
OverallDifficulty:5.3
ApproachRate:8
SliderMultiplier:1.5
SliderTickRate:2

[Events]
//Background and Video events
0,0,"kimyou634-1.jpg",0,0
Video,-1,"optos.flv"
//Break Periods
2,136721,138498
2,144702,149407
//Storyboard Layer 0 (Background)
//Storyboard Layer 1 (Fail)
//Storyboard Layer 2 (Pass)
//Storyboard Layer 3 (Foreground)
//Storyboard Sound Samples

[TimingPoints]
1521,340.909090909091,4,2,1,50,1,0
24702,-100,4,2,1,60,0,0
27259,-100,4,2,2,90,0,0
27344,-100,4,2,1,60,0,0
29986,-100,4,2,2,90,0,0
30072,-100,4,2,1,60,0,0
38168,-133.333333333333,4,2,2,90,0,0
38253,-100,4,2,1,60,0,0
40896,-100,4,2,2,90,0,0
40981,-100,4,2,1,60,0,0
44986,-100,4,2,1,60,0,0
45072,-100,4,2,1,50,0,0
46350,-100,4,2,1,40,0,0
46521,-100,4,2,1,60,0,0
51975,-100,4,2,1,60,0,0
54702,-100,4,2,1,50,0,0
55043,-100,4,2,1,65,0,0
55384,-100,4,2,1,80,0,0
55725,-100,4,2,1,85,0,0
56066,-100,4,2,1,100,0,0
56748,-100,4,2,1,50,0,0
57430,-100,4,2,1,70,0,1
66975,-100,4,2,1,70,0,0
67827,-100,4,2,1,50,0,0
68339,-100,4,2,1,70,0,1
79248,-100,4,2,1,70,0,0
111890,-100,4,2,1,70,0,0
111975,-100,4,2,1,70,0,1
117430,-100,4,2,1,70,0,0
122799,-100,4,2,1,70,0,0
122884,-100,4,2,1,70,0,1
128339,-100,4,2,1,70,0,0
131407,-100,4,2,1,50,0,0
131748,-100,4,2,1,70,0,0
133964,-200,4,2,1,70,0,0
135157,-200,4,2,1,50,0,0
135327,-200,4,2,1,45,0,0
135498,-200,4,2,1,40,0,0
135668,-200,4,2,1,35,0,0
135839,-200,4,2,1,30,0,0
136009,-200,4,2,1,25,0,0
136180,-200,4,2,1,5,0,0
136521,-200,4,2,1,70,0,0
137884,-83.3333333333333,4,2,1,70,0,0
143339,-200,4,2,1,70,0,0
144021,-133.333333333333,4,2,2,70,0,0
144702,-133.333333333333,4,2,2,50,0,0
150157,-111.111111111111,4,2,1,50,0,0
154077,-100,4,2,1,50,0,0
155611,-100,4,2,1,70,0,1
165839,-100,4,2,1,70,0,0
166521,-100,4,2,1,80,0,1
174702,-133.333333333333,4,2,1,80,0,0
177259,-100,4,2,1,80,0,1
183225,-100,4,2,1,50,0,1
184248,-83.3333333333333,4,2,1,80,0,1
185441,-133.333333333333,4,2,1,80,0,1
186805,-100,4,2,1,80,0,0

[Colours]
Combo1 : 0,255,0
Combo2 : 255,0,0
Combo3 : 0,0,255
Combo4 : 255,255,0

[HitObjects]
308,192,2543,6,0,L|308:272,1,75,4|0,0:3|0:0,0:0:0:0:
220,224,2884,2,0,B|196:192|148:188|148:188|132:144|152:112,1,150,4|0,0:0|0:0,0:0:0:0:
212,32,3396,2,0,P|228:104|360:112,1,225
280,288,4418,5,2,0:0:0:0:
220,224,4589,1,4,0:3:0:0:
360,248,4930,5,8,0:0:0:0:
204,140,5271,1,2,0:0:0:0:
280,288,5611,2,0,B|232:288|232:288|188:308|188:308|132:308,1,150,4|0,0:0|0:0,0:0:0:0:
120,224,6123,2,0,P|180:224|180:84,1,225
344,240,7146,5,2,0:0:0:0:
344,144,7316,1,4,0:3:0:0:
228,204,7657,2,8,L|160:244,2,75,8|8|2,0:0|0:0|0:0,0:0:0:0:
344,144,8339,5,4,0:0:0:0:
344,144,9702,5,4,0:0:0:0:
344,144,11066,5,8,0:0:0:0:
320,240,11407,2,8,L|308:320,1,75
224,252,11748,2,8,L|236:172,1,75
128,264,12089,1,8,0:0:0:0:
128,264,12259,6,0,P|104:216|144:104,1,150,0|8,0:0|0:0,0:0:0:0:
235,177,12771,2,0,L|311:173,1,75,8|2,0:0|0:0,0:0:0:0:
152,128,13111,2,0,L|76:132,1,75,8|8,0:0|0:0,0:0:0:0:
144,220,13452,2,8,L|148:280,2,37.5
228,264,13793,6,0,P|292:280|364:220,2,150,4|8|2,0:0|0:0|0:0,0:0:0:0:
216,172,14646,2,0,P|248:148|268:112,1,75,2|8,0:0|0:0,0:0:0:0:
300,36,14986,2,0,L|324:196,1,150,2|2,0:0|0:0,0:0:0:0:
276,264,15498,2,0,P|240:288|196:296,1,75,8|0,0:0|0:0,0:0:0:0:
368,312,15839,2,0,L|448:308,2,75,2|2|8,0:0|0:0|0:0,0:0:0:0:
400,228,16350,1,0,0:0:0:0:
360,152,16521,6,0,B|324:72|284:128|252:52,2,150,4|8|2,0:0|0:0|0:0,0:0:0:0:
308,224,17373,2,0,P|268:224|216:212,1,75,2|8,0:0|0:0,0:0:0:0:
212,136,17714,2,0,P|168:168|180:276,1,150,2|2,0:0|0:0,0:0:0:0:
236,304,18225,2,0,P|272:328|312:348,1,75,8|0,0:0|0:0,0:0:0:0:
392,340,18566,2,0,P|425:322|456:301,2,75,2|2|8,0:0|0:0|0:0,0:0:0:0:
344,272,19077,6,0,B|360:232|344:200|344:200|324:160|344:120,1,150,2|2,0:0|0:0,0:0:0:0:
408,88,19589,2,0,P|360:52|272:96,2,150,8|2|8,0:0|0:0|0:0,0:0:0:0:
264,152,20611,6,0,P|198:181|137:143,1,150,2|8,0:0|0:0,0:0:0:0:
192,220,21123,1,0,0:0:0:0:
280,248,21293,1,2,0:0:0:0:
348,192,21464,2,0,L|432:216,1,75,2|8,0:0|0:0,0:0:0:0:
364,276,21805,6,0,B|344:312|344:348|344:348|308:368|256:368,1,150,4|2,0:0|0:0,0:0:0:0:
208,304,22316,2,0,P|168:300|68:348,1,150,8|2,0:0|0:0,0:0:0:0:
116,268,22827,2,0,P|116:228|132:188,1,75,2|8,0:0|0:0,0:0:0:0:
216,172,23168,6,0,P|276:180|352:124,1,150,6|8,0:0|0:0,0:0:0:0:
408,200,23680,2,0,L|488:196,1,75,8|2,0:0|0:0,0:0:0:0:
340,268,24021,2,0,L|260:264,1,75,8|8,0:0|0:0,0:0:0:0:
436,296,24361,1,8,0:0:0:0:
436,296,24447,1,8,0:0:0:0:
436,296,24532,1,8,0:0:0:0:
356,356,24702,6,0,L|200:352,1,150,4|2,0:0|0:0,0:0:0:0:
180,272,25214,2,0,P|184:224|176:188,2,75,0|2|0,0:0|0:0|0:0,0:0:0:0:
124,340,25725,2,0,P|89:354|52:359,1,75,2|0,0:0|0:0,0:0:0:0:
92,260,26066,2,0,L|100:84,1,150
156,48,26577,2,0,P|193:44|228:33,1,75
320,96,26918,2,0,P|284:107|247:110,2,75,0|2|2,0:0|0:0|0:0,0:0:0:0:
364,24,27430,6,0,P|404:76|376:160,1,150,2|2,0:0|0:0,0:0:0:0:
448,84,27941,2,0,L|532:68,2,75,0|2|0,0:0|0:0|0:0,0:0:0:0:
383,152,28452,2,0,L|363:228,1,75,2|0,0:0|0:0,0:0:0:0:
472,176,28793,2,0,P|472:220|408:312,1,150,2|2,0:0|0:0,0:0:0:0:
328,304,29305,1,0,0:0:0:0:
276,224,29475,2,0,L|256:152,1,75,2|0,0:0|0:0,0:0:0:0:
328,304,29816,2,0,L|348:376,1,75,2|2,0:0|0:0,0:0:0:0:
240,304,30157,6,0,P|200:308|100:248,1,150,2|2,0:0|0:0,0:0:0:0:
112,172,30668,1,0,0:0:0:0:
188,224,30839,2,0,P|228:228|272:224,1,75,2|0,0:0|0:0,0:0:0:0:
364,144,31180,2,0,P|324:148|280:144,1,75,2|0,0:0|0:0,0:0:0:0:
348,228,31521,5,2,0:0:0:0:
304,300,31691,2,0,P|308:344|304:392,1,75,0|2,0:0|0:0,0:0:0:0:
348,228,32032,2,0,P|344:184|348:136,1,75
388,300,32373,2,0,P|425:301|462:297,2,75,0|2|0,0:0|0:0|0:0,0:0:0:0:
304,300,32884,6,0,B|232:280|232:336|152:308,1,150,2|2,0:0|0:0,0:0:0:0:
84,272,33396,1,0,0:0:0:0:
168,232,33566,2,0,P|192:204|204:160,1,75,2|0,0:0|0:0,0:0:0:0:
132,128,33907,1,2,0:0:0:0:
56,108,34077,2,0,P|100:84|216:60,1,150
272,112,34589,1,2,0:0:0:0:
288,192,34759,2,0,P|280:236|264:276,1,75,0|2,0:0|0:0,0:0:0:0:
272,112,35100,2,0,P|324:108|348:4,1,150
352,132,35611,6,0,B|412:192|352:208|416:280,1,150,4|2,0:0|0:0,0:0:0:0:
340,320,36123,1,0,0:0:0:0:
256,348,36293,2,0,P|208:352|164:340,1,75,2|0,0:0|0:0,0:0:0:0:
124,264,36634,2,0,P|172:260|216:272,1,75,2|0,0:0|0:0,0:0:0:0:
92,352,36975,6,0,P|56:312|32:216,1,150,2|2,0:0|0:0,0:0:0:0:
76,144,37486,1,0,0:0:0:0:
152,184,37657,2,0,P|224:160|252:84,1,150,2|2,0:0|0:0,0:0:0:0:
252,188,38168,1,2,0:0:0:0:
324,244,38339,6,0,P|314:280|296:313,1,75,2|0,0:0|0:0,0:0:0:0:
336,160,38680,1,2,0:0:0:0:
412,120,38850,1,0,0:0:0:0:
476,176,39021,2,0,B|488:232|488:232|448:348,1,150,2|2,0:0|0:0,0:0:0:0:
376,348,39532,1,0,0:0:0:0:
308,292,39702,2,0,P|264:284|148:316,1,150,2|2,0:0|0:0,0:0:0:0:
332,148,40384,2,0,P|288:156|172:124,1,150,2|2,0:0|0:0,0:0:0:0:
104,152,40896,1,2,0:0:0:0:
128,68,41066,6,0,P|172:60|288:92,1,150,2|2,0:0|0:0,0:0:0:0:
336,144,41577,1,0,0:0:0:0:
260,200,41748,2,0,P|256:244|244:284,2,75,2|0|2,0:0|0:0|0:0,0:0:0:0:
344,232,42259,2,0,B|360:272|340:304|340:304|376:328|376:372,1,150
436,280,42771,2,0,L|512:264,1,75,2|0,0:0|0:0,0:0:0:0:
344,304,43111,2,0,L|270:319,2,75,2|0|2,0:0|0:0|0:0,0:0:0:0:
364,216,43623,1,0,0:0:0:0:
320,144,43793,6,0,B|296:112|300:80|300:80|276:52|224:56,1,150,2|0,0:0|0:0,0:0:0:0:
332,64,44305,2,0,L|416:56,1,75,0|2,0:0|0:0,0:0:0:0:
476,168,44646,2,0,L|392:160,1,75,0|2,0:0|0:0,0:0:0:0:
328,232,44986,2,0,P|388:232|424:308,1,150,2|2,0:0|0:0,0:0:0:0:
320,312,45498,2,0,L|304:392,1,75,8|0,0:0|0:0,0:0:0:0:
328,232,45839,2,0,L|344:152,1,75,2|8,0:0|0:0,0:0:0:0:
248,264,46180,1,8,0:0:0:0:
176,220,46350,5,8,0:0:0:0:
176,220,46435,1,8,0:0:0:0:
176,220,46521,2,0,P|140:188|144:88,2,150,4|2|8,0:0|0:0|0:0,0:0:0:0:
252,176,47543,2,0,L|328:112,1,75,2|8,0:0|0:0,0:0:0:0:
420,148,47884,2,0,L|344:212,2,75,2|8|2,0:0|0:0|0:0,0:0:0:0:
372,348,48566,1,8,0:0:0:0:
224,296,48907,1,0,0:0:0:0:
224,140,49248,6,0,B|128:100|128:100|108:48,2,150,4|2|8,0:0|0:0|0:0,0:0:0:0:
288,216,50271,2,0,L|380:208,1,75,2|8,0:0|0:0,0:0:0:0:
384,128,50611,2,0,L|476:120,1,75,2|8,0:0|0:0,0:0:0:0:
468,216,50952,1,0,0:0:0:0:
356,320,51293,1,8,0:0:0:0:
208,272,51634,1,8,0:0:0:0:
184,196,51805,1,8,0:0:0:0:
184,196,51890,1,8,0:0:0:0:
184,196,51975,1,4,0:0:0:0:
152,104,52316,6,0,L|228:68,1,75,8|0,0:0|0:0,0:0:0:0:
308,112,52657,2,0,L|375:144,1,75,2|0,0:0|0:0,0:0:0:0:
380,240,52998,1,8,0:0:0:0:
320,332,53339,6,0,P|245:328|168:328,1,150,2|8,0:0|0:0,0:0:0:0:
132,232,53850,2,0,P|206:235|284:236,1,150,2|2,0:0|0:0,0:0:0:0:
388,220,54361,1,8,0:0:0:0:
388,220,54702,6,0,P|408:256|416:300,1,75,4|0,0:0|0:0,0:0:0:0:
329,305,55043,2,0,P|318:344|292:381,1,75,8|8,0:0|0:0,0:0:0:0:
228,324,55384,2,8,P|192:344|148:352,1,75
142,265,55725,2,8,P|103:254|66:228,1,75
123,164,56066,2,8,P|104:128|95:83,2,75
264,188,57430,6,0,B|348:160|328:232|424:196,2,150,4|8|2,0:0|0:0|0:0,0:0:0:0:
184,240,58282,2,0,L|104:272,1,75,2|8,0:0|0:0,0:0:0:0:
44,208,58623,1,2,0:0:0:0:
44,208,58793,2,0,L|56:120,1,75,0|2,0:0|0:0,0:0:0:0:
136,100,59134,2,0,L|205:155,1,75,8|2,0:0|0:0,0:0:0:0:
288,232,59475,2,0,L|213:228,1,75,2|0,0:0|0:0,0:0:0:0:
164,328,59816,2,0,L|256:332,1,75,8|0,0:0|0:0,0:0:0:0:
320,344,60157,6,0,B|396:344|396:344|452:292,2,150,4|8|2,0:0|0:0|0:0,0:0:0:0:
244,288,61009,2,0,L|172:248,1,75,2|8,0:0|0:0,0:0:0:0:
96,204,61350,1,2,0:0:0:0:
284,212,61691,1,2,0:0:0:0:
284,212,61861,2,0,L|368:200,1,75,8|0,0:0|0:0,0:0:0:0:
424,284,62202,2,0,L|340:296,1,75,2|2,0:0|0:0,0:0:0:0:
256,312,62543,2,0,L|181:301,1,75,8|0,0:0|0:0,0:0:0:0:
100,256,62884,6,0,B|120:212|96:180|96:180|112:136|172:128,2,150,4|8|2,0:0|0:0|0:0,0:0:0:0:
232,152,63907,1,8,0:0:0:0:
232,152,64077,2,0,L|328:144,1,75,2|0,0:0|0:0,0:0:0:0:
392,188,64418,2,0,L|488:180,2,75,2|8|0,0:0|0:0|0:0,0:0:0:0:
316,232,64930,2,0,L|208:244,1,75
392,188,65271,2,0,L|466:179,1,75,8|0,0:0|0:0,0:0:0:0:
440,256,65611,6,0,P|424:300|332:328,2,150,4|8|0,0:0|0:0|0:0,0:0:0:0:
316,144,66634,1,8,0:0:0:0:
316,144,66805,2,0,P|244:144|160:192,1,150,4|8,0:0|0:0,0:0:0:0:
88,156,67316,2,0,L|104:256,1,75,8|0,0:0|0:0,0:0:0:0:
184,264,67657,2,8,L|168:364,1,75
256,216,67998,1,8,0:0:0:0:
256,216,68083,1,8,0:0:0:0:
256,216,68168,1,8,0:0:0:0:
260,312,68339,6,0,P|312:312|360:304,1,75,4|0,0:0|0:0,0:0:0:0:
400,240,68680,2,0,P|437:236|474:237,1,75,8|0,0:0|0:0,0:0:0:0:
512,160,69021,2,0,P|512:112|420:56,1,150,2|8,0:0|0:0,0:0:0:0:
420,144,69532,2,0,L|264:136,1,150,2|2,0:0|0:0,0:0:0:0:
184,68,70043,2,0,L|176:160,1,75,8|0,0:0|0:0,0:0:0:0:
232,220,70384,2,0,L|208:296,1,75,2|2,0:0|0:0,0:0:0:0:
296,336,70725,2,0,L|392:316,1,75,8|0,0:0|0:0,0:0:0:0:
424,236,71066,6,0,B|432:176|432:176|416:152|416:152|424:84,2,150,4|8|2,0:0|0:0|0:0,0:0:0:0:
288,244,72089,1,8,0:0:0:0:
288,244,72259,2,0,B|216:216|216:288|120:252,1,150,2|2,0:0|0:0,0:0:0:0:
56,224,72771,2,0,L|64:128,1,75,8|0,0:0|0:0,0:0:0:0:
148,108,73111,2,0,L|152:188,2,75,2|2|8,0:0|0:0|0:0,0:0:0:0:
144,20,73623,6,0,P|228:52|248:112,1,150,2|2,0:0|0:0,0:0:0:0:
248,192,74134,2,0,P|214:256|144:275,1,150,8|2,0:0|0:0,0:0:0:0:
72,228,74646,2,0,L|48:308,2,75,2|8|2,0:0|0:0|0:0,0:0:0:0:
144,275,75157,2,0,B|228:252|212:328|312:287,1,150,2|8,0:0|0:0,0:0:0:0:
344,224,75668,1,0,0:0:0:0:
344,224,75839,2,0,L|336:132,2,75,2|2|8,0:0|0:0|0:0,0:0:0:0:
384,312,76350,6,0,B|408:288|448:292|448:292|488:256|448:196,1,150,4|2,0:0|0:0,0:0:0:0:
396,148,76861,2,0,B|364:148|340:136|340:136|304:148|304:148|276:136|244:132,1,150,8|2,0:0|0:0,0:0:0:0:
168,96,77373,2,0,P|128:84|80:88,1,75,2|8,0:0|0:0,0:0:0:0:
64,164,77714,2,0,P|48:204|112:304,1,150,4|8,0:0|0:0,0:0:0:0:
176,268,78225,2,0,L|256:256,1,75,8|2,0:0|0:0,0:0:0:0:
138,175,78566,2,8,L|58:163,1,75
192,96,78907,1,8,0:0:0:0:
192,96,78992,1,8,0:0:0:0:
192,96,79077,1,8,0:0:0:0:
232,184,79248,6,0,P|280:160|288:64,2,150,4|12|4,0:0|0:0|0:3,0:0:0:0:
184,264,80100,1,8,0:0:0:0:
280,264,80271,1,2,0:0:0:0:
328,180,80441,2,0,B|360:168|408:172|384:216|432:220|484:204,1,150,4|8,0:0|0:0,0:0:0:0:
436,124,80952,2,0,L|450:50,1,75,8|2,0:0|0:0,0:0:0:0:
352,84,81293,2,0,L|268:108,1,75,2|8,0:0|0:0,0:0:0:0:
368,168,81634,2,8,L|400:208,2,37.5
272,208,81975,5,4,0:0:0:0:
252,220,82316,2,0,B|224:256|224:256|240:364,1,150,12|2,0:0|0:0,0:0:0:0:
316,328,82827,1,8,0:0:0:0:
336,240,82998,1,2,0:0:0:0:
408,300,83168,2,0,P|432:264|400:164,1,150,4|8,0:0|0:0,0:0:0:0:
320,148,83680,2,0,L|312:60,1,75,8|0,0:0|0:0,0:0:0:0:
228,128,84021,1,8,0:0:0:0:
168,200,84191,1,8,0:0:0:0:
224,280,84361,1,8,0:0:0:0:
224,280,84447,1,8,0:0:0:0:
224,280,84532,1,8,0:0:0:0:
124,284,84702,6,0,B|64:252|64:252|40:164,2,150,4|12|0,0:0|0:0|0:0,0:0:0:0:
224,280,85555,2,0,L|312:276,1,75,8|2,0:0|0:0,0:0:0:0:
392,272,85896,2,0,P|432:244|396:148,1,150,4|8,0:0|0:0,0:0:0:0:
344,204,86407,1,8,0:0:0:0:
248,204,86577,1,2,0:0:0:0:
220,112,86748,2,0,L|140:120,1,75,2|8,0:0|0:0,0:0:0:0:
64,132,87089,2,8,L|24:136,3,37.5
104,124,87430,6,0,L|132:216,1,75,4|0,0:0|0:0,0:0:0:0:
121,289,87771,2,0,L|214:311,1,75,8|0,0:0|0:0,0:0:0:0:
273,357,88111,2,0,L|338:287,2,75,2|8|2,0:0|0:0|0:0,0:0:0:0:
408,260,88623,2,0,L|357:112,1,150,4|8,0:0|0:0,0:0:0:0:
340,200,89134,2,0,P|292:200|240:196,1,75,8|0,0:0|0:0,0:0:0:0:
292,60,89475,1,8,0:0:0:0:
216,124,89646,1,8,0:0:0:0:
120,100,89816,1,8,0:0:0:0:
120,100,89901,1,8,0:0:0:0:
120,100,89986,1,8,0:0:0:0:
64,192,90157,6,0,P|144:184|212:216,1,150,4|8,0:0|0:0,0:0:0:0:
256,300,90668,1,2,0:0:0:0:
256,300,90839,2,0,L|336:320,1,75,0|2,0:0|0:0,0:0:0:0:
408,264,91180,2,0,B|404:168|404:168|448:116,1,150,8|2,0:0|0:0,0:0:0:0:
360,184,91691,1,2,0:0:0:0:
360,184,91861,2,0,L|272:176,1,75,8|0,0:0|0:0,0:0:0:0:
212,112,92202,2,0,L|124:104,2,75,2|2|8,0:0|0:0|0:0,0:0:0:0:
285,177,92714,1,2,0:0:0:0:
192,216,92884,6,0,B|208:272|180:316|180:316|160:300|136:296,1,150,4|8,0:0|0:0,0:0:0:0:
224,288,93396,2,0,B|300:272|296:320|376:296,1,150,2|2,0:0|0:0,0:0:0:0:
396,220,93907,1,8,0:0:0:0:
396,220,94077,2,0,L|408:64,1,150,2|2,0:0|0:0,0:0:0:0:
356,140,94589,2,0,P|320:144|272:140,1,75,8|0,0:0|0:0,0:0:0:0:
204,64,94930,2,0,P|240:60|288:64,1,75,2|2,0:0|0:0,0:0:0:0:
196,144,95271,2,0,P|160:148|112:144,1,75,8|0,0:0|0:0,0:0:0:0:
76,76,95611,6,0,P|92:140|56:228,1,150,4|8,0:0|0:0,0:0:0:0:
168,232,96123,2,0,B|200:240|232:232|232:232|264:248|264:248|300:240|332:248,1,150,2|2,0:0|0:0,0:0:0:0:
368,324,96634,2,0,P|400:280|376:176,1,150,8|2,0:0|0:0,0:0:0:0:
304,152,97146,2,0,L|200:148,2,75,2|8|0,0:0|0:0|0:0,0:0:0:0:
380,114,97657,2,0,L|388:202,1,75,2|2,0:0|0:0,0:0:0:0:
320,244,97998,1,8,0:0:0:0:
320,336,98168,5,0,0:0:0:0:
320,336,98253,1,0,0:0:0:0:
320,336,98339,2,0,B|276:324|248:348|248:348|216:324|152:336,1,150,4|8,0:0|0:0,0:0:0:0:
168,244,98850,2,0,L|140:168,1,75,0|2,0:0|0:0,0:0:0:0:
208,128,99191,2,0,L|216:52,1,75,2|8,0:0|0:0,0:0:0:0:
304,84,99532,6,0,B|364:4|364:4|376:88,1,150,4|8,0:0|0:0,0:0:0:0:
368,144,100043,2,0,L|360:236,1,75,8|2,0:0|0:0,0:0:0:0:
288,276,100384,2,8,L|192:296,1,75
132,256,100725,1,8,0:0:0:0:
132,256,100810,1,8,0:0:0:0:
132,256,100896,1,8,0:0:0:0:
208,204,101066,6,0,P|156:168|48:204,1,150,4|8,0:0|0:0,0:0:0:0:
132,256,101577,2,0,L|192:324,1,75,2|0,0:0|0:0,0:0:0:0:
268,280,101918,2,0,L|336:312,1,75,2|8,0:0|0:0,0:0:0:0:
424,344,102259,2,0,L|420:244,1,75,2|0,0:0|0:0,0:0:0:0:
412,184,102600,2,0,L|336:228,1,75,2|8,0:0|0:0,0:0:0:0:
268,188,102941,1,0,0:0:0:0:
268,188,103111,2,0,P|260:156|272:108,1,75,2|0,0:0|0:0,0:0:0:0:
316,44,103452,1,8,0:0:0:0:
316,44,103793,6,0,L|416:40,2,75,2|0|8,0:0|0:0|0:0,0:0:0:0:
220,44,104305,2,0,B|148:32|148:32|104:52|100:104,1,150,2|2,0:0|0:0,0:0:0:0:
180,124,104816,1,8,0:0:0:0:
180,124,104986,2,0,P|168:164|168:212,1,75,2|0,0:0|0:0,0:0:0:0:
232,248,105327,2,0,P|229:285|218:321,1,75,2|8,0:0|0:0,0:0:0:0:
304,336,105668,2,0,P|344:332|380:320,1,75,2|0,0:0|0:0,0:0:0:0:
432,256,106009,2,0,P|420:220|418:182,2,75,2|8|0,0:0|0:0|0:0,0:0:0:0:
344,244,106521,6,0,B|376:156|308:176|344:84,1,150,0|8,0:0|0:0,0:0:0:0:
252,80,107032,2,0,L|148:104,1,75,2|0,0:0|0:0,0:0:0:0:
120,168,107373,2,0,L|224:192,1,75,2|8,0:0|0:0,0:0:0:0:
272,168,107714,2,0,L|280:260,1,75,2|2,0:0|0:0,0:0:0:0:
360,272,108055,2,0,L|344:372,1,75,2|8,0:0|0:0,0:0:0:0:
260,332,108396,1,0,0:0:0:0:
260,332,108566,2,0,L|168:324,2,75,0|2|8,0:0|0:0|0:0,0:0:0:0:
348,344,109077,1,0,0:0:0:0:
428,312,109248,6,0,P|456:276|424:160,2,150,4|8|2,0:0|0:0|0:0,0:0:0:0:
360,256,110100,1,2,0:0:0:0:
276,240,110271,1,8,0:0:0:0:
332,172,110441,2,0,P|240:160|192:208,1,150,4|8,0:0|0:0,0:0:0:0:
192,280,110952,2,0,L|176:360,1,75,8|4,0:0|0:3,0:0:0:0:
116,228,111293,2,8,L|100:308,1,75
40,188,111634,2,8,L|24:260,3,37.5
44,156,111975,6,0,P|68:104|168:68,2,150,4|4|2,0:0|0:3|0:0,0:0:0:0:
144,168,112827,1,8,0:0:0:0:
232,124,112998,1,0,0:0:0:0:
228,220,113168,2,0,P|236:264|200:332,1,112.5,4|0,0:0|0:0,0:0:0:0:
180,336,113509,2,0,L|88:344,2,75,8|8|4,0:0|0:0|0:3,0:0:0:0:
272,320,114021,2,0,L|364:308,1,75,8|8,0:0|0:0,0:0:0:0:
424,280,114361,2,8,L|416:244,3,37.5,8|8|8|8,2:0|2:0|2:0|2:0,0:0:0:0:
380,240,114702,6,0,P|336:216|324:120,2,150,4|4|2,0:3|0:3|0:0,0:0:0:0:
420,328,115555,1,8,0:0:0:0:
420,328,115725,1,2,0:0:0:0:
332,316,115896,2,0,P|272:304|196:316,1,112.5,4|0,0:0|0:0,0:0:0:0:
192,312,116236,2,0,P|168:280|164:220,2,75,8|8|0,0:0|0:0|0:0,0:0:0:0:
112,340,116748,2,0,P|72:344|18:318,1,75,8|8,0:0|0:0,0:0:0:0:
37,250,117089,2,8,L|64:224,3,37.5
88,200,117430,6,0,L|188:180,2,75,2|0|8,0:0|0:0|0:0,0:0:0:0:
104,112,117941,2,0,L|30:97,2,75,2|0|2,0:0|0:0|0:0,0:0:0:0:
192,104,118452,1,8,0:0:0:0:
192,104,118623,2,0,B|268:80|256:152|344:116,1,150,2|2,0:0|0:0,0:0:0:0:
416,160,119134,2,0,P|436:192|436:236,1,75,8|0,0:0|0:0,0:0:0:0:
464,304,119475,2,0,P|426:305|388:283,2,75,2|2|8,0:0|0:0|0:0,0:0:0:0:
436,228,119986,1,2,0:0:0:0:
352,220,120157,6,0,B|304:216|304:216|256:248|256:248|200:244,1,150,2|8,0:0|0:0,0:0:0:0:
140,196,120668,1,0,0:0:0:0:
140,196,120839,2,0,L|128:120,2,75,2|2|8,0:0|0:0|0:0,0:0:0:0:
132,280,121350,2,0,P|148:316|264:328,1,150,4|2,0:0|0:0,0:0:0:0:
304,264,121861,2,0,L|336:336,1,75,8|0,0:0|0:0,0:0:0:0:
396,272,122202,2,0,L|474:280,1,75,2|2,0:0|0:0,0:0:0:0:
444,200,122543,2,0,L|490:136,1,75,8|0,0:0|0:0,0:0:0:0:
452,60,122884,6,0,L|288:64,2,150,4|4|2,0:0|0:3|0:0,0:0:0:0:
488,139,123736,1,8,0:0:0:0:
488,139,123907,1,2,0:0:0:0:
444,200,124077,2,0,P|380:192|320:220,1,112.5,4|0,0:0|0:0,0:0:0:0:
312,224,124418,2,0,L|228:228,2,75,8|8|2,0:0|0:0|0:0,0:0:0:0:
276,308,124930,2,0,L|192:312,1,75,8|8,0:0|0:0,0:0:0:0:
140,248,125271,2,0,L|72:252,3,37.5,8|8|8|8,0:0|0:0|0:0|0:0,0:0:0:0:
68,252,125611,6,0,B|80:208|68:180|68:180|88:152|88:152|92:92,2,150,4|4|2,0:3|0:3|0:0,0:0:0:0:
104,328,126464,2,0,L|144:328,2,37.5,10|0|0,0:0|0:0|0:0,0:0:0:0:
144,252,126805,6,0,L|264:240,1,112.5,4|0,0:0|0:0,0:0:0:0:
288,236,127146,2,0,L|364:228,2,75,8|8|2,0:0|0:0|0:0,0:0:0:0:
312,152,127657,1,8,0:0:0:0:
232,168,127827,1,8,0:0:0:0:
148,180,127998,2,8,L|92:184,3,37.5
80,184,128339,6,0,B|68:284|68:284|108:324,2,150,4|8|2,0:0|0:0|0:0,0:0:0:0:
108,108,129191,2,0,L|188:72,1,75,2|8,0:0|0:0,0:0:0:0:
256,80,129532,2,0,L|416:72,1,150,2|2,0:0|0:0,0:0:0:0:
336,120,130043,2,0,L|332:208,1,75,8|0,0:0|0:0,0:0:0:0:
248,240,130384,2,0,L|252:328,2,75,2|2|8,0:0|0:0|0:0,0:0:0:0:
252,156,130896,1,2,0:0:0:0:
176,192,131066,1,12,0:0:0:0:
176,192,131407,6,8,P|139:206|110:237,1,75
213,262,131748,2,8,P|207:301|219:341,1,75
294,265,132089,2,8,P|325:289|357:293,2,37.5
336,200,132430,2,8,L|416:188,1,75
356,112,132771,2,8,L|276:100,1,75
248,184,133111,2,8,L|200:184,3,37.5
180,184,133452,1,8,0:0:0:0:
216,276,133623,5,4,0:0:0:0:
256,192,133964,12,4,136521,0:0:0:0:
360,192,139248,5,4,0:0:0:0:
256,192,140611,5,4,0:0:0:0:
152,192,141975,5,4,0:0:0:0:
312,272,142827,5,8,0:0:0:0:
396,280,142998,1,4,0:3:0:0:
228,260,143339,2,8,L|188:252,2,37.5
112,204,144021,2,0,L|88:264,2,56.2500021457673,2|0|2,0:0|0:0|0:0,0:0:0:0:
256,76,150157,6,0,L|400:64,1,134.999995880127,2|2,0:0|0:0,0:0:0:0:
340,180,150839,2,0,L|196:192,1,134.999995880127,2|2,0:0|0:0,0:0:0:0:
144,312,151521,2,0,L|288:300,2,134.999995880127,2|2|2,0:0|0:0|0:0,0:0:0:0:
364,264,152543,1,2,0:0:0:0:
264,140,152884,6,0,P|232:112|192:96,1,67.4999979400635,2|0,0:0|0:0,0:0:0:0:
124,96,153225,2,0,P|99:119|69:134,1,67.4999979400635,2|0,0:0|0:0,0:0:0:0:
96,208,153566,2,0,P|116:240|72:336,1,134.999995880127,2|8,0:0|0:0,0:0:0:0:
152,276,154077,2,0,L|268:252,1,112.5,4|0,0:0|0:0,0:0:0:0:
288,248,154418,2,0,B|320:268|320:268|376:272,2,75,8|8|2,0:0|0:0|0:0,0:0:0:0:
344,196,154930,2,8,L|332:120,1,75
248,104,155271,2,8,L|256:168,3,37.5
256,168,155611,6,0,B|180:144|188:224|104:192,2,150,4|8|2,0:0|0:0|0:0,0:0:0:0:
232,248,156464,1,2,0:0:0:0:
232,248,156634,2,0,L|224:332,1,75,8|2,0:0|0:0,0:0:0:0:
312,296,156975,2,0,L|384:256,1,75,0|2,0:0|0:0,0:0:0:0:
308,208,157316,2,0,L|248:160,1,75,8|0,0:0|0:0,0:0:0:0:
292,92,157657,6,0,P|368:84|464:88,2,150,2|8|6,0:0|0:0|0:0,0:0:0:0:
232,236,158680,2,0,P|192:224|152:224,1,75,8|0,0:0|0:0,0:0:0:0:
104,156,159021,2,0,P|144:144|184:144,1,75,2|2,0:0|0:0,0:0:0:0:
264,156,159361,1,8,0:0:0:0:
316,84,159532,6,0,B|312:136|312:136|328:176|328:176|324:240,1,150,2|2,0:0|0:0,0:0:0:0:
407,278,160043,2,0,B|404:224|404:224|420:184|420:184|416:132,2,150,8|2|8,0:0|0:0|0:0,0:0:0:0:
328,320,160896,6,0,P|280:308|180:352,1,150,6|2,0:0|0:0,0:0:0:0:
248,272,161407,2,0,L|216:200,1,75,8|0,0:0|0:0,0:0:0:0:
136,200,161748,2,0,L|140:120,1,75,2|2,0:0|0:0,0:0:0:0:
220,120,162089,2,0,L|296:112,1,75,8|0,0:0|0:0,0:0:0:0:
352,176,162430,6,0,B|464:168|464:168|436:200,1,150,2|8,0:0|0:0,0:0:0:0:
376,256,162941,1,0,0:0:0:0:
288,240,163111,1,2,0:0:0:0:
228,172,163282,2,0,P|228:128|220:84,1,75,2|8,0:0|0:0,0:0:0:0:
152,140,163623,6,0,P|104:160|88:256,1,150,4|2,0:0|0:0,0:0:0:0:
172,248,164134,2,0,B|216:232|216:232|264:264|328:228,1,150,8|2,0:0|0:0,0:0:0:0:
320,148,164646,1,2,0:0:0:0:
400,200,164816,1,8,0:0:0:0:
400,200,164986,1,0,0:0:0:0:
392,288,165157,6,0,L|372:368,1,75,2|8,0:0|0:0,0:0:0:0:
292,312,165498,2,0,L|212:334,1,75,8|2,0:0|0:0,0:0:0:0:
224,240,165839,2,8,L|164:182,1,75
204,108,166180,1,8,0:0:0:0:
204,108,166265,1,8,0:0:0:0:
204,108,166350,1,8,0:0:0:0:
272,164,166521,6,0,P|328:172|380:92,2,150,4|8|8,0:0|0:0|0:0,0:0:0:0:
300,80,167373,1,2,0:0:0:0:
216,96,167543,1,8,0:0:0:0:
216,96,167714,1,2,0:0:0:0:
188,180,167884,2,0,P|184:220|160:256,1,75,8|2,0:0|0:0,0:0:0:0:
232,304,168225,2,0,P|268:296|328:304,1,75,8|2,0:0|0:0,0:0:0:0:
384,264,168566,2,0,P|400:228|400:172,1,75,8|2,0:0|0:0,0:0:0:0:
400,108,168907,2,0,P|377:78|346:57,1,75,8|2,0:0|0:0,0:0:0:0:
320,136,169248,6,0,P|264:132|152:136,1,150,8|8,0:0|0:0,0:0:0:0:
240,176,169759,1,2,0:0:0:0:
312,224,169930,2,0,P|308:264|288:300,1,75,8|2,0:0|0:0,0:0:0:0:
224,256,170271,2,0,P|184:264|140:260,1,75,8|2,0:0|0:0,0:0:0:0:
188,340,170611,2,0,P|248:340|340:364,2,150,8|8|8,0:0|0:0|0:0,0:0:0:0:
108,332,171464,1,2,0:0:0:0:
64,264,171634,1,8,0:0:0:0:
64,264,171719,1,8,0:0:0:0:
64,264,171805,1,8,0:0:0:0:
152,256,171975,6,0,L|160:176,1,75,8|2,0:0|0:0,0:0:0:0:
244,228,172316,2,0,L|252:148,1,75,8|2,0:0|0:0,0:0:0:0:
332,268,172657,2,0,L|340:188,1,75,8|2,0:0|0:0,0:0:0:0:
424,240,172998,2,0,L|432:160,1,75,8|2,0:0|0:0,0:0:0:0:
368,104,173339,2,0,P|328:88|280:80,1,75,8|2,0:0|0:0,0:0:0:0:
212,88,173680,2,0,P|164:104|116:104,1,75,8|2,0:0|0:0,0:0:0:0:
64,80,174021,1,8,0:0:0:0:
76,160,174191,1,8,0:0:0:0:
48,236,174361,1,8,0:0:0:0:
128,224,174532,5,8,0:0:0:0:
128,224,174617,1,8,0:0:0:0:
128,224,174702,2,0,B|248:176|228:292|352:232,1,225.000008583069,4|4,0:0|0:0,0:0:0:0:
336,96,176066,2,0,B|216:48|236:164|112:104,1,225.000008583069,4|4,0:0|0:0,0:0:0:0:
60,168,176918,1,2,0:0:0:0:
128,224,177089,1,8,0:0:0:0:
192,168,177259,6,0,P|216:200|172:304,1,150,4|2,0:0|0:0,0:0:0:0:
280,304,177771,2,0,L|372:284,1,75,12|0,0:0|0:0,0:0:0:0:
408,224,178111,2,0,L|412:144,1,75,2|2,0:0|0:0,0:0:0:0:
352,92,178452,2,0,P|316:108|240:88,1,112.5,8|0,0:0|0:0,0:0:0:0:
224,80,178793,2,0,B|148:52|148:116|64:76,1,150,2|8,0:0|0:0,0:0:0:0:
80,164,179305,1,0,0:0:0:0:
84,248,179475,2,0,L|84:328,2,75,2|2|8,0:0|0:0|0:0,0:0:0:0:
156,204,179986,6,0,B|272:204|272:204|240:244,1,150,4|2,0:0|0:0,0:0:0:0:
188,284,180498,2,0,P|200:328|200:364,1,75,8|0,0:0|0:0,0:0:0:0:
272,308,180839,2,0,P|300:276|340:252,1,75,2|2,0:0|0:0,0:0:0:0:
316,180,181180,2,0,P|292:168|260:124,1,75,8|0,0:0|0:0,0:0:0:0:
340,100,181521,2,0,B|360:104|392:96|392:96|424:136|396:204,1,150,2|8,0:0|0:0,0:0:0:0:
408,272,182032,1,2,0:0:0:0:
352,336,182202,2,0,L|272:344,2,75,2|2|8,0:0|0:0|0:0,0:0:0:0:
324,256,182714,6,0,P|260:252|216:164,1,150,4|8,0:0|0:0,0:0:0:0:
300,168,183225,2,8,L|320:84,1,75
396,164,183566,2,8,L|458:223,1,75
352,244,183907,2,8,L|269:268,1,75
192,296,184248,6,8,P|160:304|88:308,1,89.9999972534181
44,232,184589,2,8,P|76:224|148:220,1,89.9999972534181
220,192,184930,2,8,L|216:140,3,44.999998626709
212,116,185271,1,8,0:0:0:0:
312,176,185441,5,4,0:0:0:0:
256,192,185526,12,12,186634,0:0:0:0:
256,192,186805,5,12,0:0:0:0:
