osu file format v14

[General]
AudioFilename: Yume+chizu.mp3
AudioLeadIn: 0
PreviewTime: 56663
Countdown: 0
SampleSet: Soft
StackLeniency: 0.7
Mode: 0
LetterboxInBreaks: 0
WidescreenStoryboard: 1

[Editor]
DistanceSpacing: 1.6
BeatDivisor: 4
GridSize: 4
TimelineZoom: 3.599999

[Metadata]
Title:Yume chizu
TitleUnicode:夢地図
Artist:40mP feat.yuikonnu
ArtistUnicode:40㍍P feat.ゆいこんぬ
Creator:_kotachi_
Version:Extra
Source:40㍍P
Tags:ゆいこんぬ yuikonnu _kotachi_ Hatsumin Akitoshi Yasaija_714 koyomiya
BeatmapID:826921
BeatmapSetID:377707

[Difficulty]
HPDrainRate:7
CircleSize:4
OverallDifficulty:8.5
ApproachRate:9.3
SliderMultiplier:1.7
SliderTickRate:1

[Events]
//Background and Video events
0,0,"kimyou634-1.jpg",0,0
Video,-1,"optos.flv"
//Break Periods
//Storyboard Layer 0 (Background)
//Storyboard Layer 1 (Fail)
//Storyboard Layer 2 (Pass)
//Storyboard Layer 3 (Foreground)
//Storyboard Sound Samples

[TimingPoints]
1521,340.909090909091,4,2,1,50,1,0
2543,-100,4,2,1,50,0,0
2884,-133.333333333333,4,2,1,50,0,0
4418,-100,4,2,1,50,0,0
4503,-133.333333333333,4,2,1,50,0,0
7146,-100,4,2,1,50,0,0
7231,-133.333333333333,4,2,1,50,0,0
11066,-100,4,2,1,50,0,0
11748,-100,4,2,1,60,0,0
13793,-100,4,2,1,70,0,0
24702,-133.333333333333,4,2,1,60,0,0
27259,-133.333333333333,4,2,2,90,0,0
27430,-133.333333333333,4,2,1,60,0,0
29986,-133.333333333333,4,2,2,90,0,0
30157,-133.333333333333,4,2,1,60,0,0
32032,-133.333333333333,4,2,1,90,0,0
32202,-133.333333333333,4,2,1,60,0,0
32373,-133.333333333333,4,2,1,90,0,0
32543,-133.333333333333,4,2,1,60,0,0
32714,-133.333333333333,4,2,1,90,0,0
32884,-133.333333333333,4,2,1,60,0,0
34077,-133.333333333333,4,2,1,90,0,0
34248,-133.333333333333,4,2,1,60,0,0
34759,-133.333333333333,4,2,1,90,0,0
34930,-133.333333333333,4,2,1,60,0,0
35100,-133.333333333333,4,2,1,90,0,0
35271,-133.333333333333,4,2,1,60,0,0
38168,-133.333333333333,4,2,2,90,0,0
38339,-133.333333333333,4,2,1,60,0,0
40896,-133.333333333333,4,2,2,90,0,0
41066,-133.333333333333,4,2,1,60,0,0
42941,-133.333333333333,4,2,1,90,0,0
43111,-133.333333333333,4,2,1,60,0,0
43282,-133.333333333333,4,2,1,90,0,0
43452,-133.333333333333,4,2,1,60,0,0
43623,-133.333333333333,4,2,1,90,0,0
43793,-133.333333333333,4,2,1,60,0,0
44986,-133.333333333333,4,2,1,90,0,0
45327,-133.333333333333,4,2,1,70,0,0
46350,-133.333333333333,4,2,1,40,0,0
46521,-133.333333333333,4,2,1,60,0,0
51975,-100,4,2,1,60,0,0
54702,-100,4,2,1,50,0,0
55043,-100,4,2,1,65,0,0
55384,-100,4,2,1,80,0,0
55725,-100,4,2,1,85,0,0
56066,-100,4,2,1,100,0,0
56748,-100,4,2,1,50,0,0
57430,-100,4,2,1,70,0,1
67146,-100,4,2,1,70,0,0
67827,-100,4,2,1,50,0,0
68339,-100,4,2,1,70,0,1
79248,-100,4,2,1,70,0,0
89134,-100,4,2,1,60,0,0
89219,-100,4,2,1,40,0,0
89475,-100,4,2,1,60,0,0
89560,-100,4,2,1,40,0,0
89816,-100,4,2,1,75,0,0
90157,-100,4,2,1,90,0,0
90327,-100,4,2,1,70,0,0
90839,-100,4,2,2,70,0,0
91009,-100,4,2,1,70,0,0
91521,-100,4,2,2,70,0,0
91691,-100,4,2,1,70,0,0
92202,-100,4,2,2,70,0,0
92373,-100,4,2,1,70,0,0
92884,-100,4,2,2,70,0,0
93225,-100,4,2,1,70,0,0
93566,-100,4,2,2,70,0,0
93736,-100,4,2,1,70,0,0
94248,-100,4,2,2,70,0,0
94418,-100,4,2,1,70,0,0
94930,-100,4,2,2,70,0,0
95100,-100,4,2,1,70,0,0
95611,-100,4,2,2,70,0,0
95952,-100,4,2,1,70,0,0
96293,-100,4,2,2,70,0,0
96464,-100,4,2,1,70,0,0
96975,-100,4,2,2,70,0,0
97316,-100,4,2,1,70,0,0
97657,-100,4,2,2,70,0,0
97827,-100,4,2,1,70,0,0
100043,-100,4,2,1,40,0,0
100384,-100,4,2,1,50,0,0
100725,-100,4,2,1,90,0,0
101066,-100,4,2,1,70,0,0
102430,-100,4,2,2,70,0,0
102600,-100,4,2,1,70,0,0
103111,-100,4,2,2,70,0,0
103282,-100,4,2,1,70,0,0
105157,-100,4,2,2,70,0,0
105327,-100,4,2,1,70,0,0
105839,-100,4,2,2,70,0,0
106009,-100,4,2,1,70,0,0
107202,-100,4,2,2,70,0,0
107373,-100,4,2,1,70,0,0
107884,-100,4,2,2,70,0,0
108055,-100,4,2,1,70,0,0
108566,-100,4,2,2,70,0,0
108736,-100,4,2,1,70,0,0
111975,-100,4,2,1,70,0,1
114702,-100,4,2,1,90,0,1
115043,-100,4,2,1,70,0,1
117430,-100,4,2,1,70,0,0
122884,-100,4,2,1,70,0,1
125611,-100,4,2,1,90,0,1
125952,-100,4,2,1,70,0,1
128339,-100,4,2,1,70,0,0
133964,-200,4,2,1,70,0,0
135157,-200,4,2,1,50,0,0
135327,-200,4,2,1,45,0,0
135668,-200,4,2,1,35,0,0
136009,-200,4,2,1,25,0,0
136180,-200,4,2,1,5,0,0
136521,-200,4,2,1,70,0,0
137202,-200,4,2,1,50,0,0
137373,-200,4,2,1,40,0,0
137543,-200,4,2,1,30,0,0
137714,-200,4,2,1,20,0,0
137884,-200,4,2,1,5,0,0
139248,-200,4,2,1,75,0,0
144021,-200,4,2,2,70,0,0
144702,-133.333333333333,4,2,2,50,0,0
150157,-111.111111111111,4,2,1,50,0,0
154077,-100,4,2,1,50,0,0
155611,-100,4,2,1,70,0,1
165839,-100,4,2,1,70,0,0
166521,-83.3333333333333,4,2,1,80,0,1
174702,-133.333333333333,4,2,1,80,0,1
177259,-100,4,2,1,80,0,1
186805,-100,4,2,1,80,0,0
970146,-100,4,2,1,70,0,0

[Colours]
Combo1 : 0,255,0
Combo2 : 255,0,0
Combo3 : 0,0,255
Combo4 : 255,255,0

[HitObjects]
184,216,2543,6,0,L|184:304,1,85,4|0,0:3|0:3,0:3:0:0:
304,240,2884,6,0,P|288:196|376:76,1,191.250007295609,4|0,0:0|0:0,0:0:0:0:
356,81,3907,1,0,0:0:0:0:
304,240,4418,6,0,L|252:168,1,85,8|4,0:3|0:3,0:0:0:0:
348,112,4930,5,8,0:0:0:0:
128,192,5271,1,4,0:3:0:0:
264,324,5611,2,0,B|300:220|352:284|384:168,1,191.250007295609,4|0,0:0|0:0,0:0:0:0:
380,180,6634,1,0,0:0:0:0:
212,92,7146,2,0,L|212:184,1,85,8|4,0:3|0:3,0:3:0:0:
172,252,7657,5,8,0:0:0:0:
344,248,7827,1,8,0:0:0:0:
256,104,7998,1,4,0:3:0:0:
256,304,8339,1,4,0:0:0:0:
320,308,9702,5,4,0:0:0:0:
384,312,11066,5,10,0:0:0:0:
340,88,11407,5,8,0:0:0:0:
280,232,11577,1,8,0:0:0:0:
456,200,11748,5,8,0:0:0:0:
244,132,11918,1,8,0:0:0:0:
432,108,12089,5,8,0:0:0:0:
384,312,12259,1,12,0:0:0:0:
134,118,12600,5,8,0:0:0:0:
221,324,12771,1,8,0:0:0:0:
244,132,12941,1,4,0:3:0:0:
110,310,13111,5,8,0:0:0:0:
280,232,13282,1,8,0:0:0:0:
63,208,13452,1,8,0:0:0:0:
63,208,13538,1,8,0:0:0:0:
63,208,13623,1,8,0:0:0:0:
221,324,13793,6,0,P|281:304|283:210,1,170,4|8,0:0|0:0,0:0:0:0:
320,64,14305,1,0,0:0:0:0:
376,208,14475,1,2,0:0:0:0:
436,128,14646,1,2,0:0:0:0:
304,296,14816,1,8,0:0:0:0:
272,168,14986,6,0,B|236:168|208:140|208:140|176:152|176:152|152:128|104:128,1,170,2|2,0:0|0:0,0:0:0:0:
300,64,15498,2,0,L|396:96,1,85,8|0,0:0|0:0,0:0:0:0:
368,212,15839,1,2,0:0:0:0:
300,64,16009,1,2,0:0:0:0:
272,168,16180,1,8,0:0:0:0:
464,256,16350,1,0,0:0:0:0:
380,328,16521,6,0,B|332:312|296:328|296:328|256:344|200:320,1,170,2|8,0:0|0:0,0:0:0:0:
152,244,17032,2,0,L|132:160,2,85,0|2|2,0:0|0:0|0:0,0:0:0:0:
268,204,17543,1,8,0:0:0:0:
392,180,17714,6,0,B|372:148|376:104|376:104|348:60|292:64,1,170,2|2,0:0|0:0,0:0:0:0:
200,136,18225,2,0,L|220:244,1,85,8|0,0:0|0:0,0:0:0:0:
392,180,18566,1,2,0:0:0:0:
216,220,18736,1,2,0:0:0:0:
344,328,18907,1,8,0:0:0:0:
284,124,19077,6,0,B|228:124|228:124|176:96|176:96|116:96,1,170,2|2,0:0|0:0,0:0:0:0:
148,300,19589,2,0,P|184:272|236:264,1,85,8|0,0:0|0:0,0:0:0:0:
242,39,19930,2,0,P|240:85|213:130,1,85,2|2,0:0|0:0,0:0:0:0:
399,244,20271,2,0,P|358:223|329:179,1,85,8|0,0:0|0:0,0:0:0:0:
148,300,20611,6,0,P|188:244|152:124,1,170,2|8,0:0|0:0,0:0:0:0:
304,260,21123,1,0,0:0:0:0:
272,116,21293,1,2,0:0:0:0:
399,244,21464,1,2,0:0:0:0:
212,204,21634,1,8,0:0:0:0:
364,92,21805,6,0,P|432:120|496:44,1,170,2|0,0:0|0:0,0:0:0:0:
399,244,22316,2,0,P|400:292|388:328,1,85,8|0,0:0|0:0,0:0:0:0:
212,204,22657,1,2,0:0:0:0:
399,244,22827,1,2,0:0:0:0:
272,116,22998,1,8,0:0:0:0:
244,300,23168,1,2,0:0:0:0:
372,144,23339,5,2,0:0:0:0:
336,316,23509,1,8,0:0:0:0:
468,168,23680,1,8,0:0:0:0:
272,116,23850,1,2,0:0:0:0:
408,248,24021,1,8,0:0:0:0:
448,84,24191,5,8,0:0:0:0:
476,312,24361,1,8,0:0:0:0:
484,320,24447,1,8,0:0:0:0:
484,320,24532,1,2,0:3:0:0:
293,208,24702,6,0,L|213:228,1,63.7500024318696,4|0,0:0|0:0,0:0:0:0:
172,160,25043,1,2,0:0:0:0:
148,264,25214,1,0,0:0:0:0:
232,224,25384,5,2,0:0:0:0:
88,192,25555,1,0,0:0:0:0:
196,72,25725,1,2,0:0:0:0:
148,264,25896,6,0,L|115:335,1,63.7500024318696,0|2,0:0|0:0,0:0:0:0:
232,224,26236,2,0,L|310:233,1,63.7500024318696,0|2,2:0|2:0,2:0:0:0:
156,176,26577,2,0,L|122:104,1,63.7500024318696,0|2,0:0|0:0,0:0:0:0:
217,76,26918,2,0,L|245:150,1,63.7500024318696,0|2,0:0|0:0,0:0:0:0:
316,188,27259,1,2,0:0:0:0:
148,264,27430,5,2,0:0:0:0:
240,136,27600,1,0,0:0:0:0:
156,176,27771,1,2,0:0:0:0:
224,312,27941,1,0,0:0:0:0:
316,188,28111,5,2,0:0:0:0:
304,276,28282,1,0,0:0:0:0:
240,136,28452,1,2,0:0:0:0:
97,302,28623,6,0,L|148:264,1,63.7500024318696,0|2,0:0|0:0,0:0:0:0:
272,328,28964,2,0,L|233:278,1,63.7500024318696,0|2,0:0|0:0,0:0:0:0:
208,140,29305,2,0,L|200:204,1,63.7500024318696,0|2,0:0|0:0,0:0:0:0:
316,188,29646,2,0,L|324:124,1,63.7500024318696,0|2,0:0|0:0,0:0:0:0:
148,263,29986,1,2,0:0:0:0:
272,328,30157,6,0,P|292:312|304:268,1,63.7500024318696,2|0,0:0|0:0,0:0:0:0:
316,188,30498,1,2,0:0:0:0:
384,88,30668,1,0,0:0:0:0:
400,240,30839,1,2,0:0:0:0:
284,64,31009,1,0,0:0:0:0:
252,188,31180,1,2,0:0:0:0:
252,188,31350,1,0,0:0:0:0:
136,136,31521,6,0,L|72:136,1,63.7500024318696,2|0,0:0|0:0,0:0:0:0:
132,236,31861,2,0,L|86:281,1,63.7500024318696,2|0,0:0|3:0,0:0:0:0:
204,312,32202,2,0,L|215:375,1,63.7500024318696,2|0,0:0|3:0,0:0:0:0:
310,302,32543,2,0,L|362:339,1,63.7500024318696,2|0,0:0|3:0,0:0:0:0:
348,176,32884,5,2,0:0:0:0:
264,232,33055,1,0,0:0:0:0:
432,228,33225,1,2,0:0:0:0:
264,120,33396,2,0,L|236:56,1,63.7500024318696,0|2,0:0|0:0,0:0:0:0:
264,232,33736,2,0,L|288:304,1,63.7500024318696,0|2,0:0|0:0,0:0:0:0:
152,180,34077,6,0,L|112:120,1,63.7500024318696,0|2,3:0|0:0,0:0:0:0:
200,292,34418,2,0,L|129:277,1,63.7500024318696,0|2,0:0|0:0,0:0:0:0:
311,338,34759,2,0,L|251:377,1,63.7500024318696,0|2,3:0|0:0,0:0:0:0:
424,292,35100,2,0,L|409:362,1,63.7500024318696,0|2,3:0|0:0,0:0:0:0:
440,188,35441,1,0,0:0:0:0:
376,95,35611,6,0,P|320:91|268:139,1,127.500004863739,4|2,0:0|0:0,0:0:0:0:
172,264,36123,1,0,0:0:0:0:
270,137,36293,1,2,0:0:0:0:
276,300,36464,1,0,0:0:0:0:
168,152,36634,1,2,0:0:0:0:
276,300,36805,6,0,L|360:292,1,63.7500024318696,0|2,0:0|0:0,0:0:0:0:
172,264,37146,2,0,L|88:272,1,63.7500024318696,0|2,0:0|0:0,0:0:0:0:
276,300,37486,2,0,L|260:208,1,63.7500024318696,0|2,0:0|0:0,0:0:0:0:
97,207,37827,2,0,L|113:299,1,63.7500024318696,0|2,0:0|0:0,0:0:0:0:
88,112,38168,1,2,0:0:0:0:
188,204,38339,5,2,0:0:0:0:
232,88,38509,1,0,0:0:0:0:
184,228,38680,1,2,0:0:0:0:
296,156,38850,1,0,0:0:0:0:
136,100,39021,1,2,0:0:0:0:
272,268,39191,1,0,0:0:0:0:
232,88,39361,1,2,0:0:0:0:
96,208,39532,6,0,P|88:176|96:140,1,63.7500024318696,0|2,0:0|0:0,0:0:0:0:
184,208,39873,2,0,P|216:199|251:207,1,63.7500024318696,0|2,0:0|0:0,0:0:0:0:
184,296,40214,2,0,P|192:328|184:364,1,63.7500024318696,0|2,0:0|0:0,0:0:0:0:
96,296,40555,2,0,P|63:304|28:296,1,63.7500024318696,0|2,0:0|0:0,0:0:0:0:
184,208,40896,1,2,0:0:0:0:
328,196,41066,6,0,P|352:236|364:280,1,63.7500024318696,2|0,0:0|0:0,0:0:0:0:
272,96,41407,1,2,0:0:0:0:
184,208,41577,1,0,0:0:0:0:
168,88,41748,1,2,0:0:0:0:
328,196,41918,1,0,0:0:0:0:
184,208,42089,2,0,L|108:216,1,63.7500024318696,2|0,0:0|0:0,0:0:0:0:
360,192,42430,6,0,L|436:184,1,63.7500024318696,2|0,0:0|0:0,0:0:0:0:
304,92,42771,2,0,L|352:32,1,63.7500024318696,2|0,0:0|3:0,0:0:0:0:
200,88,43111,2,0,L|155:30,1,63.7500024318696,2|0,0:0|3:0,0:0:0:0:
141,190,43452,2,0,L|65:178,1,63.7500024318696,2|0,0:0|3:0,0:0:0:0:
196,264,43793,6,0,P|188:296|160:336,1,63.7500024318696,2|0,0:0|0:0,0:0:0:0:
252,168,44134,1,2,0:0:0:0:
296,268,44305,2,0,P|300:300|321:344,1,63.7500024318696,0|2,0:0|0:0,0:0:0:0:
252,168,44646,1,0,0:0:0:0:
336,76,44816,1,2,0:0:0:0:
296,268,44986,6,0,P|328:288|392:236,1,127.500004863739,0|2,3:0|0:0,0:0:0:0:
252,168,45498,1,8,0:0:0:0:
188,304,45668,1,0,0:0:0:0:
172,132,45839,5,2,0:0:0:0:
296,268,46009,1,8,0:0:0:0:
272,104,46180,1,8,0:0:0:0:
188,304,46350,5,8,0:0:0:0:
188,304,46435,1,8,0:0:0:0:
188,304,46521,2,0,P|121:305|78:255,1,127.500004863739,4|2,0:0|0:0,0:0:0:0:
172,132,47032,1,0,0:0:0:0:
280,200,47202,2,0,B|316:192|344:204|344:204|372:216|412:204,1,127.500004863739,8|0,0:0|0:0,0:0:0:0:
204,100,47714,6,0,B|172:132|172:132|160:164|160:164|108:208,1,127.500004863739,8|8,0:0|0:0,0:0:0:0:
337,131,48225,2,0,P|358:153|368:183,1,63.7500024318696,2|0,0:0|0:0,0:0:0:0:
249,251,48566,2,0,P|260:221|283:199,1,63.7500024318696,8|0,0:0|0:0,0:0:0:0:
400,256,48907,2,0,P|370:266|338:262,1,63.7500024318696,2|8,0:0|0:0,0:0:0:0:
336,132,49248,6,0,P|300:116|196:132,1,127.500004863739,4|2,0:0|0:0,0:0:0:0:
248,252,49759,1,0,0:0:0:0:
400,256,49930,2,0,B|432:224|420:184|420:184|448:172|460:148,1,127.500004863739,8|0,0:0|0:0,0:0:0:0:
248,252,50441,6,8,L|120:212,1,127.500004863739
224,128,50952,1,2,0:0:0:0:
344,176,51293,2,0,L|400:144,2,63.7500024318696,8|0|8,0:0|0:0|0:0,0:0:0:0:
392,268,51805,5,8,0:0:0:0:
392,268,51890,1,8,0:0:0:0:
392,268,51975,2,0,B|344:280|296:280|324:236|272:236|224:252,1,170,4|8,0:0|0:0,0:0:0:0:
344,176,52486,1,0,0:0:0:0:
224,124,52657,2,0,L|204:40,1,85,2|2,0:0|0:0,0:0:0:0:
140,184,52998,2,0,L|156:272,1,85,8|0,0:0|0:0,0:0:0:0:
316,280,53339,5,2,0:0:0:0:
344,176,53509,1,0,0:0:0:0:
248,128,53680,2,0,P|216:112|152:112,1,85,8|0,0:0|0:0,0:0:0:0:
168,208,54021,1,2,0:0:0:0:
136,336,54191,1,2,0:0:0:0:
272,220,54361,1,8,0:0:0:0:
120,352,54532,1,0,0:0:0:0:
248,128,54702,6,0,L|140:120,1,85,8|0,0:0|0:0,0:0:0:0:
256,336,55043,1,10,0:0:0:0:
300,164,55214,1,10,0:0:0:0:
104,232,55384,5,10,0:0:0:0:
316,264,55555,1,10,0:0:0:0:
176,100,55725,5,10,0:0:0:0:
256,336,55896,1,10,0:0:0:0:
368,44,56066,5,8,3:2:0:0:
72,176,56236,1,8,3:2:0:0:
352,344,56407,1,8,3:2:0:0:
256,192,56748,5,0,0:0:0:0:
256,192,57089,1,0,0:0:0:0:
256,192,57430,6,0,P|256:256|368:276,1,170,4|8,0:0|0:0,0:0:0:0:
328,96,57941,1,0,0:0:0:0:
340,212,58111,1,2,0:0:0:0:
472,96,58282,1,2,0:0:0:0:
324,224,58452,1,8,0:0:0:0:
328,96,58623,6,0,L|152:96,1,170,2|2,0:0|0:0,0:0:0:0:
340,212,59134,2,0,P|384:208|448:244,1,85,8|0,0:0|0:0,0:0:0:0:
216,324,59475,1,2,0:0:0:0:
256,188,59646,1,2,0:0:0:0:
352,328,59816,1,8,0:0:0:0:
172,236,59986,5,0,0:0:0:0:
172,236,60072,1,0,0:0:0:0:
172,236,60157,2,0,B|160:176|160:176|208:136|176:68,1,170,2|8,0:0|0:0,0:0:0:0:
292,272,60668,1,0,0:0:0:0:
392,112,60839,1,2,0:0:0:0:
424,240,61009,1,2,0:0:0:0:
284,68,61180,1,8,0:0:0:0:
292,272,61350,6,0,B|256:260|224:272|224:272|196:248|196:248|160:260|112:248,1,170,2|2,0:0|0:0,0:0:0:0:
284,68,61861,1,8,0:0:0:0:
400,200,62032,1,0,0:0:0:0:
216,164,62202,1,2,0:0:0:0:
392,112,62373,1,2,0:0:0:0:
192,164,62543,1,8,0:0:0:0:
408,292,62714,5,0,0:0:0:0:
408,292,62799,1,0,0:0:0:0:
408,292,62884,2,0,B|360:280|360:280|324:292|324:292|292:268|240:280,1,170,2|8,0:0|0:0,0:0:0:0:
192,164,63396,1,0,0:0:0:0:
136,288,63566,1,2,0:0:0:0:
304,212,63736,1,2,0:0:0:0:
136,88,63907,1,8,0:0:0:0:
56,328,64077,6,0,B|20:247|92:247|60:163,1,170,2|2,0:0|0:0,0:0:0:0:
140,288,64589,1,8,0:0:0:0:
304,180,64759,1,0,0:0:0:0:
136,88,64930,1,2,0:0:0:0:
252,284,65100,1,2,0:0:0:0:
248,80,65271,1,8,0:0:0:0:
68,180,65441,1,0,0:0:0:0:
279,71,65611,6,0,L|387:59,1,85,2|0,0:0|0:0,0:0:0:0:
168,176,65952,2,0,L|176:268,1,85,8|0,0:0|0:0,0:0:0:0:
296,176,66293,1,2,0:0:0:0:
272,328,66464,1,2,0:0:0:0:
396,184,66634,1,8,0:0:0:0:
168,176,66805,6,0,B|192:120|192:120|256:128|288:52,1,170,4|8,0:0|0:0,0:0:0:0:
272,328,67316,1,8,0:0:0:0:
296,176,67486,1,4,0:3:0:0:
172,296,67657,5,8,0:0:0:0:
400,160,67827,1,8,0:0:0:0:
204,192,67998,1,8,0:0:0:0:
191,158,68083,1,8,0:0:0:0:
191,115,68168,1,8,0:3:0:0:
204,80,68253,1,4,0:3:0:0:
228,48,68339,6,0,P|152:36|84:100,1,170,4|8,0:0|0:0,0:0:0:0:
206,197,68850,1,0,0:0:0:0:
136,268,69021,1,2,0:0:0:0:
296,152,69191,1,2,0:0:0:0:
88,176,69361,1,8,0:0:0:0:
296,152,69532,6,0,B|344:136|388:148|364:180|412:192|464:172,1,170,2|2,0:0|0:0,0:0:0:0:
332,276,70043,2,0,L|232:276,1,85,8|0,0:0|0:0,0:0:0:0:
88,176,70384,1,2,0:0:0:0:
296,152,70555,1,2,0:0:0:0:
136,268,70725,1,8,0:0:0:0:
164,88,70896,5,0,0:0:0:0:
164,88,70981,1,0,0:0:0:0:
164,88,71066,2,0,B|208:96|208:96|240:88|240:88|284:112|344:72,1,170,2|8,0:0|0:0,0:0:0:0:
244,228,71577,1,0,0:0:0:0:
244,228,71663,1,0,0:0:0:0:
244,228,71748,1,2,0:0:0:0:
336,64,71918,1,2,0:0:0:0:
128,196,72089,1,8,0:0:0:0:
360,48,72259,6,0,P|376:88|516:76,1,170,2|2,0:0|0:0,0:0:0:0:
209,221,72771,2,0,L|93:185,1,85,8|0,0:0|0:0,0:0:0:0:
332,276,73111,2,0,L|242:358,1,85,2|2,0:0|0:0,0:0:0:0:
440,232,73452,1,8,0:0:0:0:
416,128,73623,6,0,B|371:128|371:128|335:148|335:148|280:148,1,127.5,2|0,0:0|0:0,0:0:0:0:
264,144,73964,1,2,0:0:0:0:
428,308,74134,2,0,P|464:308|508:268,1,85,8|0,0:0|0:0,0:0:0:0:
244,232,74475,1,2,0:0:0:0:
328,372,74646,1,2,0:0:0:0:
448,232,74816,1,8,0:0:0:0:
284,304,74986,1,0,0:0:0:0:
293,148,75157,6,0,B|404:168|404:168|384:104,1,170,2|8,0:0|0:0,0:0:0:0:
244,232,75668,1,0,0:0:0:0:
88,132,75839,1,2,0:0:0:0:
246,43,76009,1,2,0:0:0:0:
196,160,76180,1,8,0:0:0:0:
316,140,76350,6,0,P|356:204|280:284,1,170,2|0,0:0|0:0,0:0:0:0:
196,332,76861,1,8,0:0:0:0:
88,136,77032,1,0,0:0:0:0:
280,208,77202,1,2,0:0:0:0:
72,232,77373,1,2,0:0:0:0:
260,120,77543,1,8,0:0:0:0:
196,332,77714,1,0,0:0:0:0:
192,64,77884,5,8,0:0:0:0:
384,172,78055,1,2,0:0:0:0:
192,244,78225,1,8,0:0:0:0:
400,172,78396,1,0,0:0:0:0:
160,44,78566,1,8,0:0:0:0:
420,172,78736,1,0,0:0:0:0:
164,252,78907,1,8,0:0:0:0:
184,272,78992,1,8,0:0:0:0:
204,292,79077,1,8,0:0:0:0:
256,64,79248,5,4,0:0:0:0:
256,64,79589,2,0,P|280:108|392:84,1,170,4|2,0:0|0:0,0:0:0:0:
264,188,80100,1,8,0:0:0:0:
400,76,80271,1,8,0:3:0:0:
344,248,80441,6,0,B|316:256|296:284|296:284|232:256|172:320,1,170,4|0,0:0|0:0,0:0:0:0:
236,136,80952,1,8,0:0:0:0:
72,256,81123,1,0,0:0:0:0:
128,92,81293,1,2,0:0:0:0:
180,312,81464,1,8,0:0:0:0:
236,136,81634,1,8,0:0:0:0:
244,108,81719,1,8,0:0:0:0:
252,76,81805,1,4,0:3:0:0:
332,308,81975,5,4,0:0:0:0:
332,308,82316,2,0,B|368:268|352:232|352:232|312:204|336:144,1,170,4|0,0:0|0:0,0:0:0:0:
180,312,82827,1,8,0:0:0:0:
340,132,82998,1,8,0:3:0:0:
132,196,83168,6,0,P|96:172|136:56,1,170,4|0,0:0|0:0,0:0:0:0:
208,216,83680,1,8,0:0:0:0:
244,40,83850,1,0,0:0:0:0:
152,128,84021,1,8,0:0:0:0:
320,200,84191,1,8,0:0:0:0:
326,33,84361,1,8,0:0:0:0:
370,44,84447,1,8,0:3:0:0:
408,67,84532,1,4,0:3:0:0:
439,99,84617,1,2,0:0:0:0:
452,144,84702,5,4,0:0:0:0:
452,144,85043,2,0,B|444:188|468:216|468:216|424:248|448:312,1,170,4|2,0:0|0:0,0:0:0:0:
244,212,85555,1,8,0:0:0:0:
468,216,85725,1,8,0:3:0:0:
316,81,85896,6,0,B|268:65|216:69|244:117|196:117|132:97,1,170,4|0,0:0|0:0,0:0:0:0:
108,244,86407,1,8,0:0:0:0:
244,212,86577,1,0,0:0:0:0:
156,104,86748,1,2,0:0:0:0:
192,328,86918,1,8,0:0:0:0:
360,228,87089,1,8,0:0:0:0:
381,192,87174,1,8,0:0:0:0:
384,150,87259,1,2,0:0:0:0:
367,111,87344,1,0,3:0:0:0:
336,80,87430,6,0,B|304:88|272:72|272:72|300:140|228:196,1,170,4|8,0:0|0:0,0:0:0:0:
192,328,87941,1,0,0:0:0:0:
204,112,88111,1,2,0:0:0:0:
320,344,88282,1,8,0:0:0:0:
180,184,88452,1,8,0:0:0:0:
400,272,88623,6,0,B|344:240|348:180|348:180|280:156,1,170,4|2,0:0|0:0,0:0:0:0:
240,48,89134,5,8,0:0:0:0:
198,37,89219,1,2,0:0:0:0:
159,51,89304,1,2,0:0:0:0:
133,83,89389,1,2,0:0:0:0:
129,125,89474,1,8,0:0:0:0:
149,162,89560,1,2,0:0:0:0:
186,183,89645,1,8,0:0:0:0:
229,179,89730,1,2,0:0:0:0:
265,164,89816,5,8,0:0:0:0:
305,154,89901,1,8,0:0:0:0:
346,164,89986,1,8,0:0:0:0:
379,190,90071,1,2,0:0:0:0:
408,216,90157,6,0,P|424:176|420:124,1,85,12|0,0:0|0:0,0:0:0:0:
312,236,90498,1,8,0:0:0:0:
372,90,90668,6,0,P|351:53|309:22,1,85,2|2,0:0|0:0,0:0:0:0:
312,236,91009,1,2,0:0:0:0:
253,38,91180,6,0,P|211:29|160:42,1,85,8|0,0:0|0:0,0:0:0:0:
312,236,91521,1,2,0:0:0:0:
122,80,91691,6,0,P|88:106|65:153,1,85,2|8,0:0|0:0,0:0:0:0:
164,268,92032,1,0,0:0:0:0:
244,120,92202,5,2,0:0:0:0:
408,216,92373,1,2,0:0:0:0:
253,38,92543,1,10,0:0:0:0:
112,196,92714,1,0,0:0:0:0:
352,240,92884,6,0,L|448:268,1,85,2|0,0:0|0:0,0:0:0:0:
210,212,93225,1,8,0:0:0:0:
380,98,93396,6,0,L|396:14,1,85,0|2,0:0|0:0,0:0:0:0:
352,240,93736,1,2,0:0:0:0:
238,70,93907,6,0,L|154:53,1,85,8|0,0:0|0:0,0:0:0:0:
380,98,94248,1,2,0:0:0:0:
210,212,94418,6,0,L|193:295,1,85,2|8,0:0|0:0,0:0:0:0:
238,70,94759,1,2,0:0:0:0:
352,212,94930,5,2,0:0:0:0:
128,88,95100,1,2,0:0:0:0:
276,296,95271,1,10,0:0:0:0:
238,70,95441,1,0,0:0:0:0:
100,208,95611,6,0,L|196:184,1,85,2|0,0:0|0:0,0:0:0:0:
238,70,95952,1,8,0:0:0:0:
416,224,96123,6,0,L|320:200,1,85,0|2,0:0|0:0,0:0:0:0:
238,70,96464,1,2,0:0:0:0:
56,248,96634,6,0,L|152:224,1,85,8|0,0:0|0:0,0:0:0:0:
238,70,96975,1,2,0:0:0:0:
448,256,97146,6,0,L|352:232,1,85,0|8,0:0|0:0,0:0:0:0:
238,70,97486,1,0,0:0:0:0:
136,288,97657,1,2,0:0:0:0:
316,112,97827,1,2,0:0:0:0:
292,252,97998,1,8,0:0:0:0:
120,116,98168,1,0,0:0:0:0:
292,252,98339,6,0,P|276:204|360:160,1,127.5,2|0,0:0|0:0,0:0:0:0:
352,164,98680,1,8,0:0:0:0:
140,332,98850,2,0,L|236:296,1,85,0|2,0:0|0:0,0:0:0:0:
376,332,99191,2,0,L|296:302,1,85,0|8,0:0|0:0,0:0:0:0:
368,220,99532,2,0,P|284:192|336:124,1,170,4|8,0:0|0:0,0:0:0:0:
280,52,100043,5,8,0:0:0:0:
257,64,100128,1,0,0:0:0:0:
231,67,100214,1,2,0:0:0:0:
206,62,100299,1,2,0:0:0:0:
188,48,100384,1,8,0:0:0:0:
154,73,100469,5,0,0:0:0:0:
129,107,100555,1,8,0:3:0:0:
116,146,100640,1,4,0:3:0:0:
115,188,100725,1,8,0:0:0:0:
128,228,100810,1,8,0:0:0:0:
151,263,100896,1,4,0:3:0:0:
184,284,100981,1,2,0:0:0:0:
224,292,101066,6,0,P|288:284|320:212,1,127.5,4|0,0:0|0:0,0:0:0:0:
320,208,101407,1,8,0:0:0:0:
104,332,101577,2,0,B|104:288|104:288|128:224,1,85,0|2,0:0|0:0,0:0:0:0:
154,73,101918,2,0,L|130:157,1,85,2|8,0:0|0:0,0:0:0:0:
272,68,102259,6,0,P|316:52|364:56,1,85,0|2,0:0|0:0,0:0:0:0:
352,144,102600,2,0,P|387:174|408:217,1,85,0|8,0:0|0:0,0:0:0:0:
320,240,102941,2,0,P|311:286|284:325,1,85,0|2,0:0|0:0,0:0:0:0:
208,272,103282,2,0,P|164:288|116:284,1,85,2|8,0:0|0:0,0:0:0:0:
112,208,103623,5,0,0:0:0:0:
112,208,103708,1,0,0:0:0:0:
112,208,103793,2,0,P|96:140|136:60,1,127.5,2|0,0:0|0:0,0:0:0:0:
128,68,104134,1,8,0:0:0:0:
308,140,104305,2,0,L|352:52,1,85,0|2,0:0|0:0,0:0:0:0:
212,184,104646,2,0,L|168:272,1,85,2|8,0:0|0:0,0:0:0:0:
296,264,104986,6,0,L|400:264,1,85,0|2,0:0|0:0,0:0:0:0:
212,184,105327,2,0,L|108:184,1,85,0|8,0:0|0:0,0:0:0:0:
239,327,105668,2,0,L|296:264,1,85,0|2,0:0|0:0,0:0:0:0:
372,80,106009,2,0,L|316:144,1,85,2|8,0:0|0:0,0:0:0:0:
239,327,106350,5,0,0:0:0:0:
98,127,106521,2,0,P|172:148|228:112,1,127.5,2|0,0:0|0:0,0:0:0:0:
232,112,106861,1,8,0:0:0:0:
332,192,107032,2,0,P|368:160|376:104,1,85,0|2,0:0|0:0,0:0:0:0:
152,208,107373,2,0,L|240:208,1,85,0|8,0:0|0:0,0:0:0:0:
96,128,107714,6,0,L|44:200,1,85,0|2,0:0|0:0,0:0:0:0:
132,236,108055,2,0,L|146:323,1,85,0|8,0:0|0:0,0:0:0:0:
240,320,108396,2,0,L|311:372,1,85,0|2,0:0|0:0,0:0:0:0:
368,304,108736,2,0,L|455:289,1,85,2|8,0:0|0:0,0:0:0:0:
328,88,109077,1,0,0:0:0:0:
232,304,109248,5,2,0:0:0:0:
188,116,109418,1,0,0:0:0:0:
352,272,109589,1,8,0:0:0:0:
144,224,109759,1,0,0:0:0:0:
392,156,109930,5,2,0:0:0:0:
160,104,110100,1,2,0:0:0:0:
236,328,110271,1,8,0:0:0:0:
304,48,110441,1,4,0:0:0:0:
304,48,110782,5,8,0:0:0:0:
352,272,110952,1,8,0:0:0:0:
412,76,111123,1,4,0:3:0:0:
200,72,111293,1,8,0:0:0:0:
404,180,111464,1,4,0:3:0:0:
184,176,111634,1,8,0:0:0:0:
152,200,111719,1,8,0:0:0:0:
132,236,111805,1,8,0:0:0:0:
128,282,111890,1,8,0:0:0:0:
137,321,111975,6,0,P|201:349|261:297,1,127.5,4|0,0:0|0:0,0:0:0:0:
256,300,112316,1,4,0:3:0:0:
316,84,112486,1,0,0:0:0:0:
408,312,112657,1,2,0:0:0:0:
184,176,112827,1,8,0:0:0:0:
320,360,112998,1,0,0:0:0:0:
440,172,113168,6,0,P|392:124|312:136,1,127.5,4|0,0:0|0:0,0:0:0:0:
312,136,113509,1,8,0:0:0:0:
456,284,113680,1,8,0:0:0:0:
198,326,113850,1,4,0:3:0:0:
440,172,114021,5,8,0:0:0:0:
292,352,114191,1,2,0:0:0:0:
272,192,114361,1,8,0:0:0:0:
230,193,114447,1,8,0:0:0:0:
193,213,114532,1,8,0:0:0:0:
168,247,114617,1,8,0:0:0:0:
164,288,114702,6,0,P|188:344|260:356,1,127.5,4|0,0:3|0:0,0:0:0:0:
272,352,115043,1,4,0:3:0:0:
412,104,115214,1,0,0:0:0:0:
272,192,115384,1,2,0:0:0:0:
460,344,115555,1,8,0:0:0:0:
408,72,115725,1,0,0:0:0:0:
224,288,115896,6,0,P|176:264|172:192,1,127.5,4|0,0:0|0:0,0:0:0:0:
184,172,116236,1,8,0:0:0:0:
412,104,116407,1,8,0:0:0:0:
364,352,116577,1,4,0:3:0:0:
320,104,116748,5,8,0:0:0:0:
196,340,116918,1,8,0:0:0:0:
176,68,117089,1,8,0:0:0:0:
136,84,117174,1,8,0:0:0:0:
100,112,117259,1,8,0:0:0:0:
80,156,117344,1,8,0:0:0:0:
72,200,117430,5,4,0:0:0:0:
280,344,117600,1,0,0:0:0:0:
192,160,117771,1,8,0:0:0:0:
112,340,117941,1,0,0:0:0:0:
280,192,118111,1,2,0:0:0:0:
72,200,118282,1,2,0:0:0:0:
268,88,118452,1,8,0:0:0:0:
201,264,118623,6,0,P|261:288|273:368,1,127.5,2|0,0:0|0:0,0:0:0:0:
280,368,118964,1,2,0:0:0:0:
383,204,119134,2,0,B|359:172|359:172|356:128,1,85,8|0,0:0|0:0,0:0:0:0:
372,312,119475,1,2,0:0:0:0:
284,96,119646,1,2,0:0:0:0:
264,272,119816,1,8,0:0:0:0:
432,144,119986,1,0,0:0:0:0:
180,248,120157,6,0,P|188:200|116:132,1,127.5,2|0,0:0|0:0,0:0:0:0:
112,136,120498,1,8,0:0:0:0:
264,296,120668,1,0,0:0:0:0:
272,96,120839,1,2,0:0:0:0:
384,312,121009,1,2,0:0:0:0:
196,192,121180,1,8,0:0:0:0:
380,80,121350,6,0,P|352:140|412:224,1,170,4|0,0:0|0:0,0:0:0:0:
328,268,121861,1,8,0:0:0:0:
432,144,122032,1,0,0:0:0:0:
376,360,122202,1,8,0:0:0:0:
248,184,122373,1,0,0:0:0:0:
88,300,122543,5,8,0:0:0:0:
88,260,122628,1,8,0:0:0:0:
102,226,122714,1,8,0:0:0:0:
132,204,122799,1,8,0:0:0:0:
168,196,122884,6,0,P|221:168|209:96,1,127.5,4|0,0:0|0:0,0:0:0:0:
208,80,123225,1,8,0:0:0:0:
300,340,123396,1,0,0:0:0:0:
472,208,123566,1,4,0:3:0:0:
192,156,123736,1,8,0:0:0:0:
448,76,123907,1,0,0:0:0:0:
224,304,124077,6,0,B|172:300|172:300|148:312|148:312|76:304,1,127.5,4|0,0:0|0:0,0:0:0:0:
72,300,124418,1,8,0:0:0:0:
120,104,124589,1,8,0:0:0:0:
344,164,124759,1,4,0:3:0:0:
216,252,124930,1,8,0:0:0:0:
248,64,125100,1,2,0:0:0:0:
143,293,125271,5,8,0:0:0:0:
167,327,125356,1,8,0:0:0:0:
205,343,125441,1,8,0:0:0:0:
244,336,125526,1,8,0:0:0:0:
276,308,125611,6,0,P|324:252|400:248,1,127.5,4|0,0:3|0:0,0:0:0:0:
408,240,125952,1,4,0:3:0:0:
420,384,126123,1,0,0:0:0:0:
288,236,126293,1,2,0:0:0:0:
392,76,126464,1,8,0:0:0:0:
504,216,126634,1,0,0:0:0:0:
320,324,126805,6,0,P|260:344|176:320,1,127.5,4|0,0:0|0:0,0:0:0:0:
288,236,127146,1,8,0:0:0:0:
416,340,127316,1,8,0:0:0:0:
384,88,127486,1,0,0:0:0:0:
256,340,127657,1,8,0:0:0:0:
448,172,127827,1,4,0:3:0:0:
315,206,127998,5,8,0:0:0:0:
279,183,128083,1,8,0:0:0:0:
249,153,128168,1,8,0:0:0:0:
225,118,128253,1,8,0:0:0:0:
216,76,128339,6,0,L|316:60,1,85,4|0,0:0|0:0,0:0:0:0:
144,180,128680,2,0,L|44:196,1,85,8|0,0:0|0:0,0:0:0:0:
249,153,129021,1,2,0:0:0:0:
244,328,129191,1,2,0:0:0:0:
324,200,129361,1,8,0:0:0:0:
160,280,129532,1,0,0:0:0:0:
348,304,129702,6,0,P|392:280|412:216,1,85,2|0,0:0|0:0,0:0:0:0:
496,136,130043,2,0,L|412:148,1,85,8|0,0:0|0:0,0:0:0:0:
308,128,130299,1,0,0:0:0:0:
308,128,130384,2,0,L|224:140,1,85,2|2,0:0|0:0,0:0:0:0:
160,280,130725,1,8,0:0:0:0:
223,140,130896,1,0,0:0:0:0:
320,308,131066,1,10,0:0:0:0:
320,308,131407,5,10,0:0:0:0:
404,140,131577,1,10,0:0:0:0:
228,248,131748,1,10,0:0:0:0:
460,232,131918,5,10,0:0:0:0:
316,64,132089,1,10,0:0:0:0:
316,64,132174,1,8,0:0:0:0:
316,64,132259,1,10,0:0:0:0:
384,332,132430,5,10,0:0:0:0:
308,36,132600,1,10,0:0:0:0:
232,232,132771,1,10,0:0:0:0:
504,144,132941,1,10,0:0:0:0:
153,298,133111,5,8,0:0:0:0:
141,257,133196,1,8,0:0:0:0:
144,215,133281,1,8,0:0:0:0:
160,176,133366,1,8,0:0:0:0:
188,144,133452,1,8,0:0:0:0:
384,296,133623,5,12,0:0:0:0:
384,296,133964,2,0,B|390:318|374:345|356:362|333:371|304:379|280:366|249:347|235:324|235:291|236:271|254:246|269:228|295:221|315:220|331:225|331:225|225:166|307:136|203:90|203:90|176:148|104:136,1,637.5,4|4,0:0|0:0,0:0:0:0:
256,192,136606,12,0,137884,0:0:0:0:
352,240,139248,5,4,0:0:0:0:
256,316,140611,5,4,0:0:0:0:
160,240,141975,5,4,0:0:0:0:
332,236,142827,5,8,0:0:0:0:
316,120,142998,1,4,0:3:0:0:
328,132,143339,5,8,0:0:0:0:
348,252,143509,1,8,0:0:0:0:
440,172,143680,1,8,0:0:0:0:
152,288,144021,6,0,L|140:228,1,42.5,2|0,0:0|0:0,0:0:0:0:
128,160,144361,1,2,3:2:0:0:
332,232,144702,6,0,P|336:272|332:304,1,63.7500024318696,2|0,0:0|0:0,0:0:0:0:
251,277,145043,2,0,P|217:298|186:308,1,63.7500024318696,2|0,0:0|0:0,0:0:0:0:
176,224,145384,2,0,P|143:201|121:178,1,63.7500024318696,2|0,0:0|0:0,0:0:0:0:
192,133,145725,2,0,P|199:94|211:64,1,63.7500024318696,2|0,0:0|0:0,0:0:0:0:
344,116,146066,6,0,L|408:128,1,63.7500024318696,2|0,0:0|0:0,0:0:0:0:
360,200,146407,2,0,L|376:263,1,63.7500024318696,2|0,0:0|0:0,0:0:0:0:
288,244,146748,2,0,L|237:285,1,63.7500024318696,2|0,0:0|0:0,0:0:0:0:
213,202,147089,2,0,L|154:173,1,63.7500024318696,2|0,0:0|0:0,0:0:0:0:
136,164,147344,1,0,0:0:0:0:
120,156,147430,6,0,P|96:180|80:228,1,63.7500024318696,2|0,0:0|0:0,0:0:0:0:
156,291,147771,2,0,P|165:324|199:362,1,63.7500024318696,2|0,0:0|0:0,0:0:0:0:
292,327,148111,2,0,P|325:336|375:326,1,63.7500024318696,2|0,0:0|0:0,0:0:0:0:
392,227,148452,2,0,P|416:203|432:156,1,63.7500024318696,2|0,0:0|0:0,0:0:0:0:
296,208,148793,6,0,L|216:220,1,63.7500024318696,2|0,0:0|0:0,0:0:0:0:
332,88,149134,2,0,L|252:100,1,63.7500024318696,2|0,0:0|0:0,0:0:0:0:
136,260,149475,2,0,L|56:272,1,63.7500024318696,2|0,0:0|0:0,0:0:0:0:
172,140,149816,2,0,P|120:152|64:136,1,95.6250036478044,2|0,0:0|0:0,0:0:0:0:
124,76,150157,6,0,P|152:48|200:24,1,76.4999976654053,2|0,0:0|0:0,0:0:0:0:
224,112,150498,2,0,P|262:122|307:151,1,76.4999976654053,2|0,0:0|0:0,0:0:0:0:
232,208,150839,2,0,P|242:246|239:299,1,76.4999976654053,2|0,0:0|0:0,0:0:0:0:
152,264,151180,2,0,P|124:292|76:316,1,76.4999976654053,2|0,0:0|0:0,0:0:0:0:
152,156,151521,5,2,0:0:0:0:
52,172,151691,1,0,0:0:0:0:
236,212,151861,2,0,L|324:232,1,76.4999976654053,2|0,0:0|0:0,0:0:0:0:
248,112,152202,1,2,0:0:0:0:
120,256,152373,1,0,0:0:0:0:
236,216,152543,1,2,0:0:0:0:
136,148,152714,1,0,0:0:0:0:
256,296,152884,6,0,P|296:296|352:272,1,76.4999976654053,2|0,0:0|0:0,0:0:0:0:
432,240,153225,1,2,0:0:0:0:
280,120,153396,1,0,0:0:0:0:
280,120,153481,1,0,0:0:0:0:
280,120,153566,1,2,0:0:0:0:
196,256,153736,1,0,0:0:0:0:
360,164,153907,1,8,0:0:0:0:
200,164,154077,6,0,P|152:144|116:124,1,85,4|2,0:0|0:0,0:0:0:0:
228,308,154418,1,8,0:0:0:0:
200,164,154589,1,8,0:0:0:0:
344,288,154759,1,0,0:0:0:0:
412,116,154930,5,8,0:0:0:0:
375,138,155015,1,8,0:0:0:0:
335,152,155100,1,8,0:0:0:0:
293,156,155185,1,8,0:0:0:0:
251,152,155271,1,8,0:0:0:0:
211,138,155356,1,8,0:3:0:0:
175,116,155441,1,4,0:3:0:0:
144,87,155526,1,2,0:0:0:0:
124,48,155611,6,0,P|76:44|80:164,1,170,4|8,0:0|0:0,0:0:0:0:
140,248,156123,1,0,0:0:0:0:
172,112,156293,1,2,0:0:0:0:
288,280,156464,1,2,0:0:0:0:
312,144,156634,1,8,0:0:0:0:
140,248,156805,6,0,P|104:212|128:92,1,170,2|2,0:0|0:0,0:0:0:0:
256,76,157316,2,0,P|224:104|208:176,1,85,8|0,0:0|0:0,0:0:0:0:
296,176,157657,1,2,0:0:0:0:
216,312,157827,1,2,0:0:0:0:
304,144,157998,1,8,0:0:0:0:
392,336,158168,5,0,0:0:0:0:
392,336,158253,1,0,0:0:0:0:
392,336,158339,2,0,B|392:272|392:272|368:236|368:236|368:156,1,170,2|8,0:0|0:0,0:0:0:0:
256,276,158850,1,0,0:0:0:0:
256,276,158935,1,0,0:0:0:0:
256,276,159021,1,2,0:0:0:0:
344,60,159191,1,0,0:0:0:0:
208,136,159361,1,8,0:0:0:0:
364,133,159532,6,0,B|321:149|284:113|284:113|236:109|201:141,1,170,2|2,0:0|0:0,0:0:0:0:
344,60,160043,1,8,0:0:0:0:
156,192,160214,1,0,0:0:0:0:
356,268,160384,1,2,0:0:0:0:
240,72,160555,1,2,0:0:0:0:
224,268,160725,1,8,0:0:0:0:
116,68,160896,6,0,P|83:121|23:139,1,127.5,2|0,0:0|0:0,0:0:0:0:
0,136,161236,1,2,0:0:0:0:
160,332,161407,2,0,L|136:236,1,85,8|0,0:0|0:0,0:0:0:0:
208,88,161748,1,2,0:0:0:0:
392,188,161918,1,2,0:0:0:0:
308,32,162089,1,8,0:0:0:0:
420,208,162259,5,0,0:0:0:0:
420,208,162344,1,0,0:0:0:0:
420,208,162430,2,0,P|424:256|304:300,1,170,2|8,0:0|0:0,0:0:0:0:
212,184,162941,1,0,0:0:0:0:
352,240,163111,1,2,0:0:0:0:
228,320,163282,1,2,0:0:0:0:
312,148,163452,1,8,0:0:0:0:
212,184,163623,6,0,P|152:184|104:248,1,127.5
108,264,163964,1,2,0:0:0:0:
352,240,164134,1,8,0:0:0:0:
212,184,164305,1,0,0:0:0:0:
404,180,164475,1,2,0:0:0:0:
232,88,164646,1,2,0:0:0:0:
296,288,164816,1,8,0:0:0:0:
320,128,164986,1,0,0:0:0:0:
240,344,165157,5,2,0:0:0:0:
484,152,165327,1,8,0:0:0:0:
460,352,165498,1,8,0:0:0:0:
284,168,165668,1,0,0:0:0:0:
152,328,165839,5,8,0:0:0:0:
126,293,165924,1,8,0:0:0:0:
111,254,166009,1,4,0:3:0:0:
108,212,166094,1,4,0:3:0:0:
116,170,166180,1,8,0:0:0:0:
134,132,166265,1,8,0:0:0:0:
163,101,166350,1,8,0:0:0:0:
199,78,166435,1,8,0:0:0:0:
240,68,166521,5,12,0:0:0:0:
96,128,166691,1,2,0:0:0:0:
288,184,166861,5,8,0:0:0:0:
80,136,167032,1,2,0:0:0:0:
224,296,167202,5,8,0:0:0:0:
60,148,167373,1,2,0:0:0:0:
124,344,167543,5,8,0:0:0:0:
44,160,167714,1,2,0:0:0:0:
352,120,167884,5,8,0:0:0:0:
124,204,168055,1,2,0:0:0:0:
180,56,168225,5,8,0:0:0:0:
232,304,168396,1,2,0:0:0:0:
316,32,168566,5,8,0:0:0:0:
64,76,168736,1,2,0:0:0:0:
368,204,168907,5,8,0:0:0:0:
368,204,168992,1,8,0:3:0:0:
368,204,169077,2,0,P|392:180|408:148,1,50.9999984436036,4|2,0:3|0:0,0:0:0:0:
424,104,169248,5,8,0:0:0:0:
232,64,169418,1,2,0:0:0:0:
412,204,169589,5,8,0:0:0:0:
212,88,169759,1,2,0:0:0:0:
320,292,169930,5,8,0:0:0:0:
192,112,170100,1,2,0:0:0:0:
192,344,170271,5,8,0:0:0:0:
172,136,170441,1,2,0:0:0:0:
404,44,170611,5,8,0:0:0:0:
204,136,170782,1,2,0:0:0:0:
452,200,170952,5,8,0:0:0:0:
188,136,171123,1,2,0:0:0:0:
432,28,171293,5,8,0:0:0:0:
172,136,171464,1,2,0:0:0:0:
424,216,171634,5,8,0:0:0:0:
424,216,171719,1,8,0:3:0:0:
424,216,171805,2,0,P|380:216|344:200,1,50.9999984436036,4|2,0:3|0:0,0:0:0:0:
312,172,171975,5,8,0:0:0:0:
128,260,172146,1,2,0:0:0:0:
344,280,172316,5,8,0:0:0:0:
140,184,172486,1,2,0:0:0:0:
424,136,172657,5,8,0:0:0:0:
48,244,172827,1,2,0:0:0:0:
460,256,172998,5,8,0:0:0:0:
60,168,173168,1,2,0:0:0:0:
372,68,173339,5,8,0:0:0:0:
128,260,173509,1,2,0:0:0:0:
476,196,173680,5,8,0:0:0:0:
228,64,173850,1,2,0:0:0:0:
224,272,174021,5,8,0:0:0:0:
412,56,174191,1,8,0:0:0:0:
400,360,174361,1,8,0:0:0:0:
228,64,174532,5,8,0:0:0:0:
228,64,174617,1,8,0:0:0:0:
228,64,174702,2,0,B|320:24|320:112|428:48,1,191.250007295609,4|0,0:0|0:0,0:0:0:0:
276,152,175384,6,0,B|236:136|204:156|204:156|172:136|172:136|132:152|88:124,1,191.250007295609,4|8,0:0|0:0,0:0:0:0:
88,324,176066,5,2,0:0:0:0:
200,220,176236,1,12,0:0:0:0:
244,352,176577,5,0,0:0:0:0:
88,324,176748,1,4,0:0:0:0:
200,220,176918,1,0,0:0:0:0:
168,332,177089,1,8,0:0:0:0:
252,156,177259,6,0,L|72:156,1,170,4|2,0:0|0:0,0:0:0:0:
168,56,177771,2,0,P|216:44|256:48,1,85,8|0,0:0|0:0,0:0:0:0:
424,216,178111,1,2,0:0:0:0:
240,152,178282,1,2,0:0:0:0:
372,48,178452,1,8,0:0:0:0:
320,204,178623,1,0,0:0:0:0:
212,268,178793,6,0,P|164:256|76:288,1,127.5,2|0,0:0|0:0,0:0:0:0:
112,184,179134,2,0,P|112:136|140:88,1,85,8|0,0:0|0:0,0:0:0:0:
308,120,179475,1,2,0:0:0:0:
124,100,179646,1,2,0:0:0:0:
300,232,179816,1,8,0:0:0:0:
112,216,179986,6,0,P|88:276|164:340,1,170,4|0,0:0|0:0,0:0:0:0:
272,256,180498,2,0,L|184:256,1,85,4|0,0:0|0:0,0:0:0:0:
220,88,180839,1,2,0:0:0:0:
112,216,181009,1,2,0:0:0:0:
320,132,181180,1,8,0:0:0:0:
124,128,181350,1,0,0:0:0:0:
320,217,181521,6,0,L|320:129,1,85,2|0,0:0|0:0,0:0:0:0:
112,216,181861,1,8,0:0:0:0:
220,88,182032,1,0,0:0:0:0:
176,304,182202,1,2,0:0:0:0:
316,216,182373,1,2,0:0:0:0:
120,124,182543,1,8,0:0:0:0:
360,152,182714,1,10,0:0:0:0:
360,152,183055,5,10,0:0:0:0:
228,308,183225,1,10,0:0:0:0:
260,120,183396,5,10,0:0:0:0:
308,348,183566,1,10,0:0:0:0:
448,168,183736,5,10,0:0:0:0:
192,212,183907,1,10,0:0:0:0:
376,60,184077,1,10,0:0:0:0:
304,240,184248,5,8,0:0:0:0:
180,68,184418,1,8,0:0:0:0:
178,286,184589,5,8,0:0:0:0:
344,76,184759,1,8,0:0:0:0:
192,140,184930,5,4,0:3:0:0:
162,170,185015,1,8,0:0:0:0:
124,187,185100,1,8,0:0:0:0:
81,190,185185,1,8,0:0:0:0:
41,177,185271,1,8,0:0:0:0:
256,328,185441,5,4,0:0:0:0:
256,192,185526,12,8,186634,0:0:0:0:
256,192,186805,5,8,0:0:0:0:
