osu file format v14

[General]
AudioFilename: .mp3
AudioLeadIn: 0
PreviewTime: 64846
Countdown: 0
SampleSet: Soft
StackLeniency: 0.8
Mode: 0
LetterboxInBreaks: 0
WidescreenStoryboard: 0

[Editor]
Bookmarks: 201638
DistanceSpacing: 1.1
BeatDivisor: 4
GridSize: 4
TimelineZoom: 1.6

[Metadata]
Title:Love Trial
TitleUnicode:恋愛裁判
Artist:40mP feat.Hatsune Miku
ArtistUnicode:40mP feat.初音ミク
Creator:Hikari-
Version:Insane
Source:Vocaloid
Tags:Renai Saiban
BeatmapID:1101545
BeatmapSetID:518398

[Difficulty]
HPDrainRate:6
CircleSize:4.3
OverallDifficulty:8
ApproachRate:9
SliderMultiplier:1.7
SliderTickRate:1

[Events]
//Background and Video events
0,0,"bg.jpg",0,0
//Break Periods
2,167808,173724
//Storyboard Layer 0 (Background)
//Storyboard Layer 1 (Fail)
//Storyboard Layer 2 (Pass)
//Storyboard Layer 3 (Foreground)
//Storyboard Sound Samples

[TimingPoints]
1041,447.761194029851,4,2,1,40,1,0
5966,-100,4,2,1,70,0,0
21414,-200,4,2,1,60,0,0
22533,-100,4,2,1,60,0,0
51190,-100,4,2,1,40,0,0
61936,-100,4,2,1,70,0,0
65070,-100,4,2,1,50,0,0
65518,-83.3333333333333,4,2,1,70,0,1
79399,-133.333333333333,4,2,1,60,0,0
79846,-100,4,2,1,60,0,0
94175,-133.333333333333,4,2,1,60,0,0
97757,-100,4,2,1,60,0,0
151488,-83.3333333333333,4,2,1,60,0,1
167608,-83.3333333333333,4,2,1,60,0,0
174324,-133.333333333333,4,2,1,60,0,0
180145,-66.6666666666667,4,2,1,60,0,0
183167,-133.333333333333,4,2,1,60,0,0
183727,-83.3333333333333,4,2,1,60,0,1
196264,-74.0740740740741,4,2,1,60,0,0
197160,-66.6666666666667,4,2,1,60,0,0
198055,-66.6666666666667,4,2,1,60,0,1
210593,-133.333333333333,4,2,1,60,0,1
210929,-66.6666666666667,4,2,1,60,0,1
211488,-133.333333333333,4,2,1,60,0,1
212384,-66.6666666666667,4,2,1,60,0,1
213279,-100,4,2,1,60,0,1
215518,-66.6666666666667,4,2,1,60,0,1
215966,-100,4,2,1,60,0,0

[Colours]
Combo1 : 255,128,255
Combo2 : 0,128,128
Combo3 : 0,180,255
Combo4 : 128,64,64
Combo5 : 192,192,192
Combo6 : 255,128,64

[HitObjects]
64,304,1041,54,0,P|54:262|62:221,1,85,2|0,0:0|0:0,0:0:0:0:
216,216,1376,2,0,P|174:209|137:188,1,85,10|0,0:0|0:0,0:0:0:0:
76,136,1712,2,0,P|112:68|204:64,1,170,2|0,0:2|0:0,0:0:0:0:
356,120,2384,2,0,L|272:132,1,85
376,228,2832,70,0,P|420:244|476:228,1,85,2|0,0:0|0:0,0:0:0:0:
292,268,3167,2,0,P|305:312|352:347,1,85,10|0,0:0|0:0,0:0:0:0:
248,192,3503,2,0,P|200:228|184:348,1,170,2|0,0:0|0:0,0:0:0:0:
32,216,4175,2,0,P|72:208|120:184,1,85
84,28,4623,6,0,L|64:112,1,85,2|0,0:0|0:0,0:0:0:0:
164,92,4958,2,0,L|196:184,1,85,10|0,0:0|0:0,0:0:0:0:
248,48,5294,2,0,P|328:77|416:96,1,170,2|0,0:0|0:0,0:0:0:0:
464,244,5966,6,0,L|444:304,1,42.5,2|0,0:0|0:0,0:0:0:0:
364,340,6190,2,0,L|377:299,1,42.5,0|0,1:0|1:0,0:0:0:0:
332,232,6414,1,2,0:1:0:0:
332,232,6525,1,0,0:0:0:0:
204,352,6749,6,0,L|140:344,1,42.5,2|8,0:1|0:0,0:0:0:0:
48,124,7085,1,8,0:3:0:0:
144,88,7309,1,4,0:3:0:0:
248,48,7533,2,0,L|216:216,1,170,4|8,0:0|0:0,0:0:0:0:
160,276,8093,1,8,0:0:0:0:
160,276,8205,6,0,P|112:248|24:232,1,127.5,4|0,0:0|1:0,0:0:0:0:
42,232,8652,2,0,L|32:292,1,42.5,8|0,0:0|0:0,0:0:0:0:
136,156,8876,2,0,P|124:112|88:36,1,127.5,2|0,0:0|0:0,0:0:0:0:
64,16,9324,1,2,1:0:0:0:
28,144,9548,1,8,0:0:0:0:
196,40,9772,2,0,P|219:51|240:68,1,42.5,0|8,1:0|1:2,1:0:0:0:
320,108,9996,6,0,P|368:64|448:44,1,127.5,2|0,0:0|1:0,0:0:0:0:
426,44,10443,2,0,L|440:92,1,42.5,8|0,0:0|0:0,0:0:0:0:
424,260,10667,2,0,B|400:176|400:176|376:212,1,127.5,4|0,0:0|0:0,0:0:0:0:
384,336,11115,1,2,0:1:0:0:
410,347,11226,1,0,0:0:0:0:
440,347,11338,1,8,0:0:0:0:
292,148,11563,2,0,L|308:200,1,42.5,0|8,1:0|1:2,0:0:0:0:
320,272,11787,70,0,P|280:304|184:316,1,127.5,2|0,0:0|1:0,0:0:0:0:
206,319,12235,2,0,L|188:244,1,42.5,8|0,0:0|0:0,0:0:0:0:
96,140,12458,2,0,P|80:204|72:272,1,127.5,2|0,0:0|0:0,0:0:0:0:
80,296,12906,1,2,1:0:0:0:
272,208,13130,1,8,0:0:0:0:
172,44,13354,6,0,P|180:72|196:100,1,42.5,2|0,1:2|1:0,1:0:0:0:
264,120,13578,1,2,1:0:0:0:
264,120,13690,1,0,0:0:0:0:
412,48,13914,2,0,P|376:80|348:128,1,85,8|2,0:0|1:0,0:0:0:0:
368,236,14249,70,0,P|360:212|344:188,1,42.5,2|8,0:0|0:0,1:0:0:0:
192,168,14473,1,0,1:0:0:0:
316,344,14697,2,0,P|357:336|412:332,1,85,2|8,1:0|0:0,0:0:0:0:
276,228,15145,2,0,L|272:288,1,42.5,0|8,1:0|1:2,1:0:0:0:
316,344,15369,6,0,P|264:312|172:300,1,127.5,2|0,0:0|1:0,0:0:0:0:
132,328,15817,2,0,L|72:352,1,42.5,8|0,0:0|0:0,0:0:0:0:
48,260,16041,2,0,L|188:204,1,127.5,4|0,0:0|0:0,0:0:0:0:
208,124,16488,2,0,P|188:116|160:112,1,42.5,2|0,1:0|0:0,0:0:0:0:
60,172,16712,2,0,P|79:157|94:136,1,42.5,8|0,0:0|0:0,0:0:0:0:
96,16,16936,2,0,P|100:36|109:63,1,42.5,2|0,1:0|0:0,0:0:0:0:
256,260,17160,70,0,P|276:204|328:152,1,127.5,0|0,1:0|1:0,0:0:0:0:
396,140,17608,2,0,L|424:180,1,42.5,8|0,0:0|0:0,0:0:0:0:
484,280,17832,2,0,P|427:260|360:248,1,127.5,4|0,0:0|0:0,0:0:0:0:
256,348,18279,1,2,1:0:0:0:
288,336,18391,1,0,0:0:0:0:
316,312,18503,1,8,0:0:0:0:
121,222,18727,2,0,L|112:264,1,42.5,0|8,1:0|1:2,0:0:0:0:
160,336,18951,6,0,P|102:311|24:308,1,127.5,4|0,0:0|1:0,0:0:0:0:
38,306,19399,1,8,0:0:0:0:
224,212,19623,1,2,0:0:0:0:
83,31,19846,2,0,L|71:183,1,127.5,4|0,0:0|1:0,0:0:0:0:
73,159,20294,1,8,0:0:0:0:
312,52,20518,1,2,0:0:0:0:
164,188,20742,70,0,L|188:288,1,85,4|0,0:0|0:0,0:0:0:0:
292,188,21078,2,0,L|344:268,1,85,8|0,1:2|0:0,0:0:0:0:
392,116,21414,54,0,L|500:132,1,85,14|0,0:0|1:0,0:0:0:0:
512,136,21973,1,2,0:0:0:0:
276,40,22197,5,0,1:0:0:0:
276,40,22309,1,2,0:0:0:0:
168,264,22533,54,0,L|180:124,1,127.5,4|0,0:0|1:0,0:0:0:0:
184,60,22981,1,8,0:0:0:0:
344,224,23205,1,0,0:0:0:0:
344,224,23317,1,0,0:0:0:0:
344,224,23429,2,0,P|302:238|268:264,1,85,0|0,1:0|0:0,0:0:0:0:
224,324,23764,1,8,0:0:0:0:
452,272,24100,70,0,L|432:92,1,170,4|0,0:0|1:0,0:0:0:0:
433,103,24660,1,0,0:0:0:0:
433,103,24772,1,8,0:0:0:0:
352,48,24996,1,0,1:0:0:0:
268,112,25220,2,0,L|256:200,1,85,0|0,1:0|0:0,0:0:0:0:
192,44,25555,2,0,P|152:44|100:72,1,85,8|0,0:0|0:0,0:0:0:0:
68,140,25891,1,8,0:0:0:0:
72,152,26003,1,8,0:0:0:0:
76,164,26115,6,0,L|56:260,1,85,4|0,0:0|0:0,0:0:0:0:
80,320,26451,1,0,1:0:0:0:
80,320,26563,1,8,0:0:0:0:
248,196,26787,2,0,L|192:188,1,42.5
184,348,27011,2,0,P|236:332|288:328,1,85,0|0,1:0|0:0,0:0:0:0:
344,340,27346,1,8,0:0:0:0:
148,256,27682,69,2,0:0:0:0:
248,196,27906,1,2,0:0:0:0:
152,136,28130,1,0,1:0:0:0:
148,256,28354,1,8,0:0:0:0:
240,100,28578,2,0,L|228:52,1,42.5,0|4,1:0|0:0,0:0:0:0:
80,200,28802,1,0,0:0:0:0:
312,264,29026,1,0,1:0:0:0:
476,64,29249,1,8,0:0:0:0:
455,60,29360,1,8,0:0:0:0:
434,54,29472,1,8,0:0:0:0:
415,46,29584,1,8,0:0:0:0:
396,36,29697,6,0,P|360:92|360:196,1,170,4|8,0:0|0:0,0:0:0:0:
456,328,30369,1,0,0:0:0:0:
456,328,30481,1,0,0:0:0:0:
456,328,30593,2,0,P|418:304|368:292,1,85,0|0,1:0|0:0,0:0:0:0:
304,320,30929,1,8,0:0:0:0:
48,224,31264,69,0,1:0:0:0:
136,360,31488,2,0,L|132:272,1,85,2|0,0:0|1:0,0:0:0:0:
124,124,31936,1,8,0:0:0:0:
332,188,32160,1,0,0:0:0:0:
332,188,32272,1,0,0:0:0:0:
332,188,32384,1,0,1:0:0:0:
40,312,32720,37,8,0:0:0:0:
220,64,33055,53,8,0:0:0:0:
220,64,33167,1,8,0:0:0:0:
220,64,33279,2,0,L|224:168,1,85,4|0,0:0|0:0,0:0:0:0:
228,228,33615,1,0,1:0:0:0:
228,228,33727,1,8,0:0:0:0:
396,344,33951,2,0,L|448:340,1,42.5,0|8,0:0|0:0,0:0:0:0:
400,220,34175,2,0,P|364:236|328:280,1,85,2|0,1:2|1:0,0:0:0:0:
272,360,34623,1,8,0:0:0:0:
92,312,34846,1,0,0:0:0:0:
104,300,34958,1,0,0:0:0:0:
116,288,35070,70,0,L|104:180,1,85,4|0,0:0|0:0,0:0:0:0:
116,60,35518,1,8,0:0:0:0:
116,60,35630,2,0,L|124:120,1,42.5
184,168,35854,2,0,P|228:152|276:152,1,85,2|0,1:2|0:0,0:0:0:0:
324,200,36190,2,0,L|328:272,1,42.5,2|0,0:0|0:0,0:0:0:0:
424,148,36414,2,0,L|436:204,1,42.5,2|0,0:0|0:0,0:0:0:0:
344,64,36638,2,0,L|336:124,1,42.5,10|8,0:0|0:0,0:0:0:0:
444,108,36861,6,0,L|460:252,1,127.5,4|0,0:0|1:0,0:0:0:0:
464,268,37309,1,8,0:0:0:0:
200,44,37757,2,0,L|184:188,1,127.5,0|8,1:0|0:0,0:0:0:0:
368,276,38429,5,4,0:0:0:0:
188,370,38876,53,0,1:0:0:0:
60,272,39100,1,8,0:0:0:0:
204,152,39324,2,0,L|196:208,1,42.5
188,280,39548,2,0,P|228:268|288:264,1,85,0|0,1:0|0:0,0:0:0:0:
116,200,39884,2,0,P|72:184|20:184,1,85,8|0,0:0|0:0,0:0:0:0:
128,72,40220,1,8,0:0:0:0:
156,76,40332,1,8,0:0:0:0:
188,68,40443,6,0,P|222:45|268:32,1,85,4|0,0:0|0:0,0:0:0:0:
340,48,40779,1,0,1:0:0:0:
340,48,40891,1,8,0:0:0:0:
488,224,41115,1,0,0:0:0:0:
488,84,41339,2,0,P|452:96|412:140,1,85,0|0,1:0|0:0,0:0:0:0:
376,192,41675,1,8,0:0:0:0:
432,332,42011,69,2,0:0:0:0:
348,276,42235,1,2,0:0:0:0:
260,316,42458,2,0,L|268:360,1,42.5,0|0,1:0|1:0,0:0:0:0:
172,344,42682,1,8,0:0:0:0:
96,280,42906,2,0,L|112:228,1,42.5,0|4,1:0|0:0,0:0:0:0:
4,276,43130,1,0,0:0:0:0:
80,76,43354,1,0,1:0:0:0:
200,248,43578,1,8,0:0:0:0:
32,184,43802,1,8,0:0:0:0:
64,160,43914,1,8,0:0:0:0:
108,160,44026,6,0,P|151:160|204:152,1,85,4|0,0:0|0:0,0:0:0:0:
252,104,44361,1,0,1:0:0:0:
252,104,44473,1,8,0:0:0:0:
456,192,44697,1,0,0:0:0:0:
400,40,44921,2,0,L|392:152,1,85,8|0,1:2|0:0,0:0:0:0:
304,184,45257,2,0,L|316:292,1,85,8|0,0:0|0:0,0:0:0:0:
460,352,45593,70,0,P|476:288|492:172,1,170,4|0,0:0|1:0,0:0:0:0:
490,185,46152,1,0,0:0:0:0:
490,185,46264,1,8,0:0:0:0:
392,288,46488,1,0,0:0:0:0:
276,112,46712,2,0,P|316:120|360:144,1,85,0|0,1:0|0:0,0:0:0:0:
400,200,47048,1,8,0:0:0:0:
400,200,47160,1,8,0:0:0:0:
256,344,47384,1,8,0:0:0:0:
256,344,47496,1,8,0:0:0:0:
256,344,47608,1,4,0:0:0:0:
68,208,47832,6,0,L|72:260,1,42.5,0|0,1:0|0:0,0:0:0:0:
140,344,48055,2,0,P|144:301|160:232,1,85,8|0,0:0|1:0,0:0:0:0:
224,224,48391,1,8,0:0:0:0:
304,232,48503,2,0,P|348:220|392:184,1,85,0|0,0:0|1:0,0:0:0:0:
352,32,48951,1,8,0:0:0:0:
280,152,49175,1,0,0:0:0:0:
72,64,49399,70,0,P|120:48|216:40,1,127.5,4|0,0:0|1:0,0:0:0:0:
268,64,49846,1,0,0:0:0:0:
268,64,49958,1,8,0:0:0:0:
428,168,50182,21,2,0:0:0:0:
428,168,50294,2,0,L|380:180,1,42.5,8|0,0:0|1:0,0:0:0:0:
204,124,50518,5,4,0:0:0:0:
296,160,50742,5,8,0:3:0:0:
336,252,50966,5,4,0:3:0:0:
312,348,51190,22,0,P|272:344|220:304,1,85,0|0,1:0|0:0,0:0:0:0:
168,292,51526,2,0,P|180:320|188:400,1,85,8|0,0:1|0:0,0:0:0:0:
104,352,51861,2,0,P|60:304|88:208,1,170,8|0,0:0|0:0,0:0:0:0:
236,236,52533,1,0,0:0:0:0:
68,124,52757,1,0,0:0:0:0:
236,236,52981,70,0,L|212:116,1,85,0|0,1:0|0:0,0:0:0:0:
170,20,53317,2,0,L|152:104,1,85,8|0,0:1|0:0,0:0:0:0:
384,120,53652,2,0,P|328:64|236:76,1,170,8|2,0:0|0:1,0:0:0:0:
96,208,54324,2,0,L|144:192,1,42.5,8|0,0:0|0:0,0:0:0:0:
300,144,54548,1,0,0:0:0:0:
252,356,54772,6,0,P|236:320|240:256,1,85,0|0,1:0|0:0,0:0:0:0:
376,240,55108,2,0,P|356:272|300:296,1,85,8|0,0:1|0:0,0:0:0:0:
196,100,55443,2,0,P|252:112|288:216,1,170,8|0,0:0|0:0,0:0:0:0:
136,356,56115,1,8,0:0:0:0:
200,192,56339,1,0,0:0:0:0:
200,192,56451,1,0,0:0:0:0:
200,192,56563,70,0,L|96:176,1,85,0|0,1:0|0:0,0:0:0:0:
40,216,56899,2,0,P|29:261|32:304,1,85,8|0,0:1|0:0,0:0:0:0:
54,138,57235,2,0,P|70:74|62:10,1,127.5,8|0,0:0|0:0,0:0:0:0:
63,13,57682,1,2,1:0:0:0:
63,13,57794,1,0,1:0:0:0:
240,96,58018,1,2,1:0:0:0:
240,96,58130,1,0,0:0:0:0:
164,224,58354,6,0,L|288:204,1,85,0|0,1:0|0:0,0:0:0:0:
312,148,58690,2,0,P|332:188|328:248,1,85,8|0,0:1|0:0,0:0:0:0:
272,352,59026,2,0,P|256:288|284:348,1,170,8|0,0:0|0:0,0:0:0:0:
144,352,59697,1,8,0:0:0:0:
400,292,59921,1,0,0:0:0:0:
376,92,60145,70,0,L|348:188,1,85,0|0,1:0|0:0,0:0:0:0:
360,208,60481,1,0,0:0:0:0:
360,208,60593,1,8,0:1:0:0:
280,64,60817,2,0,P|240:68|144:28,1,127.5,8|0,0:0|0:0,0:0:0:0:
158,40,61264,2,0,L|128:104,1,42.5,2|0,1:0|0:0,0:0:0:0:
60,124,61488,2,0,L|76:204,1,42.5,2|0,0:0|0:0,0:0:0:0:
128,240,61712,1,8,0:0:0:0:
128,240,61824,1,8,0:0:0:0:
128,240,61936,22,0,L|120:336,1,85,4|0,0:0|1:0,0:0:0:0:
152,348,62272,2,0,P|192:336|252:332,1,85,2|0,0:0|1:0,0:0:0:0:
416,264,62608,2,0,P|354:249|252:236,1,127.5,8|0,0:0|0:0,0:0:0:0:
216,248,63055,1,0,1:0:0:0:
216,248,63167,1,0,1:0:0:0:
216,248,63279,2,0,L|200:172,1,42.5,8|0,0:0|0:0,0:0:0:0:
264,104,63503,2,0,L|280:180,1,42.5,2|0,0:0|0:0,0:0:0:0:
116,232,63727,6,0,L|88:128,1,85,12|0,0:0|0:0,0:0:0:0:
300,264,64063,2,0,L|328:368,1,85,12|0,0:0|0:0,0:0:0:0:
420,64,64399,1,12,0:0:0:0:
116,232,64846,53,0,0:0:0:0:
352,184,65070,1,8,0:0:0:0:
352,184,65182,1,8,0:0:0:0:
128,44,65518,38,0,L|124:168,1,101.999996887207,2|0,1:2|0:0,0:0:0:0:
67,216,65854,1,0,1:0:0:0:
67,216,65966,2,0,P|93:227|131:232,1,50.9999984436036,8|0,0:0|0:0,0:0:0:0:
327,231,66190,2,0,P|287:183|179:183,1,152.999995330811,4|0,0:0|1:0,0:0:0:0:
201,173,66638,2,0,L|196:240,1,50.9999984436036,0|0,1:0|0:0,0:0:0:0:
256,360,66861,2,0,L|260:308,1,50.9999984436036,8|0,0:0|0:0,0:0:0:0:
328,232,67085,1,0,0:0:0:0:
480,264,67309,6,0,P|456:316|408:356,1,101.999996887207,2|0,1:2|0:0,0:0:0:0:
352,368,67645,1,0,1:0:0:0:
352,368,67757,2,0,L|340:309,1,50.9999984436036,8|0,0:0|0:0,0:0:0:0:
264,132,67981,2,0,B|312:112|312:112|416:160,1,152.999995330811,4|0,0:0|0:0,0:0:0:0:
403,154,68429,2,0,L|412:96,1,50.9999984436036,2|0,1:2|0:0,0:0:0:0:
276,32,68652,1,8,0:0:0:0:
320,216,68876,1,2,0:0:0:0:
128,144,69100,70,0,L|148:280,1,101.999996887207,12|0,1:2|0:0,0:0:0:0:
156,328,69436,2,0,L|92:340,1,50.9999984436036,0|8,1:0|0:0,0:0:0:0:
320,300,69772,1,0,1:0:0:0:
200,56,69996,6,0,L|214:156,1,101.999996887207,4|0,1:2|0:0,0:0:0:0:
232,236,70332,2,0,L|282:226,1,50.9999984436036,0|8,1:0|0:0,0:0:0:0:
60,264,70668,1,0,1:0:0:0:
128,144,70891,70,0,L|142:244,1,101.999996887207,8|0,1:2|0:0,0:0:0:0:
156,324,71227,2,0,L|92:336,1,50.9999984436036,0|8,1:0|0:0,0:0:0:0:
240,312,71563,1,0,1:0:0:0:
40,176,71787,53,2,1:0:0:0:
40,176,71899,1,0,1:0:0:0:
303,85,72123,6,0,L|295:137,1,50.9999984436036,8|8,0:0|0:0,0:0:0:0:
296,136,72346,2,0,L|180:112,1,101.999996887207,4|0,1:2|0:0,0:0:0:0:
144,56,72682,6,0,P|156:120|184:220,1,152.999995330811,2|0,1:2|1:0,0:0:0:0:
178,204,73130,2,0,L|95:189,1,50.9999984436036,8|0,0:0|0:0,0:0:0:0:
204,300,73354,2,0,P|272:275|372:264,1,152.999995330811,4|0,0:0|0:0,0:0:0:0:
351,264,73802,2,0,L|392:328,1,50.9999984436036,0|0,1:0|0:0,0:0:0:0:
308,352,74026,1,8,0:0:0:0:
400,180,74249,2,0,L|440:243,1,50.9999984436036
484,148,74473,6,0,L|316:120,1,152.999995330811,2|0,0:0|1:0,0:0:0:0:
333,122,74921,2,0,L|332:68,1,50.9999984436036,8|0,0:0|0:0,0:0:0:0:
420,56,75145,1,0,1:0:0:0:
272,200,75369,2,0,P|248:160|244:96,1,101.999996887207,2|0,0:0|0:0,0:0:0:0:
242,105,75705,1,0,1:0:0:0:
242,105,75817,1,8,0:0:0:0:
380,232,76041,1,0,0:0:0:0:
188,248,76264,70,0,P|140:232|76:228,1,101.999996887207,2|0,1:2|0:0,0:0:0:0:
89,227,76600,1,0,1:0:0:0:
89,227,76712,1,8,0:0:0:0:
193,344,76936,2,0,P|249:328|261:188,1,203.999993774414,4|8,0:0|0:3,0:0:0:0:
64,80,77608,2,0,P|77:101|108:128,1,50.9999984436036,8|8,0:0|0:0,0:0:0:0:
196,68,77832,2,0,P|221:79|264:84,1,50.9999984436036,8|0,0:0|0:0,0:0:0:0:
352,44,78055,6,0,L|468:40,1,101.999996887207,12|0,0:0|0:0,0:0:0:0:
484,36,78391,1,8,0:0:0:0:
320,324,79287,1,8,0:0:0:0:
304,304,79399,6,0,P|295:267|292:224,1,63.7500024318696,4|0,1:3|0:0,0:0:0:0:
292,241,79846,54,0,P|252:236|176:192,1,127.5
160,160,80294,1,0,0:0:0:0:
340,28,80518,2,0,L|352:164,1,127.5
354,190,80966,1,0,0:0:0:0:
256,64,81190,1,0,0:0:0:0:
440,152,81414,1,0,0:0:0:0:
256,168,81638,6,0,P|228:204|208:268,1,85
220,280,81973,1,0,0:0:0:0:
220,280,82085,1,0,0:0:0:0:
424,360,82309,2,0,P|400:304|288:248,1,170
309,249,82869,1,0,0:0:0:0:
309,249,82981,1,0,0:0:0:0:
276,352,83205,1,0,0:0:0:0:
168,356,83429,70,0,P|136:320|120:236,1,127.5
132,212,83876,1,0,0:0:0:0:
248,48,84100,2,0,L|240:192,1,127.5
236,256,84548,2,0,L|293:254,1,42.5
492,248,84772,1,0,0:0:0:0:
340,160,84996,1,0,0:0:0:0:
248,332,85220,5,0,0:0:0:0:
260,356,85332,1,0,0:0:0:0:
492,248,85555,1,0,0:0:0:0:
264,163,85779,1,0,0:0:0:0:
240,175,85891,1,0,0:0:0:0:
492,248,86115,69,0,0:0:0:0:
156,328,86339,1,0,0:0:0:0:
156,100,86563,2,0,P|167:124|176:156,1,42.5
72,256,86787,1,0,0:0:0:0:
72,256,86899,1,0,0:0:0:0:
72,256,87011,6,0,P|108:236|184:224,1,85
216,264,87346,2,0,L|264:300,1,42.5
464,336,87682,2,0,P|480:272|456:180,1,127.5
424,156,88130,1,0,0:0:0:0:
360,296,88354,2,0,L|348:368,1,42.5
300,224,88578,1,0,0:0:0:0:
124,284,88802,70,0,P|80:272|52:232,1,85
48,168,89138,2,0,L|60:88,1,42.5
356,212,89473,2,0,P|316:224|216:220,1,127.5
176,176,89921,2,0,L|124:192,1,42.5
224,320,90145,1,0,0:0:0:0:
280,132,90369,1,0,0:0:0:0:
412,280,90593,6,0,P|432:240|432:184,1,85
416,124,90929,2,0,L|396:52,1,42.5
156,140,91264,2,0,P|184:180|264:224,1,127.5
324,192,91712,1,0,0:0:0:0:
324,192,91824,1,0,0:0:0:0:
324,192,91936,1,0,0:0:0:0:
204,56,92160,69,0,0:0:0:0:
136,328,92384,1,0,0:0:0:0:
136,328,92496,1,0,0:0:0:0:
136,328,92608,2,0,L|208:320,1,42.5
256,208,92832,2,0,L|184:216,1,42.5
128,176,93055,2,0,L|132:236,1,42.5
264,312,93279,1,0,0:0:0:0:
448,160,93503,70,0,P|380:136|360:40,1,170
357,47,94175,54,0,P|324:76|252:92,1,95.6250036478044
236,76,94623,1,0,0:0:0:0:
156,28,94846,1,0,0:0:0:0:
60,100,95070,2,0,P|106:112|152:140,1,95.6250036478044
168,216,95742,69,0,0:0:0:0:
168,216,95854,1,0,0:0:0:0:
168,216,95966,1,0,0:0:0:0:
96,288,96190,1,0,0:0:0:0:
184,368,96414,2,0,L|176:284,1,63.7500024318696
268,144,96861,2,0,L|256:260,1,95.6250036478044
288,312,97309,1,0,0:0:0:0:
288,312,97421,1,0,0:0:0:0:
288,312,97533,1,0,0:0:0:0:
288,312,97645,1,0,0:0:0:0:
288,312,97757,6,0,P|336:296|412:288,1,127.5
448,296,98205,1,0,0:0:0:0:
352,76,98429,1,0,0:0:0:0:
328,88,98652,2,0,L|348:192,1,85
300,104,98988,2,0,L|320:208,1,85
220,152,99324,70,0,P|180:152|124:108,2,85
200,60,99996,1,0,0:0:0:0:
48,148,100220,1,0,0:0:0:0:
64,176,100332,2,0,P|84:236|64:304,1,127.5
248,228,100891,2,0,P|271:232|300:248,1,42.5
396,232,101115,2,0,P|415:251|428:272,1,42.5
332,348,101339,6,0,P|269:329|192:320,1,127.5
176,336,101787,1,0,0:0:0:0:
304,72,102235,2,0,P|243:96|176:136,1,127.5
173,158,102683,1,0,0:0:0:0:
424,196,102906,69,0,0:0:0:0:
448,296,103130,1,0,0:0:0:0:
324,160,103354,1,0,0:0:0:0:
324,160,103466,1,0,0:0:0:0:
324,160,103578,2,0,L|312:260,1,85
220,348,104026,2,0,L|116:336,1,85
60,272,104361,2,0,L|164:260,1,85
208,208,104697,1,0,0:0:0:0:
208,208,104809,1,0,0:0:0:0:
208,208,104921,6,0,P|218:146|208:72,1,127.5
192,44,105369,1,0,0:0:0:0:
44,184,105593,1,0,0:0:0:0:
72,196,105705,2,0,P|120:156|192:144,1,127.5
320,196,106264,1,0,0:0:0:0:
280,28,106488,1,0,0:0:0:0:
260,128,106712,69,0,0:0:0:0:
356,96,106936,1,0,0:0:0:0:
428,156,107160,1,0,0:0:0:0:
420,176,107272,1,0,0:0:0:0:
444,280,107496,2,0,P|416:296|352:304,1,85
300,260,107832,2,0,L|292:212,1,42.5
236,316,108055,2,0,L|228:368,1,42.5
164,276,108279,2,0,L|156:208,1,42.5
88,324,108503,21,0,0:0:0:0:
440,48,109399,70,0,L|456:152,1,85
460,164,109735,1,0,0:0:0:0:
184,76,110070,69,0,0:0:0:0:
336,112,110294,2,0,L|252:136,1,85
196,208,110742,1,0,0:0:0:0:
364,236,110966,1,0,0:0:0:0:
364,236,111078,1,0,0:0:0:0:
364,236,111190,2,0,P|376:276|368:328,1,85
288,372,111526,2,0,P|276:332|284:280,1,85
184,224,111861,1,0,0:0:0:0:
184,224,111973,1,0,0:0:0:0:
184,224,112085,6,0,P|196:264|188:316,1,85
88,200,112421,1,0,0:0:0:0:
88,200,112533,2,0,P|108:160|144:132,1,85
216,128,112869,1,0,0:0:0:0:
292,152,112981,2,0,P|336:156|388:136,1,85
436,96,113317,1,0,0:0:0:0:
344,348,113652,69,0,0:0:0:0:
368,256,113876,1,0,0:0:0:0:
452,200,114100,1,0,0:0:0:0:
452,200,114212,1,0,0:0:0:0:
452,200,114324,1,0,0:0:0:0:
280,280,114548,5,0,0:0:0:0:
280,280,114660,2,0,L|180:272,1,85
116,264,114996,1,0,0:0:0:0:
116,264,115108,1,0,0:0:0:0:
116,264,115220,2,0,L|120:208,1,42.5
36,264,115443,2,0,L|32:306,1,42.5
195,273,115667,70,0,L|204:136,1,127.5
208,108,116115,1,0,0:0:0:0:
44,176,116339,1,0,0:0:0:0:
288,216,116563,2,0,L|296:116,1,85
384,48,116899,2,0,L|400:160,1,85
488,284,117235,5,0,0:0:0:0:
472,192,117458,1,0,0:0:0:0:
360,364,117682,1,0,0:0:0:0:
372,268,117906,1,0,0:0:0:0:
252,308,118130,1,0,0:0:0:0:
240,116,118354,2,0,P|272:128|304:184,1,85
160,144,118690,2,0,P|154:110|186:54,1,85
220,200,119026,1,0,0:0:0:0:
220,200,119138,1,0,0:0:0:0:
220,200,119249,70,0,P|193:221|129:221,1,85
72,192,119585,1,0,0:0:0:0:
72,192,119697,1,0,0:0:0:0:
188,340,119921,1,0,0:0:0:0:
224,352,120033,2,0,P|264:336|356:332,1,127.5
416,352,120481,1,0,0:0:0:0:
416,352,120593,1,0,0:0:0:0:
468,172,120817,1,0,0:0:0:0:
344,248,121041,6,0,P|290:229|216:184,1,127.5
229,193,121488,2,0,L|216:251,1,42.5
212,64,121824,2,0,P|172:68|128:100,1,85
134,91,122160,1,0,0:0:0:0:
396,152,122384,1,0,0:0:0:0:
396,152,122496,1,0,0:0:0:0:
396,152,122608,2,0,L|388:84,1,42.5
324,200,122832,70,0,P|356:236|456:220,1,127.5
284,344,123503,2,0,P|200:352|100:356,1,170
200,252,124175,1,0,0:0:0:0:
40,312,124399,1,0,0:0:0:0:
40,312,124511,1,0,0:0:0:0:
40,312,124623,6,0,L|28:168,1,127.5
248,36,125294,2,0,P|284:84|244:192,1,170
136,104,125966,1,0,0:0:0:0:
240,284,126190,1,0,0:0:0:0:
240,284,126302,1,0,0:0:0:0:
240,284,126414,70,0,P|292:280|340:220,1,127.5
160,240,127085,2,0,P|144:320|240:368,1,170
256,180,127757,1,0,0:0:0:0:
80,80,127981,2,0,L|16:76,1,42.5
128,160,128205,5,0,0:0:0:0:
160,36,128429,1,0,0:0:0:0:
40,156,128652,2,0,L|52:260,1,85
56,276,128988,2,0,P|120:272|176:320,1,127.5
168,308,129436,1,0,0:0:0:0:
168,308,129548,1,0,0:0:0:0:
332,180,129772,1,0,0:0:0:0:
268,360,129996,70,0,L|256:204,1,127.5
458,116,130667,2,0,P|430:172|322:172,1,170
132,80,131339,1,0,0:0:0:0:
372,72,131563,1,0,0:0:0:0:
372,72,131675,1,0,0:0:0:0:
372,72,131787,6,0,P|332:84|280:88,1,85
220,36,132235,1,0,0:0:0:0:
196,168,132458,2,0,P|208:240|240:344,1,170
235,332,133018,1,0,0:0:0:0:
235,332,133130,1,0,0:0:0:0:
440,264,133354,69,0,0:0:0:0:
440,264,133466,1,0,0:0:0:0:
440,264,133578,1,0,0:0:0:0:
288,196,133802,1,0,0:0:0:0:
288,196,133914,1,0,0:0:0:0:
352,352,134138,5,0,0:0:0:0:
352,352,134249,2,0,P|320:304|216:280,1,170
215,280,134809,1,0,0:0:0:0:
215,280,134921,1,0,0:0:0:0:
96,344,135145,1,0,0:0:0:0:
420,228,135369,5,0,0:0:0:0:
116,136,135705,1,0,0:0:0:0:
324,88,136600,5,0,0:0:0:0:
324,88,136712,1,0,0:0:0:0:
228,280,137160,2,0,L|212:168,1,85
210,158,137496,1,0,0:0:0:0:
460,208,137832,69,0,0:0:0:0:
460,208,137943,1,0,0:0:0:0:
460,208,138055,1,0,0:0:0:0:
392,320,138279,1,0,0:0:0:0:
336,136,138503,1,0,0:0:0:0:
334,157,138614,1,0,0:0:0:0:
332,178,138726,1,0,0:0:0:0:
330,199,138838,1,0,0:0:0:0:
328,220,138951,6,0,L|220:188,1,85
216,184,139287,1,0,0:0:0:0:
56,328,139623,2,0,L|12:360,2,42.5
148,296,140070,1,0,0:0:0:0:
240,328,140294,2,0,L|260:376,1,42.5
344,328,140518,1,0,0:0:0:0:
452,304,140742,2,0,L|460:196,1,85
460,184,141078,1,0,0:0:0:0:
304,48,141302,69,0,0:0:0:0:
288,82,141413,1,0,0:0:0:0:
285,120,141525,1,0,0:0:0:0:
300,160,141638,2,0,P|340:152|388:112,1,85
375,127,141973,1,0,0:0:0:0:
375,127,142085,2,0,L|363:231,1,85
256,352,142533,6,0,P|240:308|208:264,1,85
192,256,142869,1,0,0:0:0:0:
32,340,143205,2,0,P|72:340|136:312,1,85
112,56,143652,2,0,L|88:228,1,170
88,224,144212,1,0,0:0:0:0:
88,224,144324,70,0,P|128:204|224:204,1,127.5
452,304,144996,1,0,0:0:0:0:
288,352,145220,2,0,L|272:252,1,85
388,168,145555,2,0,L|368:264,1,85
292,176,145891,1,0,0:0:0:0:
292,176,146003,1,0,0:0:0:0:
292,176,146115,6,0,P|288:128|240:52,1,127.5
212,56,146563,2,0,P|170:63|120:64,1,85
88,48,146899,1,0,0:0:0:0:
188,212,147123,1,0,0:0:0:0:
162,211,147234,1,0,0:0:0:0:
137,206,147346,1,0,0:0:0:0:
112,196,147458,2,0,L|92:248,1,42.5
172,352,147682,2,0,L|160:296,1,42.5
264,296,147906,70,0,B|304:272|304:272|400:288,1,127.5
416,292,148354,1,0,0:0:0:0:
456,68,148578,2,0,P|470:108|468:168,1,85
471,150,148914,1,0,0:0:0:0:
471,150,149026,2,0,L|420:140,1,42.5
348,76,149249,1,0,0:0:0:0:
348,76,149361,1,0,0:0:0:0:
348,76,149473,2,0,L|288:84,1,42.5
216,204,149697,6,0,L|360:188,1,127.5
224,76,150369,2,0,L|216:28,2,42.5
180,280,150817,2,0,P|132:228|172:132,1,170
216,204,151376,1,0,0:0:0:0:
216,204,151488,6,0,P|267:195|324:192,1,101.999996887207
388,224,151824,1,0,0:0:0:0:
388,224,151936,1,0,0:0:0:0:
136,332,152160,1,0,0:0:0:0:
128,304,152272,1,0,0:0:0:0:
24,160,152496,2,0,P|48:164|80:180,1,50.9999984436036
120,100,152720,2,0,P|136:116|152:144,1,50.9999984436036
336,88,153055,1,0,0:0:0:0:
312,100,153167,1,0,0:0:0:0:
284,100,153279,6,0,B|240:80|240:80|268:200,1,152.999995330811
263,181,153727,2,0,L|199:189,1,50.9999984436036
128,304,153951,2,0,P|207:295|284:320,1,152.999995330811
340,352,154399,1,0,0:0:0:0:
408,316,154511,2,0,L|392:212,1,101.999996887207
456,76,154958,69,0,0:0:0:0:
432,104,155070,2,0,P|384:80|324:76,1,101.999996887207
272,108,155406,1,0,0:0:0:0:
272,108,155518,2,0,L|256:168,1,50.9999984436036
248,288,155742,1,0,0:0:0:0:
316,224,155966,1,0,0:0:0:0:
168,72,156190,2,0,L|176:140,1,50.9999984436036
184,216,156414,2,0,P|160:256|144:316,1,101.999996887207
332,352,156861,5,0,0:0:0:0:
352,324,156973,2,0,P|400:316|456:292,1,101.999996887207
449,295,157309,2,0,L|456:232,1,50.9999984436036
361,128,157533,1,0,0:0:0:0:
361,128,157645,2,0,L|377:244,1,101.999996887207
300,260,157981,2,0,L|236:244,1,50.9999984436036
104,208,158205,1,0,0:0:0:0:
164,264,158317,2,0,P|180:224|168:152,1,101.999996887207
64,112,158652,69,0,0:0:0:0:
46,65,158763,1,0,0:0:0:0:
66,20,158875,1,0,0:0:0:0:
113,3,158987,1,0,0:0:0:0:
158,25,159100,2,0,P|172:52|204:80,1,50.9999984436036
326,67,159324,2,0,P|342:47|354:25,1,50.9999984436036
228,228,159548,6,0,L|312:228,1,50.9999984436036
124,160,159772,2,0,L|72:196,1,50.9999984436036
429,189,159996,2,0,L|388:160,1,50.9999984436036
288,336,160220,70,0,P|300:312|304:288,1,50.9999984436036
248,136,160443,2,0,P|228:176|216:240,1,101.999996887207
254,298,160779,2,0,L|330:282,1,50.9999984436036
384,272,161003,1,0,0:0:0:0:
172,352,161227,2,0,P|147:287|100:212,1,152.999995330811
103,216,161675,1,0,0:0:0:0:
103,216,161787,1,0,0:0:0:0:
407,57,162235,6,0,L|404:108,1,50.9999984436036
280,182,162458,2,0,L|284:132,1,50.9999984436036
390,40,162682,6,0,L|400:91,1,50.9999984436036
297,198,162906,2,0,L|287:148,1,50.9999984436036
367,26,163130,6,0,L|390:72,1,50.9999984436036
319,212,163354,2,0,L|297:167,1,50.9999984436036
340,14,163578,38,0,L|373:54,1,50.9999984436036
348,222,163802,2,0,L|314:185,1,50.9999984436036
448,252,164026,54,0,P|436:301|434:352,1,101.999996887207
187,296,164361,2,0,P|190:245|180:196,1,101.999996887207
308,64,164697,2,0,L|316:204,1,101.999996887207
316,320,165145,1,0,0:0:0:0:
316,320,165257,1,0,0:0:0:0:
316,320,165369,2,0,L|340:268,1,50.9999984436036
232,208,165593,2,0,L|240:284,1,50.9999984436036
176,344,165817,6,0,P|128:325|88:288,1,101.999996887207
148,24,166152,2,0,P|164:68|176:140,1,101.999996887207
24,208,166488,2,0,L|132:204,1,101.999996887207
452,228,166936,37,0,0:0:0:0:
372,260,167160,1,0,0:0:0:0:
380,164,167384,1,0,0:0:0:0:
452,228,167608,5,0,0:0:0:0:
356,296,174324,70,0,L|368:260,3,31.8750012159348
336,312,174772,6,0,P|280:304|236:224,1,127.500004863739
240,160,175443,1,0,0:0:0:0:
120,288,175891,69,0,0:0:0:0:
120,288,176003,1,0,0:0:0:0:
120,288,176115,1,0,0:0:0:0:
104,200,176339,1,0,0:0:0:0:
104,200,176563,1,0,0:0:0:0:
308,72,177011,5,0,0:0:0:0:
288,176,177682,1,0,0:0:0:0:
308,72,177906,1,0,0:0:0:0:
156,192,178130,69,0,0:0:0:0:
156,192,178242,1,0,0:0:0:0:
156,192,178354,2,0,P|172:252|160:320,1,127.500004863739
76,260,179026,1,0,0:0:0:0:
308,204,179473,5,0,0:0:0:0:
308,204,179697,2,0,P|335:226|352:264,1,63.7500024318696
420,348,180145,6,0,L|432:212,1,127.500004863739
436,184,180481,1,0,0:0:0:0:
264,72,180817,5,0,0:0:0:0:
264,72,180929,1,0,0:0:0:0:
264,72,181041,1,0,0:0:0:0:
244,252,181264,2,0,L|252:180,1,63.7500024318696
264,72,181488,1,0,0:0:0:0:
384,48,181712,69,0,0:0:0:0:
384,48,181824,1,0,0:0:0:0:
384,48,181936,1,0,0:0:0:0:
344,140,182160,1,0,0:0:0:0:
372,248,182384,1,0,0:0:0:0:
312,332,182608,1,0,0:0:0:0:
48,248,182832,6,0,B|84:216|84:216|176:236,1,127.500004863739
208,296,183167,54,0,P|196:236|216:160,1,127.500004863739
188,96,183727,38,0,B|296:68|296:68|272:104,1,152.999995330811,2|0,1:2|1:0,0:0:0:0:
273,102,184175,2,0,L|260:28,1,50.9999984436036,8|0,0:0|0:0,0:0:0:0:
376,132,184399,2,0,B|408:176|408:176|388:280,1,152.999995330811,4|0,0:0|1:0,0:0:0:0:
389,272,184846,2,0,L|316:268,1,50.9999984436036,0|0,1:0|0:0,0:0:0:0:
244,300,185070,1,8,0:0:0:0:
312,188,185294,1,0,0:0:0:0:
244,300,185518,6,0,P|200:284|120:280,1,101.999996887207,2|0,1:2|0:0,0:0:0:0:
72,320,185854,1,0,1:0:0:0:
72,320,185966,2,0,L|56:256,1,50.9999984436036,8|0,0:0|0:0,0:0:0:0:
56,160,186190,2,0,P|116:140|96:212,1,152.999995330811,4|0,0:0|0:0,0:0:0:0:
32,76,186638,1,0,1:0:0:0:
32,76,186749,1,0,1:0:0:0:
32,76,186861,2,0,P|56:60|92:52,1,50.9999984436036,8|0,0:0|0:0,0:0:0:0:
296,120,187085,2,0,P|268:132|232:136,1,50.9999984436036,2|0,0:0|0:0,0:0:0:0:
160,72,187309,70,0,B|176:104|176:104|168:192,1,101.999996887207,12|0,1:2|0:0,0:0:0:0:
160,260,187645,1,0,1:0:0:0:
160,260,187757,2,0,L|96:252,1,50.9999984436036,8|0,0:0|0:0,0:0:0:0:
36,240,187981,1,0,1:0:0:0:
232,336,188205,6,0,L|364:352,1,101.999996887207,4|0,1:2|0:0,0:0:0:0:
420,356,188541,1,0,1:0:0:0:
420,356,188652,2,0,L|428:280,1,50.9999984436036,8|0,0:0|0:0,0:0:0:0:
436,228,188876,1,0,1:0:0:0:
356,72,189100,70,0,B|376:104|376:104|368:184,1,101.999996887207,8|0,1:2|0:0,0:0:0:0:
356,252,189436,1,0,1:0:0:0:
356,252,189548,2,0,L|296:244,1,50.9999984436036,8|0,0:0|0:0,0:0:0:0:
228,236,189772,1,0,1:0:0:0:
60,100,189996,69,2,1:0:0:0:
60,100,190108,1,0,0:0:0:0:
260,148,190332,69,8,0:0:0:0:
260,148,190444,1,8,0:0:0:0:
260,148,190555,2,0,L|252:40,1,101.999996887207,4|0,0:0|0:0,0:0:0:0:
181,137,190891,22,0,P|189:205|264:236,1,152.999995330811,2|0,1:2|1:0,0:0:0:0:
260,236,191339,2,0,L|316:220,1,50.9999984436036,8|0,0:0|0:0,0:0:0:0:
436,80,191563,2,0,P|384:72|420:132,1,152.999995330811,4|0,0:0|0:0,0:0:0:0:
496,152,192011,1,0,1:0:0:0:
300,56,192235,1,8,0:0:0:0:
380,216,192458,2,0,P|392:244|392:280,1,50.9999984436036
352,344,192682,6,0,P|304:328|232:320,1,101.999996887207,2|0,1:2|0:0,0:0:0:0:
168,276,193018,1,0,1:0:0:0:
168,276,193130,2,0,P|199:256|224:248,1,50.9999984436036,8|0,0:0|0:0,0:0:0:0:
380,216,193354,1,0,0:0:0:0:
192,140,193578,1,4,0:0:0:0:
292,244,193802,1,0,0:0:0:0:
292,244,193914,1,0,1:0:0:0:
292,244,194026,2,0,P|288:216|300:176,1,50.9999984436036,8|0,0:0|0:0,0:0:0:0:
348,56,194249,1,0,0:0:0:0:
192,140,194473,70,0,P|120:136|88:48,1,152.999995330811,2|0,1:2|1:0,0:0:0:0:
84,70,194921,2,0,L|140:44,1,50.9999984436036,8|0,0:0|0:0,0:0:0:0:
260,88,195145,2,0,P|280:136|260:200,1,101.999996887207,4|0,0:0|0:0,0:0:0:0:
140,328,195593,2,0,P|112:312|60:304,1,50.9999984436036,0|0,1:0|0:0,0:0:0:0:
344,256,195817,2,0,L|332:320,1,50.9999984436036,8|0,0:0|0:0,0:0:0:0:
164,160,196041,53,8,0:0:0:0:
164,160,196152,1,8,0:0:0:0:
164,160,196264,2,0,B|208:188|208:188|236:312,1,172.125000656605,4|0,0:0|1:0,0:0:0:0:
240,336,196712,1,8,0:0:0:0:
92,256,196936,1,4,0:0:0:0:
370,131,197160,6,0,L|338:283,1,127.500004863739,12|0,0:0|0:0,0:0:0:0:
136,340,197496,2,0,B|80:304|80:304|12:312,1,127.500004863739,12|0,0:0|0:0,0:0:0:0:
184,48,197832,2,0,L|196:112,1,63.7500024318696,12|0,0:0|0:0,0:0:0:0:
228,304,198055,5,2,1:2:0:0:
404,176,198391,1,8,0:0:0:0:
96,224,198727,1,4,0:0:0:0:
376,324,199175,6,0,L|388:260,1,63.7500024318696,0|0,1:0|1:0,0:0:0:0:
404,176,199399,1,8,0:0:0:0:
232,32,199623,69,0,0:0:0:0:
240,56,199735,1,0,0:0:0:0:
248,80,199846,2,0,L|112:56,1,127.500004863739,2|0,1:2|0:0,0:0:0:0:
52,84,200182,1,0,1:0:0:0:
52,84,200294,2,0,L|44:172,1,63.7500024318696,8|0,0:0|0:0,0:0:0:0:
92,228,200518,2,0,B|148:180|148:180|280:204,1,191.250007295609,4|0,0:0|0:0,0:0:0:0:
340,220,200966,1,0,1:0:0:0:
340,220,201078,1,0,1:0:0:0:
340,220,201190,2,0,L|328:284,1,63.7500024318696,8|0,0:0|0:0,0:0:0:0:
184,340,201414,2,0,L|172:272,1,63.7500024318696,0|0,1:0|0:0,0:0:0:0:
232,48,201638,6,0,L|244:184,1,127.500004863739,12|0,1:2|0:0,0:0:0:0:
244,175,201973,1,0,1:0:0:0:
244,175,202085,1,8,0:0:0:0:
16,112,202309,2,0,P|45:98|84:96,1,63.7500024318696,0|0,1:0|0:0,0:0:0:0:
172,277,202533,70,0,L|156:145,1,127.500004863739,4|0,1:2|0:0,0:0:0:0:
156,150,202869,1,0,1:0:0:0:
156,150,202981,1,8,0:0:0:0:
392,168,203205,2,0,P|363:181|331:181,1,63.7500024318696,0|0,1:0|0:0,0:0:0:0:
232,48,203429,6,0,L|244:196,1,127.500004863739,8|0,1:2|0:0,0:0:0:0:
242,175,203764,1,0,1:0:0:0:
242,175,203876,1,8,0:0:0:0:
48,292,204100,2,0,P|75:281|112:280,1,63.7500024318696,0|0,1:0|0:0,0:0:0:0:
252,308,204324,53,2,1:0:0:0:
252,308,204436,1,0,0:0:0:0:
288,177,204660,70,0,L|300:85,1,63.7500024318696,8|0,0:3|1:0,0:0:0:0:
400,208,204884,2,0,P|340:216|284:168,1,127.500004863739,4|0,0:0|0:0,0:0:0:0:
232,116,205220,38,0,P|168:72|48:124,1,191.250007295609,2|0,1:2|1:0,0:0:0:0:
28,160,205667,2,0,L|48:264,1,63.7500024318696,8|0,0:0|0:0,0:0:0:0:
160,328,205891,2,0,P|104:360|132:276,1,191.250007295609,4|0,0:0|0:0,0:0:0:0:
228,272,206339,2,0,P|243:306|244:356,1,63.7500024318696,0|0,1:0|0:0,0:0:0:0:
168,216,206563,2,0,P|224:176|308:172,1,127.500004863739,8|0,0:0|0:0,0:0:0:0:
352,208,206899,1,0,0:0:0:0:
352,208,207011,70,0,B|332:340|332:340|400:308,1,191.250007295609,2|0,1:2|1:0,0:0:0:0:
384,315,207458,2,0,L|300:300,1,63.7500024318696,8|0,0:0|0:0,0:0:0:0:
176,344,207682,1,0,0:0:0:0:
192,124,207906,2,0,P|216:180|236:268,1,127.500004863739,4|0,0:0|0:0,0:0:0:0:
233,245,208242,1,0,0:0:0:0:
233,245,208354,1,8,0:0:0:0:
80,344,208578,1,0,0:0:0:0:
40,208,208802,6,0,B|36:152|20:76|20:76|88:128,1,191.250007295609,2|0,1:2|1:0,0:0:0:0:
136,148,209249,2,0,P|141:121|172:76,1,63.7500024318696,8|0,0:0|0:0,0:0:0:0:
284,64,209473,2,0,P|216:52|264:128,1,191.250007295609,4|0,0:0|0:0,0:0:0:0:
336,116,209921,2,0,L|408:88,1,63.7500024318696,0|0,1:0|0:0,0:0:0:0:
472,64,210145,1,8,0:0:0:0:
408,344,210369,1,0,0:0:0:0:
140,268,210593,22,0,L|148:188,1,63.7500024318696,4|0,0:0|0:0,0:0:0:0:
148,116,210929,22,0,B|176:172|176:172|260:208,1,127.500004863739,2|0,0:0|0:0,0:0:0:0:
396,232,211264,1,8,0:0:0:0:
320,20,211488,38,0,P|305:47|300:88,1,63.7500024318696,4|8,0:0|0:3,0:0:0:0:
320,152,211824,1,0,0:0:0:0:
320,152,211936,1,0,0:0:0:0:
472,140,212160,1,0,1:0:0:0:
352,276,212384,22,0,L|192:296,1,127.500004863739,4|0,0:0|0:0,0:0:0:0:
184,296,212720,1,8,0:0:0:0:
260,40,213279,22,0,P|272:96|264:168,1,127.5,0|0,0:0|1:0,0:0:0:0:
256,196,213727,1,0,1:0:0:0:
160,168,213951,1,4,0:3:0:0:
160,168,214175,2,0,B|96:176|96:176|40:228,1,127.5,4|8,0:0|0:0,0:0:0:0:
28,240,214623,5,8,0:0:0:0:
144,348,214846,2,0,L|152:276,1,42.5,8|0,0:0|0:0,0:0:0:0:
256,232,215070,2,0,L|268:252,6,21.25,0|0|0|0|0|0|0,1:0|0:0|0:0|0:0|0:0|0:0|0:0,0:0:0:0:
308,328,215518,54,0,L|328:192,1,127.500004863739,6|0,0:0|0:0,0:0:0:0:
208,40,215966,38,0,P|171:18|129:16,1,85,8|0,0:0|0:0,0:0:0:0:
166,183,216302,2,0,P|202:161|225:126,1,85,10|0,0:0|0:0,0:0:0:0:
70,74,216638,2,0,P|69:116|88:153,1,85,4|0,0:0|0:0,0:0:0:0:
248,316,217085,6,0,L|408:288,1,127.5,8|0,0:0|0:0,0:0:0:0:
444,276,217533,1,4,0:0:0:0:
