osu file format v14

[General]
AudioFilename: audio.mp3
AudioLeadIn: 1500
PreviewTime: 68843
Countdown: 0
SampleSet: Soft
StackLeniency: 0.5
Mode: 0
LetterboxInBreaks: 0
WidescreenStoryboard: 0

[Editor]
DistanceSpacing: 0.5
BeatDivisor: 4
GridSize: 4
TimelineZoom: 2.3

[Metadata]
Title:Ame to Asphalt
TitleUnicode:雨とアスファルト
Artist:40mP feat. yuikonnu
ArtistUnicode:40mP feat.ゆいこんぬ
Creator:Nevo
Version:Sotarks' Expert
Source:
Tags:vocaloid hatsune miku 初音ミク 40mp 40㍍P map △○□× nico douga シンタイソクテイ shunao shogunmoon mir sotarks yukiyo agastu lasse utaite cover exit pp tunes presents cindarella yuikonnu yuiko yukiyo
BeatmapID:1764227
BeatmapSetID:842562

[Difficulty]
HPDrainRate:5
CircleSize:3.8
OverallDifficulty:8.7
ApproachRate:9
SliderMultiplier:1.82
SliderTickRate:1

[Events]
//Background and Video events
0,0,"BG.jpg",0,0
//Break Periods
//Storyboard Layer 0 (Background)
//Storyboard Layer 1 (Fail)
//Storyboard Layer 2 (Pass)
//Storyboard Layer 3 (Foreground)
//Storyboard Sound Samples

[TimingPoints]
683,315.789473684211,4,2,22,42,1,0
683,-138.888888888889,4,2,22,42,0,0
30998,-121.951219512195,4,2,22,52,0,0
51209,-98.0392156862745,4,2,22,62,0,0
66367,315.789473684211,5,2,22,72,1,0
67314,-138.888888888889,5,2,22,72,0,0
67945,-312.5,5,2,22,72,0,0
68340,-312.5,5,2,22,5,0,0
68419,-312.5,5,2,22,72,0,0
69367,-98.0392156862745,5,2,22,72,0,0
69524,315.789473684211,4,2,22,72,1,1
69524,-89.2857142857143,4,2,22,72,0,1
112471,-98.0392156862745,4,2,22,72,0,0

[Colours]
Combo1 : 0,164,164
Combo2 : 0,128,192
Combo3 : 192,192,192
SliderTrackOverride : 0,0,0
SliderBorder : 224,217,171

[HitObjects]
150,97,683,6,0,P|166:150|168:172,2,65.5200015996094,2|0|0,0:0|0:0|0:0,0:0:0:0:
266,65,1156,2,0,P|255:114|246:218,2,131.040003199219,2|2|2,0:0|0:0|0:0,0:0:0:0:
374,154,1946,2,0,L|389:238,1,65.5200015996094,0|0,3:0|0:0,0:0:0:0:
292,325,2261,2,0,L|303:260,1,65.5200015996094,0|0,3:0|0:0,0:0:0:0:
397,143,2577,2,0,L|412:227,1,65.5200015996094,0|0,3:0|0:0,0:0:0:0:
315,314,2893,1,0,3:0:0:0:
264,189,3051,1,2,0:3:0:0:
157,303,3209,6,0,P|121:319|86:324,2,65.5200015996094,2|0|0,0:0|0:0|0:0,0:0:0:0:
229,222,3683,2,0,P|154:217|88:199,2,131.040003199219,2|2|2,0:0|0:0|0:0,0:0:0:0:
341,122,4472,2,0,L|351:45,1,65.5200015996094,0|0,3:0|0:0,0:0:0:0:
422,186,4788,2,0,L|430:250,1,65.5200015996094,0|0,3:0|0:0,0:0:0:0:
360,133,5104,2,0,L|370:56,1,65.5200015996094,0|0,3:0|0:0,0:0:0:0:
441,197,5419,1,0,3:0:0:0:
482,108,5577,1,2,0:3:0:0:
322,221,5735,6,0,P|273:222|252:214,2,65.5200015996094,2|0|0,0:0|0:0|0:0,0:0:0:0:
400,291,6209,2,0,P|325:311|256:343,2,131.040003199219,2|2|2,0:0|0:0|0:0,0:0:0:0:
201,275,6998,2,0,L|107:264,1,65.5200015996094,0|0,3:0|0:0,0:0:0:0:
299,184,7314,2,0,L|393:173,1,65.5200015996094,0|0,3:0|0:0,0:0:0:0:
212,253,7630,2,0,L|118:242,1,65.5200015996094,0|0,3:0|0:0,0:0:0:0:
310,162,7946,1,0,3:0:0:0:
200,149,8104,1,2,0:3:0:0:
366,79,8261,6,0,P|379:41|380:11,2,65.5200015996094,2|0|0,0:0|0:0|0:0,0:0:0:0:
467,46,8735,2,0,P|451:106|452:189,2,131.040003199219,2|2|2,0:0|0:0|0:0,0:0:0:0:
345,193,9525,2,0,L|362:277,1,65.5200015996094,0|0,3:0|0:0,0:0:0:0:
228,148,9840,2,0,L|240:83,1,65.5200015996094,0|0,3:0|0:0,0:0:0:0:
366,176,10156,1,2,3:0:0:0:
366,176,10472,1,0,3:0:0:0:
256,260,10630,1,2,0:3:0:0:
431,274,10788,6,0,P|382:283|361:297,1,65.5200015996094,2|0,0:2|0:2,0:0:0:0:
289,239,11104,1,0,0:2:0:0:
193,332,11261,2,0,P|144:323|79:257,1,131.040003199219,2|0,0:2|0:2,0:0:0:0:
132,112,11735,2,0,B|216:115|183:152|267:164,1,131.040003199219,2|0,0:2|0:2,0:0:0:0:
327,121,12209,1,0,0:2:0:0:
428,175,12367,2,0,P|414:219|409:252,1,65.5200015996094,2|0,3:2|0:2,0:0:0:0:
314,309,12683,2,0,P|307:276|296:246,1,65.5200015996094,2|0,3:2|0:2,0:0:0:0:
437,190,12998,2,0,P|423:234|418:267,1,65.5200015996094,2|2,3:2|0:3,0:0:0:0:
335,160,13314,6,0,P|285:123|192:120,1,131.040003199219,2|0,0:2|0:2,0:0:0:0:
68,184,13788,2,0,B|140:188|117:232|202:248,1,131.040003199219,2|0,0:2|0:2,0:0:0:0:
326,263,14261,2,0,P|268:290|239:361,1,131.040003199219,2|0,0:2|0:2,0:0:0:0:
436,154,15051,1,2,0:2:0:0:
380,84,15209,1,2,3:2:0:0:
339,217,15367,1,2,0:2:0:0:
413,170,15525,1,2,3:2:0:0:
253,116,15683,1,2,0:2:0:0:
306,237,15840,6,0,P|323:295|331:377,1,131.040003199219,2|0,0:2|0:2,0:0:0:0:
200,208,16314,2,0,P|183:266|175:348,1,131.040003199219,2|0,0:2|0:2,0:0:0:0:
297,145,16788,2,0,P|297:87|233:45,1,131.040003199219,2|0,0:2|0:2,0:0:0:0:
242,45,17419,2,0,P|199:71|170:75,1,65.5200015996094,2|0,3:2|0:2,0:0:0:0:
62,122,17735,2,0,P|93:131|119:151,1,65.5200015996094,2|0,3:2|0:2,0:0:0:0:
190,239,18051,2,0,P|174:288|174:319,1,65.5200015996094,2|2,3:2|0:3,0:0:0:0:
306,153,18367,6,0,P|332:133|363:123,1,65.5200015996094,2|0,0:2|0:2,0:0:0:0:
481,154,18683,1,0,0:2:0:0:
414,54,18840,2,0,P|399:118|389:203,1,131.040003199219,2|0,0:2|0:2,0:0:0:0:
431,269,19314,1,2,0:2:0:0:
279,181,19472,2,0,B|205:185|224:220|152:229,1,131.040003199219,2|0,0:2|0:2,0:0:0:0:
80,130,19946,2,0,P|128:137|146:147,1,65.5200015996094,2|0,3:2|0:2,0:0:0:0:
10,233,20261,2,0,P|58:226|76:216,1,65.5200015996094,2|0,3:2|0:2,0:0:0:0:
23,326,20577,1,2,3:2:0:0:
23,326,20893,6,0,P|72:317|100:325,1,65.5200015996094,2|0,0:2|0:2,0:0:0:0:
199,266,21209,1,0,0:2:0:0:
314,340,21367,2,0,P|388:331|429:262,1,131.040003199219,2|0,0:2|0:2,0:0:0:0:
374,97,21840,2,0,P|359:153|345:235,1,131.040003199219,2|0,0:2|0:2,0:0:0:0:
356,314,22314,1,0,0:2:0:0:
241,222,22472,2,0,P|199:210|163:191,1,65.5200015996094,2|0,3:2|0:2,0:0:0:0:
144,293,22788,2,0,P|114:306|82:314,1,65.5200015996094,2|0,3:2|0:2,0:0:0:0:
237,206,23104,2,0,P|195:194|159:175,1,65.5200015996094,2|2,3:2|0:3,0:0:0:0:
271,308,23419,6,0,P|341:311|391:255,1,131.040003199219,2|0,0:2|0:2,0:0:0:0:
441,126,23893,2,0,B|363:120|379:176|304:172,1,131.040003199219,2|0,0:2|0:2,0:0:0:0:
169,57,24367,2,0,P|199:120|220:193,1,131.040003199219,2|0,0:2|0:2,0:0:0:0:
83,331,25156,1,2,0:2:0:0:
127,252,25314,1,2,3:2:0:0:
190,330,25472,1,2,0:2:0:0:
144,215,25630,1,2,3:2:0:0:
68,356,25788,1,2,0:2:0:0:
245,224,25946,6,0,P|321:195|387:180,1,131.040003199219,2|0,0:2|0:2,0:0:0:0:
498,121,26419,2,0,P|434:104|373:80,1,131.040003199219,2|0,0:2|0:2,0:0:0:0:
223,114,26893,2,0,P|183:135|72:134,1,131.040003199219,2|0,0:2|0:2,0:0:0:0:
98,141,27525,2,0,P|126:184|137:219,1,65.5200015996094,2|0,3:2|0:2,0:0:0:0:
193,288,27840,2,0,P|206:258|226:231,1,65.5200015996094,2|0,3:2|0:2,0:0:0:0:
92,161,28156,2,0,P|120:204|131:239,1,65.5200015996094,2|2,3:2|0:3,0:0:0:0:
248,107,28472,6,0,P|292:86|322:84,1,65.5200015996094,2|0,0:2|0:2,0:0:0:0:
422,145,28788,1,0,0:2:0:0:
376,35,28946,2,0,P|338:97|320:171,1,131.040003199219,2|0,0:2|0:2,0:0:0:0:
355,249,29419,1,2,0:2:0:0:
219,201,29577,2,0,P|166:188|103:235,1,131.040003199219,2|0,0:2|3:2,0:0:0:0:
76,301,29972,1,0,3:0:0:0:
76,301,30051,2,0,P|93:347|97:371,1,65.5200015996094,2|0,3:2|0:2,0:0:0:0:
37,174,30367,2,0,P|20:220|16:244,1,65.5200015996094,2|0,3:2|0:2,0:0:0:0:
109,90,30683,1,2,3:2:0:0:
109,90,30998,6,0,P|160:68|206:59,1,74.6200011386109,6|0,1:2|0:2,0:0:0:0:
277,132,31314,1,0,0:2:0:0:
397,49,31472,2,0,P|457:88|474:161,1,149.240002277222,2|0,1:2|0:2,0:0:0:0:
369,289,31946,2,0,P|385:196|383:141,1,149.240002277222,2|0,1:2|0:2,0:0:0:0:
293,35,32419,1,0,1:2:0:0:
189,126,32577,2,0,P|149:144|117:147,1,74.6200011386109,2|0,0:2|0:2,0:0:0:0:
46,19,32893,2,0,P|82:23|116:40,1,74.6200011386109,2|0,1:2|0:2,0:0:0:0:
243,197,33209,1,2,1:2:0:0:
285,64,33367,1,2,0:3:0:0:
152,247,33525,6,0,P|137:299|137:337,1,74.6200011386109,2|0,1:2|0:2,0:0:0:0:
64,221,33840,1,0,0:2:0:0:
234,309,33998,2,0,P|294:285|391:264,1,149.240002277222,2|0,1:2|0:2,0:0:0:0:
481,133,34472,2,0,B|394:131|423:171|337:178,1,149.240002277222,2|0,1:2|0:2,0:0:0:0:
192,103,34946,1,0,1:2:0:0:
339,63,35104,1,0,0:2:0:0:
182,212,35261,2,0,P|162:271|157:302,1,74.6200011386109,2|0,0:2|1:2,0:0:0:0:
94,130,35577,1,2,0:2:0:0:
287,187,35735,1,2,1:2:0:0:
77,236,35893,1,2,0:2:0:0:
281,87,36051,6,0,P|368:91|432:154,1,149.240002277222,2|0,1:2|0:2,0:0:0:0:
468,276,36525,2,0,B|384:298|405:237|288:271,1,149.240002277222,2|0,1:2|0:2,0:0:0:0:
182,359,36998,2,0,P|189:288|202:198,1,149.240002277222,2|0,1:2|0:2,0:0:0:0:
134,79,37472,1,0,1:2:0:0:
53,207,37630,2,0,P|74:248|86:295,1,74.6200011386109,2|0,0:2|0:2,0:0:0:0:
206,177,37946,2,0,P|217:141|235:108,1,74.6200011386109,2|0,1:2|0:2,0:0:0:0:
302,269,38261,1,2,1:2:0:0:
387,128,38419,1,2,0:3:0:0:
179,277,38577,6,0,B|96:264|138:213|36:204,1,149.240002277222,2|0,1:2|0:2,0:0:0:0:
279,234,39051,2,0,B|362:221|320:170|422:161,1,149.240002277222,2|0,1:2|0:2,0:0:0:0:
509,182,39525,1,2,1:2:0:0:
377,89,39683,2,0,P|310:72|209:55,1,149.240002277222,2|0,0:2|1:2,0:0:0:0:
123,133,40156,2,0,P|107:87|105:46,1,74.6200011386109,2|0,0:2|0:2,0:0:0:0:
228,231,40472,2,0,P|241:196|246:159,1,74.6200011386109,2|0,1:2|0:2,0:0:0:0:
121,318,40788,1,2,1:2:0:0:
121,318,41104,6,0,P|176:326|203:347,1,74.6200011386109,6|0,1:2|0:2,0:0:0:0:
302,292,41419,1,0,0:2:0:0:
442,337,41577,2,0,P|412:278|399:178,1,149.240002277222,2|0,1:2|0:2,0:0:0:0:
277,44,42051,2,0,P|315:93|301:177,1,149.240002277222,2|0,1:2|0:2,0:0:0:0:
195,252,42525,1,0,1:2:0:0:
104,138,42683,2,0,P|83:86|80:52,1,74.6200011386109,2|0,0:2|0:2,0:0:0:0:
223,148,42998,2,0,P|215:184|199:218,1,74.6200011386109,2|0,1:2|0:2,0:0:0:0:
62,313,43314,1,2,1:2:0:0:
116,178,43472,1,2,0:3:0:0:
267,311,43630,6,0,B|352:312|319:262|421:266,1,149.240002277222,2|0,1:2|0:2,0:0:0:0:
502,176,44104,2,0,P|442:169|409:153,1,74.6200011386109,2|0,1:2|0:0,0:0:0:0:
345,99,44419,1,0,0:2:0:0:
225,183,44577,2,0,P|178:206|73:230,1,149.240002277222,2|0,1:2|0:2,0:0:0:0:
229,287,45051,1,0,1:2:0:0:
109,143,45209,1,0,0:2:0:0:
76,267,45367,1,2,0:2:0:0:
250,156,45525,1,2,1:2:0:0:
114,273,45683,1,2,0:2:0:0:
300,358,45840,1,2,1:2:0:0:
180,215,45998,1,2,0:2:0:0:
401,283,46156,6,0,P|420:201|417:121,1,149.240002277222,2|0,1:2|0:2,0:0:0:0:
275,27,46630,2,0,B|309:113|258:92|293:191,1,149.240002277222,2|0,1:2|0:2,0:0:0:0:
143,244,47104,2,0,P|212:261|255:342,1,149.240002277222,2|0,1:2|0:2,0:0:0:0:
303,205,47577,1,0,1:2:0:0:
157,340,47735,2,0,P|105:321|76:317,1,74.6200011386109,2|0,0:2|0:2,0:0:0:0:
84,173,48051,2,0,P|136:154|165:150,1,74.6200011386109,2|0,1:2|0:2,0:0:0:0:
143,351,48367,2,0,P|91:332|62:328,1,74.6200011386109,2|2,1:2|0:3,0:0:0:0:
230,218,48683,6,0,B|321:227|287:263|365:281,1,149.240002277222,2|0,1:2|0:2,0:0:0:0:
480,304,49156,2,0,P|428:309|328:363,1,149.240002277222,2|0,1:2|0:2,0:0:0:0:
423,220,49630,2,0,P|439:164|437:130,1,74.6200011386109,2|2,1:2|0:2,0:0:0:0:
240,307,49946,5,0,1:0:0:0:
174,60,50104,1,8,0:0:0:0:
335,257,50261,1,10,0:0:0:0:
152,197,50419,1,8,3:0:0:0:
390,61,50577,1,10,0:0:0:0:
242,226,50735,1,4,3:0:0:0:
493,304,50893,1,10,0:0:0:0:
309,93,51051,1,8,0:0:0:0:
173,358,51209,6,0,P|113:342|80:218,1,185.640001133057,6|0,1:2|0:2,0:0:0:0:
139,95,51683,1,2,1:2:0:0:
267,251,51840,2,0,P|326:272|364:267,1,92.8200005665283,8|0,0:2|0:2,0:0:0:0:
458,71,52156,2,0,B|346:68|388:134|279:148,1,185.640001133057,2|0,1:2|0:2,0:0:0:0:
154,53,52630,1,0,1:2:0:0:
227,218,52788,2,0,P|249:279|255:317,1,92.8200005665283,2|0,1:2|0:2,0:0:0:0:
97,217,53104,2,0,P|106:171|123:128,1,92.8200005665283,10|0,0:2|0:2,0:0:0:0:
252,227,53419,2,0,P|274:288|280:326,1,92.8200005665283,2|0,1:2|0:2,0:0:0:0:
304,107,53735,6,0,P|341:61|462:75,1,185.640001133057,2|0,1:2|0:2,0:0:0:0:
512,186,54209,1,2,1:2:0:0:
309,140,54367,1,8,0:2:0:0:
309,140,54683,2,0,B|201:136|245:198|136:219,1,185.640001133057,2|0,1:2|0:2,0:0:0:0:
293,233,55156,1,0,1:2:0:0:
147,118,55314,2,0,P|135:62|140:18,1,92.8200005665283,0|0,1:2|0:2,0:0:0:0:
68,246,55630,1,8,0:2:0:0:
230,125,55788,1,2,1:2:0:0:
35,103,55946,1,0,1:2:0:0:
154,243,56104,1,2,1:2:0:0:
276,44,56261,6,0,P|339:14|427:85,1,185.640001133057,6|0,1:2|0:2,0:0:0:0:
425,237,56735,1,0,1:2:0:0:
317,119,56893,1,8,0:2:0:0:
317,119,57209,2,0,P|299:198|291:314,1,185.640001133057,0|0,1:2|0:2,0:0:0:0:
148,111,57683,1,8,0:2:0:0:
340,229,57840,1,0,1:2:0:0:
130,292,57998,1,8,3:0:0:0:
308,76,58156,1,8,0:2:0:0:
202,351,58314,1,8,0:2:0:0:
115,121,58472,1,2,1:2:0:0:
115,121,58788,6,0,B|214:115|179:186|294:192,1,185.640001133057,6|0,1:2|0:2,0:0:0:0:
419,102,59261,1,2,1:2:0:0:
379,249,59419,2,0,P|369:307|371:364,1,92.8200005665283,8|0,0:2|0:2,0:0:0:0:
327,97,59735,2,0,P|284:44|153:50,1,185.640001133057,2|0,1:2|0:2,0:0:0:0:
94,143,60209,1,0,1:2:0:0:
245,207,60367,2,0,P|311:183|347:178,1,92.8200005665283,2|0,1:2|0:2,0:0:0:0:
174,328,60683,2,0,P|128:318|86:301,1,92.8200005665283,10|0,0:2|0:2,0:0:0:0:
251,183,60998,2,0,P|317:159|353:154,1,92.8200005665283,2|0,1:2|0:2,0:0:0:0:
76,213,61314,6,0,P|59:145|152:44,1,185.640001133057,2|0,1:2|0:2,0:0:0:0:
264,34,61788,1,2,1:2:0:0:
166,200,61946,1,8,0:2:0:0:
166,200,62261,2,0,B|279:198|234:260|354:272,1,185.640001133057,2|0,1:2|0:2,0:0:0:0:
466,206,62735,1,0,1:2:0:0:
345,344,62893,1,0,1:2:0:0:
345,344,63209,1,0,3:2:0:0:
399,139,63367,1,8,3:0:0:0:
462,303,63525,1,2,1:2:0:0:
462,303,63840,6,0,P|403:274|359:263,1,92.8200005665283,6|0,1:2|0:2,0:0:0:0:
145,286,64156,1,8,0:2:0:0:
480,124,64314,6,0,P|417:146|379:169,1,92.8200005665283,6|0,1:2|0:2,0:0:0:0:
243,336,64630,1,8,0:2:0:0:
307,90,64788,2,0,P|279:34|145:35,1,185.640001133057,6|0,1:2|0:2,0:0:0:0:
62,244,65261,1,8,0:2:0:0:
280,172,65419,1,0,1:2:0:0:
132,158,65577,1,0,1:2:0:0:
361,318,65735,1,8,0:2:0:0:
307,90,65893,1,8,0:2:0:0:
233,291,66051,1,2,1:2:0:0:
233,291,66367,6,0,B|344:284|285:349|431:353,1,182,6|0,1:2|0:2,0:0:0:0:
188,200,66840,2,0,P|266:167|395:142,1,182,6|0,1:2|0:2,0:0:0:0:
109,289,67314,2,0,P|34:218|47:117,1,196.560004798828,6|0,1:2|0:2,0:0:0:0:
205,27,67945,6,0,P|189:81|190:106,1,72.8,2|0,1:2|0:0,0:0:0:0:
205,136,68419,5,8,0:0:0:0:
438,194,68577,1,8,3:0:0:0:
156,215,68735,1,8,3:0:0:0:
408,108,68893,1,8,0:0:0:0:
408,108,68972,1,8,0:0:0:0:
408,108,69051,1,8,0:0:0:0:
260,331,69209,1,8,0:0:0:0:
199,100,69367,2,0,P|192:77|187:49,1,46.4100002832642,8|8,0:0|0:0,0:0:0:0:
309,244,69524,5,2,1:2:0:0:
309,244,69681,2,0,P|323:187|322:132,1,101.920001244141,2|8,0:2|0:2,0:0:0:0:
128,239,69997,2,0,P|129:289|142:338,1,101.920001244141,2|0,0:2|1:2,0:0:0:0:
237,180,70313,1,2,1:2:0:0:
63,174,70471,1,8,0:2:0:0:
269,313,70629,6,0,P|337:289|393:282,1,101.920001244141,2|0,1:2|0:2,0:0:0:0:
200,133,70945,2,0,P|249:143|297:161,1,101.920001244141,2|8,1:2|0:2,0:0:0:0:
59,270,71260,2,0,P|108:259|156:241,1,101.920001244141,2|0,0:2|1:2,0:0:0:0:
26,151,71576,1,2,1:2:0:0:
207,92,71734,1,8,0:2:0:0:
51,231,71892,1,2,1:2:0:0:
339,82,72050,6,0,P|318:151|299:302,1,203.840002488281,0|8,1:2|0:2,0:0:0:0:
197,138,72524,1,0,0:2:0:0:
153,296,72681,1,0,1:2:0:0:
272,204,72839,1,0,1:2:0:0:
94,132,72997,1,10,0:2:0:0:
230,233,73155,1,0,1:2:0:0:
55,256,73313,6,0,P|106:218|166:201,1,101.920001244141,2|0,1:2|0:2,0:0:0:0:
281,316,73629,2,0,P|233:296|194:265,1,101.920001244141,8|0,0:2|0:2,0:0:0:0:
130,110,73945,1,2,1:2:0:0:
137,324,74102,1,8,0:2:0:0:
243,117,74260,1,8,0:2:0:0:
359,298,74418,6,0,P|402:263|393:112,1,203.840002488281,6|0,1:2|1:2,0:0:0:0:
239,9,74892,2,0,P|268:79|292:222,1,203.840002488281,8|0,0:2|1:2,0:0:0:0:
232,345,75366,1,0,1:2:0:0:
149,205,75524,2,0,P|130:143|127:92,1,101.920001244141,10|0,0:2|1:2,0:0:0:0:
317,289,75839,5,2,1:2:0:0:
317,289,75997,2,0,P|386:306|438:301,1,101.920001244141,2|8,1:2|0:2,0:0:0:0:
206,243,76313,2,0,P|155:244|106:258,1,101.920001244141,2|0,0:2|1:2,0:0:0:0:
315,181,76629,1,2,1:2:0:0:
178,106,76787,1,8,0:2:0:0:
353,41,76945,1,2,0:2:0:0:
107,5,77102,6,0,P|137:106|153:218,2,203.840002488281,4|8|0,1:2|0:2|1:2,0:0:0:0:
59,179,77892,1,2,1:2:0:0:
247,59,78050,1,10,0:2:0:0:
65,271,78208,2,0,B|191:267|121:327|259:334,1,203.840002488281,6|8,1:2|0:2,0:0:0:0:
463,200,78681,1,8,0:2:0:0:
224,142,78839,1,0,1:2:0:0:
380,263,78997,5,8,3:0:0:0:
380,263,79076,1,8,3:0:0:0:
380,263,79155,2,0,P|386:288|390:319,1,50.9600006220703,8|8,3:0|3:0,0:0:0:0:
319,162,79313,1,4,3:0:0:0:
319,162,79392,1,4,3:0:0:0:
318,161,79471,2,0,P|323:136|327:111,1,50.9600006220703,4|4,3:0|3:0,0:0:0:0:
224,252,79629,5,2,1:2:0:0:
224,252,79787,2,0,L|110:267,1,101.920001244141,2|8,0:2|0:2,0:0:0:0:
278,70,80102,2,0,L|379:83,1,101.920001244141,2|0,0:2|1:2,0:0:0:0:
201,167,80418,1,2,1:2:0:0:
405,157,80576,1,8,0:2:0:0:
178,68,80734,6,0,L|155:169,1,101.920001244141,2|0,1:2|0:2,0:0:0:0:
387,259,81050,2,0,L|364:159,1,101.920001244141,2|8,1:2|0:2,0:0:0:0:
223,67,81366,2,0,L|200:168,1,101.920001244141,2|0,0:2|1:2,0:0:0:0:
305,284,81681,1,2,1:2:0:0:
355,118,81839,1,8,0:2:0:0:
178,245,81997,1,2,1:2:0:0:
444,177,82155,6,0,L|208:138,1,203.840002488281,0|8,1:2|0:2,0:0:0:0:
116,186,82629,1,0,0:2:0:0:
236,304,82787,1,0,1:2:0:0:
209,134,82945,1,0,1:2:0:0:
138,335,83102,2,0,L|32:379,1,101.920001244141,10|0,0:2|1:2,0:0:0:0:
270,204,83418,6,0,L|364:243,1,101.920001244141,2|0,1:2|0:2,0:0:0:0:
98,97,83734,1,8,0:2:0:0:
98,97,84050,1,2,1:2:0:0:
347,60,84208,1,8,0:2:0:0:
171,41,84366,1,8,0:2:0:0:
403,1,84524,6,0,L|370:229,1,203.840002488281,6|0,1:2|1:2,0:0:0:0:
260,51,84997,2,0,L|274:159,1,101.920001244141,8|0,0:2|0:0,0:0:0:0:
452,246,85313,2,0,L|465:144,1,101.920001244141,0|0,1:2|1:2,0:0:0:0:
307,313,85629,2,0,L|177:285,1,101.920001244141,10|0,0:2|1:2,0:0:0:0:
96,155,85945,5,2,1:2:0:0:
96,155,86102,2,0,L|195:133,1,101.920001244141,2|8,1:2|0:2,0:0:0:0:
360,235,86418,2,0,L|260:213,1,101.920001244141,2|0,0:2|1:2,0:0:0:0:
328,101,86734,1,2,1:2:0:0:
178,43,86892,1,8,0:2:0:0:
384,22,87050,1,2,0:2:0:0:
144,27,87208,6,0,L|178:249,2,203.840002488281,4|8|0,1:2|0:2|1:2,0:0:0:0:
277,179,87997,1,2,1:2:0:0:
75,125,88155,1,10,0:2:0:0:
329,87,88313,2,0,L|299:309,1,203.840002488281,6|8,1:2|0:2,0:0:0:0:
229,100,88787,1,8,0:2:0:0:
392,198,88945,1,0,1:2:0:0:
179,245,89102,5,8,0:0:0:0:
179,245,89181,1,8,0:0:0:0:
179,245,89260,1,8,0:0:0:0:
349,121,89418,1,8,0:0:0:0:
130,77,89576,2,0,L|61:63,1,50.9600006220703,8|8,0:0|0:0,0:0:0:0:
262,184,89734,5,2,1:2:0:0:
262,184,89892,2,0,B|322:192|298:221|380:228,1,101.920001244141,2|8,0:2|0:2,0:0:0:0:
143,266,90208,2,0,B|83:274|107:303|25:310,1,101.920001244141,2|0,0:2|1:2,0:0:0:0:
265,285,90524,1,2,1:2:0:0:
146,158,90681,1,8,0:2:0:0:
354,298,90839,6,0,B|368:241|335:251|353:170,1,101.920001244141,2|0,1:2|0:2,0:0:0:0:
237,77,91155,2,0,B|250:130|217:120|231:177,1,101.920001244141,2|8,1:2|0:2,0:0:0:0:
368,287,91471,2,0,B|382:230|349:240|367:159,1,101.920001244141,2|0,0:2|1:2,0:0:0:0:
247,264,91787,1,2,1:2:0:0:
323,106,91945,1,8,0:2:0:0:
443,207,92102,1,2,1:2:0:0:
209,102,92260,6,0,B|93:89|122:190|7:182,1,203.840002488281,0|8,1:2|0:2,0:0:0:0:
65,65,92734,1,0,0:2:0:0:
184,188,92892,1,0,1:2:0:0:
233,21,93050,1,0,1:2:0:0:
279,207,93208,2,0,B|292:271|259:259|280:328,1,101.920001244141,10|0,0:2|1:2,0:0:0:0:
357,115,93524,5,2,1:2:0:0:
362,287,93681,1,0,0:2:0:0:
257,120,93839,1,8,0:2:0:0:
257,120,94155,1,2,1:2:0:0:
409,197,94313,1,8,0:2:0:0:
264,227,94471,1,8,0:2:0:0:
471,125,94629,6,0,B|359:127|392:204|281:206,1,203.840002488281,6|0,1:2|1:2,0:0:0:0:
136,110,95102,2,0,B|197:106|169:134|251:135,1,101.920001244141,8|0,0:2|0:0,0:0:0:0:
137,194,95418,1,0,1:2:0:0:
235,51,95576,1,0,1:2:0:0:
210,243,95734,2,0,B|200:292|236:290|224:359,1,101.920001244141,10|0,0:2|1:2,0:0:0:0:
304,158,96050,5,2,1:2:0:0:
304,158,96208,2,0,B|298:112|330:108|320:59,1,101.920001244141,2|8,1:2|0:2,0:0:0:0:
420,217,96524,2,0,B|410:266|442:270|436:316,1,101.920001244141,2|0,0:2|1:2,0:0:0:0:
404,127,96839,1,2,1:2:0:0:
317,246,96997,1,8,0:2:0:0:
210,133,97155,1,2,0:2:0:0:
98,345,97313,6,0,B|78:213|142:285|113:132,2,203.840002488281,4|8|0,1:2|0:2|1:2,0:0:0:0:
203,177,98102,1,2,1:2:0:0:
308,338,98260,1,10,0:2:0:0:
403,87,98418,2,0,B|288:80|331:177|217:201,1,203.840002488281,6|8,1:2|0:2,0:0:0:0:
440,180,98892,1,8,0:2:0:0:
228,79,99050,1,0,1:2:0:0:
354,235,99208,2,0,P|366:294|367:302,3,50.9600006220703,8|8|8|8,3:0|3:0|3:0|3:0,0:0:0:0:
259,160,99524,2,0,P|263:134|269:110,3,50.9600006220703,4|4|4|4,3:0|3:0|3:0|3:0,0:0:0:0:
203,241,99839,5,14,0:2:0:0:
342,187,99997,1,2,1:2:0:0:
164,126,100155,5,8,0:2:0:0:
354,235,100313,1,2,1:2:0:0:
130,277,100471,5,8,0:2:0:0:
409,152,100629,1,2,1:2:0:0:
92,84,100787,5,8,0:2:0:0:
377,200,100945,1,2,1:2:0:0:
108,353,101102,5,8,0:2:0:0:
155,155,101260,1,2,1:2:0:0:
256,287,101418,5,8,0:2:0:0:
209,89,101576,1,2,1:2:0:0:
101,250,101734,5,8,0:2:0:0:
153,28,101892,1,2,1:2:0:0:
321,222,102050,5,8,0:2:0:0:
269,0,102208,1,2,1:2:0:0:
203,232,102366,6,0,P|191:301|191:359,1,101.920001244141,8|0,0:0|1:0,0:0:0:0:
361,138,102681,2,0,P|357:87|347:37,1,101.920001244141,8|0,0:0|1:0,0:0:0:0:
303,255,102997,5,8,0:2:0:0:
261,122,103155,1,2,1:2:0:0:
385,279,103313,5,10,0:2:0:0:
176,224,103471,1,2,1:2:0:0:
386,120,103629,6,0,P|452:93|493:83,1,101.920001244141,8|0,0:0|1:0,0:0:0:0:
252,92,103945,2,0,P|203:77|156:57,1,101.920001244141,8|0,0:0|1:0,0:0:0:0:
325,215,104260,5,8,0:2:0:0:
138,227,104418,1,2,1:2:0:0:
294,102,104576,5,10,0:2:0:0:
180,325,104734,2,0,P|166:204|139:106,1,203.840002488281,6|0,1:2|1:0,0:0:0:0:
306,245,105208,6,0,P|362:281|404:291,1,101.920001244141,8|0,0:0|1:0,0:0:0:0:
262,121,105524,2,0,P|213:136|172:165,1,101.920001244141,8|2,0:0|1:2,0:0:0:0:
406,172,105839,5,10,0:0:0:0:
316,26,105997,1,2,0:2:0:0:
265,250,106155,6,0,P|209:286|167:296,1,101.920001244141,8|0,0:0|1:0,0:0:0:0:
180,51,106471,2,0,P|228:66|269:95,1,101.920001244141,8|0,0:0|1:0,0:0:0:0:
117,192,106787,2,0,P|68:176|27:147,1,101.920001244141,8|2,0:0|1:2,0:0:0:0:
267,131,107102,5,10,0:0:0:0:
105,100,107260,1,2,1:2:0:0:
347,91,107418,5,8,0:0:0:0:
117,192,107576,1,0,1:2:0:0:
376,208,107734,5,8,0:0:0:0:
205,63,107892,1,0,1:2:0:0:
291,271,108050,5,8,0:0:0:0:
361,40,108208,1,2,1:2:0:0:
152,175,108366,5,10,0:0:0:0:
408,186,108524,2,0,B|286:180|322:256|199:263,1,203.840002488281,6|8,1:2|0:0,0:0:0:0:
400,277,108997,5,8,0:0:0:0:
248,156,109155,1,0,1:0:0:0:
168,320,109313,6,0,P|159:371|159:377,3,50.9600006220703,10|8|8|8,0:0|0:0|0:0|0:0,0:0:0:0:
284,234,109629,2,0,P|281:208|275:184,3,50.9600006220703,8|8|8|8,0:0|0:0|0:0|0:0,0:0:0:0:
161,86,109945,5,6,1:2:0:0:
256,192,110024,12,0,112313,0:0:0:0:
256,192,112471,5,2,1:2:0:0:
256,192,112629,2,0,P|185:169|149:168,1,92.8200005665283,2|8,0:2|0:2,0:0:0:0:
254,311,112945,2,0,P|299:304|342:286,1,92.8200005665283,2|0,0:2|1:2,0:0:0:0:
403,193,113260,1,2,1:2:0:0:
439,314,113418,1,8,0:2:0:0:
472,124,113576,2,0,P|418:78|306:74,1,185.640001133057,2|2,1:2|1:2,0:0:0:0:
192,221,114050,2,0,P|242:188|263:154,2,92.8200005665283,8|0|0,0:2|0:2|1:2,0:0:0:0:
233,25,114524,1,8,0:2:0:0:
329,204,114681,1,8,0:2:0:0:
170,120,114839,6,0,B|64:129|91:197|9:215,1,185.640001133057,6|0,1:2|1:2,0:0:0:0:
192,221,115313,2,0,P|289:233|391:277,1,185.640001133057,8|0,0:2|1:2,0:0:0:0:
289,333,115787,1,0,1:2:0:0:
454,250,115945,1,10,0:2:0:0:
333,151,116102,2,0,P|314:97|306:56,1,92.8200005665283,2|0,1:2|0:2,0:0:0:0:
215,277,116418,2,0,P|231:233|241:188,1,92.8200005665283,2|8,1:2|0:2,0:0:0:0:
345,359,116734,2,0,P|328:315|318:270,1,92.8200005665283,2|0,0:2|1:2,0:0:0:0:
167,367,117050,1,2,1:2:0:0:
110,191,117208,1,8,0:2:0:0:
110,191,117524,6,0,B|211:191|178:246|296:249,2,185.640001133057,2|8|0,1:2|0:2|1:2,0:0:0:0:
263,155,118313,1,2,1:2:0:0:
119,281,118471,1,10,0:2:0:0:
278,74,118629,2,0,P|305:184|312:272,1,185.640001133057,6|8,1:2|0:2,0:0:0:0:
378,77,119102,1,8,0:2:0:0:
228,176,119260,1,0,1:2:0:0:
420,214,119418,2,0,P|447:221|480:221,3,46.4100002832642,8|8|8|8,3:0|3:0|3:0|3:0,0:0:0:0:
349,106,119734,2,0,P|322:99|289:99,3,46.4100002832642,4|4|4|4,3:0|3:0|3:0|3:0,0:0:0:0:
211,214,120050,5,2,1:2:0:0:
211,214,120208,2,0,P|131:224|100:218,1,92.8200005665283,2|8,0:2|0:2,0:0:0:0:
292,299,120524,2,0,P|338:297|383:307,1,92.8200005665283,2|0,0:2|1:2,0:0:0:0:
218,348,120839,1,2,1:2:0:0:
319,211,120997,1,8,0:2:0:0:
103,305,121155,2,0,P|87:229|85:118,1,185.640001133057,2|2,1:2|1:2,0:0:0:0:
237,34,121629,1,8,0:2:0:0:
177,149,121787,1,2,0:2:0:0:
144,36,121945,1,0,1:2:0:0:
224,153,122102,1,2,1:2:0:0:
279,33,122260,1,8,0:2:0:0:
311,219,122418,6,0,P|334:175|380:143,1,92.8200005665283,2|0,1:2|1:2,0:0:0:0:
177,149,122734,2,0,P|154:193|108:225,1,92.8200005665283,0|8,0:0|0:2,0:0:0:0:
274,99,123050,2,0,P|331:59|391:64,1,92.8200005665283,0|0,0:2|1:2,0:0:0:0:
249,208,123366,2,0,P|192:248|132:243,1,92.8200005665283,0|10,1:2|0:2,0:0:0:0:
115,90,123681,2,0,P|210:102|262:214,1,185.640001133057,0|0,1:2|0:2,0:0:0:0:
81,230,124155,1,8,0:2:0:0:
81,230,124471,1,2,1:2:0:0:
243,294,124629,1,8,0:2:0:0:
127,325,124787,1,8,0:2:0:0:
274,185,124945,6,0,B|383:178|341:255|457:250,1,185.640001133057,6|0,1:2|1:2,0:0:0:0:
268,282,125418,2,0,P|200:254|78:231,1,185.640001133057,8|0,0:2|1:2,0:0:0:0:
196,146,125892,1,0,1:2:0:0:
79,108,126050,1,10,0:2:0:0:
237,59,126208,2,0,P|303:43|345:39,1,92.8200005665283,0|2,1:2|1:2,0:0:0:0:
158,181,126524,2,0,P|203:187|248:199,1,92.8200005665283,2|8,1:2|0:2,0:0:0:0:
64,81,126839,2,0,P|109:74|154:62,1,92.8200005665283,2|0,0:2|1:2,0:0:0:0:
31,203,127155,1,2,1:2:0:0:
196,146,127313,1,8,0:2:0:0:
196,146,127629,6,0,P|161:252|164:330,2,185.640001133057,4|8|0,1:2|0:2|1:2,0:0:0:0:
253,250,128418,1,2,1:2:0:0:
330,88,128576,1,10,0:2:0:0:
408,213,128734,2,0,B|293:209|351:152|226:158,1,185.640001133057,6|8,1:2|0:0,0:0:0:0:
413,117,129208,1,8,0:0:0:0:
238,262,129366,1,0,1:0:0:0:
439,204,129524,5,8,0:0:0:0:
439,204,129602,1,8,0:0:0:0:
439,204,129681,1,8,0:0:0:0:
206,161,129839,1,8,0:0:0:0:
459,243,129997,1,8,0:0:0:0:
