osu file format v14

[General]
AudioFilename: audio.mp3
AudioLeadIn: 0
PreviewTime: 68922
Countdown: 0
SampleSet: Normal
StackLeniency: 0.7
Mode: 1
LetterboxInBreaks: 0
WidescreenStoryboard: 0

[Editor]
Bookmarks: 10738,30948
DistanceSpacing: 0.2
BeatDivisor: 4
GridSize: 8
TimelineZoom: 2.4

[Metadata]
Title:Ame to Asphalt
TitleUnicode:雨とアスファルト
Artist:40mP feat. yuikonnu
ArtistUnicode:40mP feat. ゆいこんぬ
Creator:Nao Tomori
Version:Rain
Source:
Tags:and vocaloid hatsune miku 初音ミク yonjuu nana meter yonjuunana yonjuunanamp 40mp 40㍍P △○□× nico douga シンタイソクテイ asufaruto utaite cover exit tunes presents cindarella yuiko taiko oni
BeatmapID:2204010
BeatmapSetID:1054811

[Difficulty]
HPDrainRate:5
CircleSize:5
OverallDifficulty:6
ApproachRate:5
SliderMultiplier:1.4
SliderTickRate:1

[Events]
//Background and Video events
0,0,"BG2.jpg",0,-100
//Break Periods
//Storyboard Layer 0 (Background)
//Storyboard Layer 1 (Fail)
//Storyboard Layer 2 (Pass)
//Storyboard Layer 3 (Foreground)
//Storyboard Layer 4 (Overlay)
//Storyboard Sound Samples

[TimingPoints]
633,315.789473684211,4,1,1,60,1,0
30948,-100,4,1,1,70,0,0
50054,-100,4,1,1,75,0,0
51159,-100,4,1,1,80,0,0
51633,-100,4,1,1,70,0,0
58738,-100,4,1,1,80,0,0
58896,-100,4,1,1,70,0,0
63790,-100,4,1,1,80,0,0
66317,315.789473684211,6,1,1,80,1,0
68211,315.789473684211,4,1,1,80,1,0
69474,315.789473684211,4,1,1,90,1,1
69474,-100,4,1,1,90,0,1
89684,-100,4,1,1,90,0,0
89842,-100,4,1,1,80,0,0
99947,-100,4,1,1,70,0,0
109895,-100,4,1,1,75,0,0
120000,-100,4,1,1,80,0,0
120158,-100,4,1,1,70,0,0
127579,-100,4,1,1,80,0,0
127737,-100,4,1,1,70,0,0
132631,-100,4,1,1,80,0,0
137684,-100,4,1,1,90,0,1
157895,-100,4,1,1,90,0,0
158052,-100,4,1,1,80,0,0
178263,-100,4,1,1,60,0,0
188210,-100,4,1,1,65,0,0
207316,-100,4,1,1,80,0,0
208421,-100,4,1,1,90,0,1
238737,-100,4,1,1,100,0,1
248842,-100,4,1,1,100,0,0
249000,-100,4,1,1,80,0,0

[HitObjects]
153,243,633,5,8,0:0:0:0:
153,243,790,1,0,0:0:0:0:
153,243,948,1,0,0:0:0:0:
153,243,1106,1,8,0:0:0:0:
153,243,1422,1,8,0:0:0:0:
153,243,1738,1,0,0:0:0:0:
182,169,2211,1,8,0:0:0:0:
176,176,2527,1,8,0:0:0:0:
176,176,2843,1,8,0:0:0:0:
173,179,3159,1,0,0:0:0:0:
173,179,3317,1,0,0:0:0:0:
173,179,3475,1,8,0:0:0:0:
173,179,3633,1,8,0:0:0:0:
173,179,3948,1,8,0:0:0:0:
173,179,4264,1,0,0:0:0:0:
182,169,4738,1,8,0:0:0:0:
176,176,5054,1,8,0:0:0:0:
176,176,5369,1,8,0:0:0:0:
280,219,5685,1,0,0:0:0:0:
280,219,5843,1,8,0:0:0:0:
280,219,6001,1,8,0:0:0:0:
280,219,6159,1,8,0:0:0:0:
280,219,6475,1,8,0:0:0:0:
280,219,6790,1,0,0:0:0:0:
182,169,7264,1,8,0:0:0:0:
176,176,7580,1,8,0:0:0:0:
176,176,7896,1,8,0:0:0:0:
251,238,8211,1,0,0:0:0:0:
158,248,8369,1,8,0:0:0:0:
172,238,8527,1,0,0:0:0:0:
172,238,8685,1,8,0:0:0:0:
172,238,9001,1,8,0:0:0:0:
172,238,9317,1,0,0:0:0:0:
182,169,9790,1,8,0:0:0:0:
176,176,10106,1,8,0:0:0:0:
176,176,10422,1,8,0:0:0:0:
161,128,10580,1,0,0:0:0:0:
227,197,10738,1,8,0:0:0:0:
239,211,11211,1,8,0:0:0:0:
235,222,11685,1,0,0:0:0:0:
235,222,12317,1,0,0:0:0:0:
235,222,12633,1,8,0:0:0:0:
235,222,12948,1,8,0:0:0:0:
235,222,13264,1,0,0:0:0:0:
235,222,13738,1,0,0:0:0:0:
235,222,14211,1,0,0:0:0:0:
235,223,15001,1,0,0:0:0:0:
235,223,15159,1,8,0:0:0:0:
235,223,15475,1,8,0:0:0:0:
235,223,15790,1,0,0:0:0:0:
235,223,16264,1,8,0:0:0:0:
235,223,16738,1,8,0:0:0:0:
235,223,17369,1,0,0:0:0:0:
235,223,17685,1,8,0:0:0:0:
235,223,18001,1,8,0:0:0:0:
235,223,18317,1,0,0:0:0:0:
235,223,18790,1,8,0:0:0:0:
235,223,19264,1,0,0:0:0:0:
235,223,19896,1,8,0:0:0:0:
235,223,20211,1,8,0:0:0:0:
235,223,20527,1,8,0:0:0:0:
235,223,20843,1,0,0:0:0:0:
239,156,21317,1,8,0:0:0:0:
239,156,21790,1,0,0:0:0:0:
239,156,22422,1,0,0:0:0:0:
239,156,22738,1,8,0:0:0:0:
239,156,23054,1,8,0:0:0:0:
239,156,23369,1,0,0:0:0:0:
178,203,23843,1,8,0:0:0:0:
177,190,24317,1,0,0:0:0:0:
177,190,25106,1,0,0:0:0:0:
177,190,25264,1,8,0:0:0:0:
188,159,25580,1,0,0:0:0:0:
188,159,25738,1,8,0:0:0:0:
188,159,25896,1,0,0:0:0:0:
187,160,26369,1,0,0:0:0:0:
187,160,26843,1,8,0:0:0:0:
189,168,27475,1,0,0:0:0:0:
189,168,27790,1,8,0:0:0:0:
189,168,28106,1,0,0:0:0:0:
189,168,28422,1,8,0:0:0:0:
189,168,28896,1,8,0:0:0:0:
189,168,29369,1,0,0:0:0:0:
176,90,29843,1,8,0:0:0:0:
176,90,29922,1,8,0:0:0:0:
176,90,30001,1,8,0:0:0:0:
176,90,30159,1,8,0:0:0:0:
176,90,30317,1,0,0:0:0:0:
176,91,30633,1,0,0:0:0:0:
176,91,30948,1,12,0:0:0:0:
167,128,31422,1,0,0:0:0:0:
167,128,31896,1,0,0:0:0:0:
167,128,32211,1,8,0:0:0:0:
163,124,32369,1,0,0:0:0:0:
152,100,32685,1,8,0:0:0:0:
152,100,32843,1,0,0:0:0:0:
152,100,33159,1,0,0:0:0:0:
189,90,33317,1,8,0:0:0:0:
184,91,33475,1,0,0:0:0:0:
179,71,33790,1,8,0:0:0:0:
179,71,33948,1,0,0:0:0:0:
179,72,34264,1,8,0:0:0:0:
179,72,34422,1,0,0:0:0:0:
179,72,34738,1,8,0:0:0:0:
179,72,34896,1,0,0:0:0:0:
179,72,34975,1,0,0:0:0:0:
179,72,35054,1,8,0:0:0:0:
179,72,35211,1,8,0:0:0:0:
179,72,35369,1,0,0:0:0:0:
179,73,35685,1,0,0:0:0:0:
179,73,35843,1,8,0:0:0:0:
165,70,36001,1,0,0:0:0:0:
149,99,36475,1,0,0:0:0:0:
192,131,36948,1,0,0:0:0:0:
190,131,37264,1,8,0:0:0:0:
190,131,37422,1,0,0:0:0:0:
188,131,37738,1,8,0:0:0:0:
188,131,37896,1,0,0:0:0:0:
188,131,38211,1,0,0:0:0:0:
188,131,38369,1,8,0:0:0:0:
183,130,38527,1,0,0:0:0:0:
183,131,38843,1,8,0:0:0:0:
183,131,39001,1,0,0:0:0:0:
183,131,39317,1,8,0:0:0:0:
183,131,39475,1,0,0:0:0:0:
183,131,39633,1,8,0:0:0:0:
176,129,39948,1,0,0:0:0:0:
176,129,40106,1,8,0:0:0:0:
176,129,40422,1,0,0:0:0:0:
176,129,40580,1,0,0:0:0:0:
176,129,40738,1,8,0:0:0:0:
176,129,40896,1,8,0:0:0:0:
220,71,40975,1,8,0:0:0:0:
176,129,41054,1,0,0:0:0:0:
222,201,41527,1,0,0:0:0:0:
222,201,42001,1,0,0:0:0:0:
167,32,42317,1,8,0:0:0:0:
217,202,42475,1,0,0:0:0:0:
217,202,42790,1,8,0:0:0:0:
214,193,42948,1,0,0:0:0:0:
214,193,43264,1,0,0:0:0:0:
214,193,43422,1,8,0:0:0:0:
196,97,43580,1,0,0:0:0:0:
197,107,44054,1,0,0:0:0:0:
193,91,44527,1,0,0:0:0:0:
193,91,44843,1,8,0:0:0:0:
193,91,45001,1,0,0:0:0:0:
174,95,45159,1,8,0:0:0:0:
174,95,45475,1,0,0:0:0:0:
174,95,45633,1,8,0:0:0:0:
174,95,45790,1,8,0:0:0:0:
174,95,45948,1,8,0:0:0:0:
174,86,46106,1,0,0:0:0:0:
163,77,46580,1,0,0:0:0:0:
172,85,47054,1,0,0:0:0:0:
172,85,47369,1,8,0:0:0:0:
172,85,47527,1,0,0:0:0:0:
172,85,47843,1,8,0:0:0:0:
172,85,48001,1,0,0:0:0:0:
172,85,48317,1,0,0:0:0:0:
172,85,48475,1,8,0:0:0:0:
172,67,48633,1,0,0:0:0:0:
178,76,49106,1,0,0:0:0:0:
178,76,49580,1,0,0:0:0:0:
178,76,49896,1,0,0:0:0:0:
178,76,50054,1,8,0:0:0:0:
178,76,50133,1,0,0:0:0:0:
178,76,50211,1,8,0:0:0:0:
178,76,50369,1,0,0:0:0:0:
195,133,50448,1,0,0:0:0:0:
178,76,50527,1,8,0:0:0:0:
178,76,50685,1,0,0:0:0:0:
148,102,50764,1,0,0:0:0:0:
178,76,50843,1,8,0:0:0:0:
178,76,50922,1,0,0:0:0:0:
178,76,51001,1,8,0:0:0:0:
178,76,51159,1,4,0:0:0:0:
255,196,51633,1,0,0:0:0:0:
255,196,51790,1,8,0:0:0:0:
255,196,52106,1,0,0:0:0:0:
197,108,52580,1,0,0:0:0:0:
201,101,52738,1,0,0:0:0:0:
197,111,53054,1,8,0:0:0:0:
194,111,53369,1,0,0:0:0:0:
194,111,53527,1,8,0:0:0:0:
186,110,53685,1,0,0:0:0:0:
180,112,54159,1,0,0:0:0:0:
180,112,54317,1,8,0:0:0:0:
180,112,54633,1,0,0:0:0:0:
178,112,55106,1,0,0:0:0:0:
178,112,55264,1,0,0:0:0:0:
178,112,55580,1,8,0:0:0:0:
178,112,55738,1,0,0:0:0:0:
178,112,55817,1,0,0:0:0:0:
178,112,55896,1,0,0:0:0:0:
178,112,56054,1,0,0:0:0:0:
178,112,56211,1,12,0:0:0:0:
176,110,56685,1,0,0:0:0:0:
176,110,56843,1,8,0:0:0:0:
176,110,57159,1,0,0:0:0:0:
176,110,57633,1,8,0:0:0:0:
176,110,57790,1,0,0:0:0:0:
176,110,57948,1,0,0:0:0:0:
176,110,58027,1,0,0:0:0:0:
176,110,58106,1,8,0:0:0:0:
176,110,58185,1,0,0:0:0:0:
176,110,58264,1,8,0:0:0:0:
176,110,58422,1,0,0:0:0:0:
176,110,58580,1,0,0:0:0:0:
176,110,58738,1,12,0:0:0:0:
140,121,59211,1,0,0:0:0:0:
140,121,59369,1,8,0:0:0:0:
213,123,59685,1,0,0:0:0:0:
213,123,60159,1,0,0:0:0:0:
213,123,60317,1,0,0:0:0:0:
213,123,60633,1,8,0:0:0:0:
211,123,60948,1,0,0:0:0:0:
211,123,61106,1,8,0:0:0:0:
211,123,61264,1,0,0:0:0:0:
211,123,61738,1,0,0:0:0:0:
211,123,61896,1,8,0:0:0:0:
211,123,62211,1,0,0:0:0:0:
211,123,62685,1,0,0:0:0:0:
211,123,62843,1,0,0:0:0:0:
211,123,63159,1,8,0:0:0:0:
211,123,63317,1,0,0:0:0:0:
211,123,63396,1,8,0:0:0:0:
211,123,63475,1,0,0:0:0:0:
211,123,63633,1,0,0:0:0:0:
211,123,63790,1,12,0:0:0:0:
210,123,64106,1,8,0:0:0:0:
205,128,64264,1,0,0:0:0:0:
205,128,64580,1,8,0:0:0:0:
205,128,64738,1,4,0:0:0:0:
205,128,65211,1,8,0:0:0:0:
205,128,65369,1,0,0:0:0:0:
205,128,65527,1,0,0:0:0:0:
205,128,65606,1,0,0:0:0:0:
205,128,65685,1,8,0:0:0:0:
205,128,65764,1,0,0:0:0:0:
205,128,65843,1,8,0:0:0:0:
205,128,66001,1,0,0:0:0:0:
205,128,66159,1,8,0:0:0:0:
205,128,66317,1,4,0:0:0:0:
204,128,66790,1,4,0:0:0:0:
204,128,67264,1,12,0:0:0:0:
202,130,67895,1,12,0:0:0:0:
286,176,68368,1,8,0:0:0:0:
286,176,68447,1,0,0:0:0:0:
286,176,68526,1,8,0:0:0:0:
286,176,68684,1,0,0:0:0:0:
277,181,68842,1,8,0:0:0:0:
277,182,68921,1,8,0:0:0:0:
277,181,69000,1,0,0:0:0:0:
325,187,69158,1,8,0:0:0:0:
325,187,69316,1,0,0:0:0:0:
325,187,69395,1,0,0:0:0:0:
325,187,69474,1,12,0:0:0:0:
311,175,69631,1,0,0:0:0:0:
192,79,69789,1,0,0:0:0:0:
182,14,69947,1,8,0:0:0:0:
192,85,70026,1,8,0:0:0:0:
188,67,70105,1,0,0:0:0:0:
214,91,70263,1,0,0:0:0:0:
214,91,70421,1,8,0:0:0:0:
204,98,70579,1,0,0:0:0:0:
200,108,70895,1,0,0:0:0:0:
200,108,71052,1,8,0:0:0:0:
200,108,71210,1,0,0:0:0:0:
200,108,71289,1,0,0:0:0:0:
200,108,71368,1,0,0:0:0:0:
200,108,71526,1,8,0:0:0:0:
200,108,71605,1,8,0:0:0:0:
200,108,71684,1,8,0:0:0:0:
186,145,71842,1,0,0:0:0:0:
186,145,72000,1,8,0:0:0:0:
185,145,72316,1,8,0:0:0:0:
185,145,72474,1,0,0:0:0:0:
185,145,72552,1,8,0:0:0:0:
185,145,72631,1,0,0:0:0:0:
196,120,72789,1,0,0:0:0:0:
196,126,72947,1,8,0:0:0:0:
196,126,73105,1,0,0:0:0:0:
196,126,73263,1,8,0:0:0:0:
179,117,73421,1,0,0:0:0:0:
172,120,73500,1,0,0:0:0:0:
194,131,73579,1,0,0:0:0:0:
162,132,73658,1,0,0:0:0:0:
194,131,73737,1,8,0:0:0:0:
194,131,73895,1,0,0:0:0:0:
194,131,74052,1,8,0:0:0:0:
194,131,74210,1,8,0:0:0:0:
194,131,74368,1,4,0:0:0:0:
157,118,74684,1,0,0:0:0:0:
157,118,74842,1,8,0:0:0:0:
157,118,75000,1,8,0:0:0:0:
151,122,75079,1,8,0:0:0:0:
151,122,75158,1,0,0:0:0:0:
151,122,75316,1,0,0:0:0:0:
151,122,75474,1,8,0:0:0:0:
151,122,75631,1,0,0:0:0:0:
151,122,75789,1,8,0:0:0:0:
181,52,75868,1,0,0:0:0:0:
151,122,75947,1,8,0:0:0:0:
151,122,76026,1,8,0:0:0:0:
151,122,76105,1,0,0:0:0:0:
151,122,76263,1,8,0:0:0:0:
151,122,76579,1,0,0:0:0:0:
151,122,76737,1,8,0:0:0:0:
175,86,76895,1,8,0:0:0:0:
175,86,76974,1,8,0:0:0:0:
175,86,77052,1,0,0:0:0:0:
175,86,77210,1,0,0:0:0:0:
169,89,77368,1,8,0:0:0:0:
169,159,77684,1,8,0:0:0:0:
169,159,77842,1,0,0:0:0:0:
169,159,77921,1,0,0:0:0:0:
169,159,78000,1,8,0:0:0:0:
169,159,78079,1,0,0:0:0:0:
169,159,78158,1,8,0:0:0:0:
168,148,78474,1,8,0:0:0:0:
168,148,78631,1,8,0:0:0:0:
168,148,78789,1,0,0:0:0:0:
168,148,78947,1,8,0:0:0:0:
168,148,79026,1,0,0:0:0:0:
168,148,79105,1,0,0:0:0:0:
168,148,79184,1,0,0:0:0:0:
168,148,79263,1,8,0:0:0:0:
168,148,79342,1,0,0:0:0:0:
168,148,79421,1,0,0:0:0:0:
168,148,79500,1,0,0:0:0:0:
168,148,79579,1,12,0:0:0:0:
168,148,79737,1,0,0:0:0:0:
179,10,79895,1,0,0:0:0:0:
222,65,80052,1,8,0:0:0:0:
222,65,80131,1,8,0:0:0:0:
222,65,80210,1,0,0:0:0:0:
222,65,80368,1,0,0:0:0:0:
222,65,80447,1,0,0:0:0:0:
222,65,80526,1,8,0:0:0:0:
230,115,80684,1,0,0:0:0:0:
237,163,81000,1,0,0:0:0:0:
237,163,81158,1,8,0:0:0:0:
233,152,81316,1,0,0:0:0:0:
212,112,81395,1,8,0:0:0:0:
233,152,81474,1,0,0:0:0:0:
233,152,81552,1,0,0:0:0:0:
233,152,81631,1,8,0:0:0:0:
233,152,81789,1,8,0:0:0:0:
233,152,81947,1,0,0:0:0:0:
182,91,82026,1,0,0:0:0:0:
229,156,82105,1,8,0:0:0:0:
229,163,82421,1,8,0:0:0:0:
229,163,82579,1,0,0:0:0:0:
229,163,82658,1,0,0:0:0:0:
229,163,82737,1,0,0:0:0:0:
229,163,82895,1,0,0:0:0:0:
229,163,83052,1,8,0:0:0:0:
229,163,83210,1,0,0:0:0:0:
229,163,83368,1,8,0:0:0:0:
229,163,83526,1,0,0:0:0:0:
229,163,83684,1,8,0:0:0:0:
207,58,83763,1,8,0:0:0:0:
229,163,83842,1,8,0:0:0:0:
212,88,83921,1,8,0:0:0:0:
211,102,84000,1,0,0:0:0:0:
211,105,84158,1,8,0:0:0:0:
205,102,84316,1,8,0:0:0:0:
205,102,84474,1,4,0:0:0:0:
176,187,84789,1,0,0:0:0:0:
176,187,84947,1,8,0:0:0:0:
176,187,85105,1,0,0:0:0:0:
176,187,85184,1,8,0:0:0:0:
168,182,85263,1,0,0:0:0:0:
168,182,85421,1,0,0:0:0:0:
168,182,85579,1,8,0:0:0:0:
168,182,85737,1,0,0:0:0:0:
164,184,86052,1,0,0:0:0:0:
164,184,86131,1,0,0:0:0:0:
164,184,86210,1,8,0:0:0:0:
164,184,86368,1,8,0:0:0:0:
164,184,86526,1,0,0:0:0:0:
153,166,86684,1,0,0:0:0:0:
146,175,86842,1,8,0:0:0:0:
146,175,87000,1,0,0:0:0:0:
146,175,87079,1,8,0:0:0:0:
146,175,87158,1,0,0:0:0:0:
146,175,87474,1,8,0:0:0:0:
146,175,87631,1,8,0:0:0:0:
146,175,87710,1,8,0:0:0:0:
146,175,87789,1,0,0:0:0:0:
150,131,87947,1,0,0:0:0:0:
150,131,88105,1,8,0:0:0:0:
150,131,88263,1,0,0:0:0:0:
150,131,88342,1,0,0:0:0:0:
150,131,88421,1,8,0:0:0:0:
150,131,88579,1,8,0:0:0:0:
150,131,88737,1,0,0:0:0:0:
150,131,88816,1,0,0:0:0:0:
150,131,88895,1,0,0:0:0:0:
150,131,89052,1,8,0:0:0:0:
150,131,89131,1,8,0:0:0:0:
150,131,89210,1,0,0:0:0:0:
230,95,89368,1,0,0:0:0:0:
227,89,89447,1,0,0:0:0:0:
143,140,89526,1,0,0:0:0:0:
143,140,89605,1,0,0:0:0:0:
143,140,89684,1,12,0:0:0:0:
143,140,89842,1,0,0:0:0:0:
143,140,90000,1,8,0:0:0:0:
129,148,90158,1,0,0:0:0:0:
139,144,90474,1,0,0:0:0:0:
134,156,90631,1,8,0:0:0:0:
129,163,90789,1,0,0:0:0:0:
129,163,91105,1,0,0:0:0:0:
129,163,91263,1,8,0:0:0:0:
133,154,91421,1,0,0:0:0:0:
116,176,91737,1,8,0:0:0:0:
116,176,91816,1,8,0:0:0:0:
116,176,91895,1,0,0:0:0:0:
116,176,92052,1,0,0:0:0:0:
116,176,92210,1,12,0:0:0:0:
116,176,92368,1,0,0:0:0:0:
171,149,92526,1,8,0:0:0:0:
189,82,92684,1,0,0:0:0:0:
184,105,93000,1,0,0:0:0:0:
184,105,93158,1,8,0:0:0:0:
166,115,93316,1,4,0:0:0:0:
166,115,93631,1,0,0:0:0:0:
166,115,93789,1,8,0:0:0:0:
166,115,93947,1,0,0:0:0:0:
166,115,94026,1,0,0:0:0:0:
166,115,94105,1,0,0:0:0:0:
166,115,94263,1,0,0:0:0:0:
166,115,94342,1,0,0:0:0:0:
166,115,94421,1,8,0:0:0:0:
166,115,94500,1,0,0:0:0:0:
166,115,94579,1,8,0:0:0:0:
166,115,94737,1,4,0:0:0:0:
166,115,95052,1,8,0:0:0:0:
164,107,95210,1,0,0:0:0:0:
163,106,95289,1,0,0:0:0:0:
164,107,95368,1,0,0:0:0:0:
157,113,95526,1,0,0:0:0:0:
157,113,95684,1,8,0:0:0:0:
155,121,95842,1,4,0:0:0:0:
152,131,96158,1,0,0:0:0:0:
148,136,96316,1,8,0:0:0:0:
145,129,96474,1,0,0:0:0:0:
198,140,96789,1,0,0:0:0:0:
175,144,96947,1,8,0:0:0:0:
175,144,97105,1,8,0:0:0:0:
175,144,97263,1,4,0:0:0:0:
175,144,97579,1,8,0:0:0:0:
165,144,97737,1,0,0:0:0:0:
165,144,97895,1,0,0:0:0:0:
159,147,98052,1,0,0:0:0:0:
252,169,98131,1,0,0:0:0:0:
159,147,98210,1,8,0:0:0:0:
145,154,98368,1,4,0:0:0:0:
145,154,98684,1,8,0:0:0:0:
145,154,98763,1,0,0:0:0:0:
145,154,98842,1,8,0:0:0:0:
145,154,99000,1,0,0:0:0:0:
145,154,99158,1,8,0:0:0:0:
145,154,99316,1,0,0:0:0:0:
145,154,99395,1,0,0:0:0:0:
145,154,99474,1,0,0:0:0:0:
145,154,99631,1,0,0:0:0:0:
145,154,99789,1,12,0:0:0:0:
135,168,100105,1,8,0:0:0:0:
135,168,100263,1,0,0:0:0:0:
134,171,100579,1,0,0:0:0:0:
134,171,100737,1,8,0:0:0:0:
140,141,100895,1,0,0:0:0:0:
193,129,101210,1,0,0:0:0:0:
187,146,101368,1,8,0:0:0:0:
184,153,101684,1,0,0:0:0:0:
184,153,101842,1,0,0:0:0:0:
184,153,102000,1,8,0:0:0:0:
184,153,102316,1,0,0:0:0:0:
184,153,102631,1,8,0:0:0:0:
184,153,102789,1,0,0:0:0:0:
184,153,103105,1,0,0:0:0:0:
176,154,103263,1,8,0:0:0:0:
174,139,103421,1,0,0:0:0:0:
173,142,103737,1,0,0:0:0:0:
173,142,103895,1,8,0:0:0:0:
214,126,104210,1,0,0:0:0:0:
214,126,104368,1,0,0:0:0:0:
214,126,104526,1,8,0:0:0:0:
214,126,104684,1,8,0:0:0:0:
201,140,104842,1,0,0:0:0:0:
208,148,105158,1,8,0:0:0:0:
208,148,105316,1,0,0:0:0:0:
208,148,105631,1,0,0:0:0:0:
208,148,105789,1,8,0:0:0:0:
208,148,105947,1,0,0:0:0:0:
206,149,106263,1,0,0:0:0:0:
206,149,106342,1,0,0:0:0:0:
206,149,106421,1,8,0:0:0:0:
206,149,106579,1,0,0:0:0:0:
206,149,106737,1,8,0:0:0:0:
206,149,106895,1,8,0:0:0:0:
206,149,107052,1,0,0:0:0:0:
200,144,107368,1,0,0:0:0:0:
177,142,107684,1,8,0:0:0:0:
177,142,107842,1,0,0:0:0:0:
176,142,108158,1,0,0:0:0:0:
176,142,108316,1,8,0:0:0:0:
176,142,108631,1,0,0:0:0:0:
176,142,108789,1,8,0:0:0:0:
176,142,108947,1,8,0:0:0:0:
176,142,109105,1,0,0:0:0:0:
207,118,109421,1,8,0:0:0:0:
182,111,109500,1,0,0:0:0:0:
207,118,109579,1,8,0:0:0:0:
207,118,109658,1,0,0:0:0:0:
207,118,109737,1,0,0:0:0:0:
192,88,109816,1,0,0:0:0:0:
192,88,109895,1,12,0:0:0:0:
205,113,110210,1,8,0:0:0:0:
234,109,110368,1,0,0:0:0:0:
230,98,110447,1,0,0:0:0:0:
230,98,110684,1,0,0:0:0:0:
228,100,110842,1,8,0:0:0:0:
228,100,111000,1,0,0:0:0:0:
228,100,111079,1,0,0:0:0:0:
157,95,111316,1,0,0:0:0:0:
157,95,111474,1,8,0:0:0:0:
157,95,111631,1,0,0:0:0:0:
157,95,111710,1,0,0:0:0:0:
157,95,111789,1,0,0:0:0:0:
157,95,111947,1,0,0:0:0:0:
157,95,112105,1,8,0:0:0:0:
157,95,112263,1,0,0:0:0:0:
157,95,112342,1,0,0:0:0:0:
150,95,112421,1,0,0:0:0:0:
150,88,112737,1,8,0:0:0:0:
147,100,112895,1,0,0:0:0:0:
147,100,112974,1,0,0:0:0:0:
147,100,113210,1,0,0:0:0:0:
147,100,113368,1,8,0:0:0:0:
147,100,113526,1,0,0:0:0:0:
147,100,113605,1,0,0:0:0:0:
147,100,113842,1,0,0:0:0:0:
147,100,114000,1,8,0:0:0:0:
147,100,114158,1,0,0:0:0:0:
147,100,114237,1,0,0:0:0:0:
147,100,114316,1,8,0:0:0:0:
147,100,114474,1,0,0:0:0:0:
147,100,114631,1,8,0:0:0:0:
147,100,114710,1,8,0:0:0:0:
147,100,114789,1,0,0:0:0:0:
147,100,114868,1,0,0:0:0:0:
147,100,114947,1,8,0:0:0:0:
167,76,115263,1,8,0:0:0:0:
162,92,115421,1,0,0:0:0:0:
162,92,115500,1,0,0:0:0:0:
162,92,115737,1,0,0:0:0:0:
162,92,115895,1,8,0:0:0:0:
162,92,116052,1,0,0:0:0:0:
162,92,116131,1,0,0:0:0:0:
162,92,116368,1,0,0:0:0:0:
162,92,116526,1,8,0:0:0:0:
162,92,116684,1,0,0:0:0:0:
162,92,116763,1,0,0:0:0:0:
162,92,116842,1,0,0:0:0:0:
162,92,117000,1,0,0:0:0:0:
153,108,117158,1,8,0:0:0:0:
162,92,117316,1,0,0:0:0:0:
162,92,117395,1,0,0:0:0:0:
162,92,117474,1,0,0:0:0:0:
162,92,117789,1,8,0:0:0:0:
162,92,117947,1,0,0:0:0:0:
162,92,118026,1,0,0:0:0:0:
162,92,118263,1,0,0:0:0:0:
162,92,118421,1,8,0:0:0:0:
162,92,118579,1,0,0:0:0:0:
162,92,118658,1,0,0:0:0:0:
162,92,118895,1,0,0:0:0:0:
162,92,119052,1,8,0:0:0:0:
162,92,119210,1,8,0:0:0:0:
162,92,119289,1,8,0:0:0:0:
162,92,119368,1,0,0:0:0:0:
162,92,119447,1,0,0:0:0:0:
162,92,119526,1,0,0:0:0:0:
162,92,119605,1,0,0:0:0:0:
162,92,119684,1,8,0:0:0:0:
162,92,119763,1,8,0:0:0:0:
162,92,119842,1,8,0:0:0:0:
162,92,119921,1,8,0:0:0:0:
162,92,120000,1,4,0:0:0:0:
184,213,120474,1,0,0:0:0:0:
185,208,120631,1,8,0:0:0:0:
185,208,120947,1,0,0:0:0:0:
273,170,121421,1,0,0:0:0:0:
273,170,121579,1,0,0:0:0:0:
247,144,121895,1,8,0:0:0:0:
242,136,122210,1,0,0:0:0:0:
242,136,122368,1,8,0:0:0:0:
242,136,122526,1,0,0:0:0:0:
236,105,123000,1,0,0:0:0:0:
236,105,123158,1,8,0:0:0:0:
236,105,123474,1,0,0:0:0:0:
236,105,123947,1,0,0:0:0:0:
236,105,124105,1,0,0:0:0:0:
235,105,124421,1,8,0:0:0:0:
235,105,124579,1,0,0:0:0:0:
235,105,124737,1,0,0:0:0:0:
227,113,124895,1,0,0:0:0:0:
235,105,125052,1,12,0:0:0:0:
225,122,125526,1,0,0:0:0:0:
225,122,125684,1,8,0:0:0:0:
226,118,126000,1,0,0:0:0:0:
268,190,126474,1,8,0:0:0:0:
266,180,126631,1,0,0:0:0:0:
266,180,126789,1,0,0:0:0:0:
262,174,126947,1,8,0:0:0:0:
261,172,127026,1,0,0:0:0:0:
262,174,127105,1,8,0:0:0:0:
261,172,127263,1,0,0:0:0:0:
261,172,127421,1,0,0:0:0:0:
261,172,127579,1,12,0:0:0:0:
257,172,128052,1,0,0:0:0:0:
257,172,128210,1,8,0:0:0:0:
257,172,128526,1,0,0:0:0:0:
257,172,129000,1,0,0:0:0:0:
257,172,129158,1,0,0:0:0:0:
257,172,129474,1,8,0:0:0:0:
257,172,129789,1,0,0:0:0:0:
257,172,129947,1,8,0:0:0:0:
257,172,130105,1,0,0:0:0:0:
257,172,130579,1,0,0:0:0:0:
257,172,130737,1,8,0:0:0:0:
257,172,131052,1,8,0:0:0:0:
257,172,131210,1,8,0:0:0:0:
257,172,131368,1,0,0:0:0:0:
257,172,131526,1,8,0:0:0:0:
257,172,131684,1,0,0:0:0:0:
257,172,132000,1,8,0:0:0:0:
257,172,132158,1,0,0:0:0:0:
257,172,132237,1,0,0:0:0:0:
257,172,132316,1,0,0:0:0:0:
257,172,132474,1,8,0:0:0:0:
257,172,132631,1,4,0:0:0:0:
257,172,132947,1,8,0:0:0:0:
205,196,133263,1,0,0:0:0:0:
205,196,133421,1,0,0:0:0:0:
205,196,133579,1,8,0:0:0:0:
205,196,133737,1,8,0:0:0:0:
205,196,133895,1,0,0:0:0:0:
205,195,134210,1,8,0:0:0:0:
215,179,134526,1,0,0:0:0:0:
211,175,134684,1,0,0:0:0:0:
201,166,134842,1,8,0:0:0:0:
200,166,135158,1,0,0:0:0:0:
200,166,135474,1,8,0:0:0:0:
192,160,135631,1,0,0:0:0:0:
192,160,135947,1,0,0:0:0:0:
192,160,136105,1,8,0:0:0:0:
192,160,136263,1,8,0:0:0:0:
192,160,136421,1,4,0:0:0:0:
192,160,136579,1,8,0:0:0:0:
192,160,136658,1,0,0:0:0:0:
192,160,136737,1,8,0:0:0:0:
192,160,136895,1,0,0:0:0:0:
192,160,137052,1,8,0:0:0:0:
192,160,137131,1,8,0:0:0:0:
192,160,137210,1,0,0:0:0:0:
192,160,137289,1,0,0:0:0:0:
192,160,137368,1,8,0:0:0:0:
192,160,137447,1,8,0:0:0:0:
192,160,137526,1,8,0:0:0:0:
187,54,137605,1,8,0:0:0:0:
192,160,137684,1,4,0:0:0:0:
231,181,138000,1,8,0:0:0:0:
309,225,138158,1,0,0:0:0:0:
309,225,138237,1,0,0:0:0:0:
309,225,138316,1,0,0:0:0:0:
309,225,138474,1,8,0:0:0:0:
309,225,138631,1,8,0:0:0:0:
309,225,138789,1,0,0:0:0:0:
309,222,139105,1,0,0:0:0:0:
309,222,139263,1,8,0:0:0:0:
309,222,139421,1,0,0:0:0:0:
309,222,139500,1,8,0:0:0:0:
309,222,139579,1,0,0:0:0:0:
309,222,139737,1,0,0:0:0:0:
302,225,139816,1,0,0:0:0:0:
302,225,139895,1,8,0:0:0:0:
294,208,140052,1,0,0:0:0:0:
294,208,140210,1,8,0:0:0:0:
294,205,140526,1,8,0:0:0:0:
294,205,140684,1,0,0:0:0:0:
294,205,140763,1,0,0:0:0:0:
294,205,140842,1,0,0:0:0:0:
294,205,141000,1,8,0:0:0:0:
294,205,141079,1,8,0:0:0:0:
294,205,141158,1,8,0:0:0:0:
294,205,141316,1,0,0:0:0:0:
294,205,141631,1,0,0:0:0:0:
294,205,141789,1,8,0:0:0:0:
294,205,141947,1,0,0:0:0:0:
294,205,142026,1,8,0:0:0:0:
294,205,142105,1,0,0:0:0:0:
294,205,142263,1,0,0:0:0:0:
294,205,142421,1,8,0:0:0:0:
294,205,142579,1,8,0:0:0:0:
294,205,142737,1,4,0:0:0:0:
247,221,143052,1,8,0:0:0:0:
247,221,143210,1,0,0:0:0:0:
247,221,143289,1,0,0:0:0:0:
247,221,143368,1,0,0:0:0:0:
247,221,143526,1,8,0:0:0:0:
247,211,143605,1,8,0:0:0:0:
248,211,143684,1,8,0:0:0:0:
248,211,143763,1,8,0:0:0:0:
247,211,143842,1,0,0:0:0:0:
248,211,144158,1,0,0:0:0:0:
248,211,144316,1,8,0:0:0:0:
248,211,144474,1,0,0:0:0:0:
248,211,144552,1,0,0:0:0:0:
248,211,144631,1,0,0:0:0:0:
248,211,144789,1,0,0:0:0:0:
248,211,144947,1,8,0:0:0:0:
248,211,145105,1,0,0:0:0:0:
248,211,145263,1,8,0:0:0:0:
248,211,145579,1,8,0:0:0:0:
248,211,145737,1,0,0:0:0:0:
248,211,145816,1,0,0:0:0:0:
248,211,145895,1,0,0:0:0:0:
248,211,146052,1,8,0:0:0:0:
248,211,146131,1,8,0:0:0:0:
248,211,146210,1,8,0:0:0:0:
248,211,146368,1,4,0:0:0:0:
214,205,146684,1,8,0:0:0:0:
214,205,146763,1,0,0:0:0:0:
214,205,146842,1,8,0:0:0:0:
214,205,147000,1,0,0:0:0:0:
214,205,147079,1,0,0:0:0:0:
214,205,147158,1,8,0:0:0:0:
214,205,147316,1,0,0:0:0:0:
214,205,147474,1,8,0:0:0:0:
214,205,147552,1,0,0:0:0:0:
216,156,147631,1,0,0:0:0:0:
275,195,147710,1,0,0:0:0:0:
216,156,147789,1,12,0:0:0:0:
176,128,148105,1,8,0:0:0:0:
176,128,148263,1,0,0:0:0:0:
176,128,148421,1,0,0:0:0:0:
180,104,148579,1,8,0:0:0:0:
180,104,148658,1,8,0:0:0:0:
180,104,148737,1,8,0:0:0:0:
180,104,148895,1,0,0:0:0:0:
233,170,149210,1,0,0:0:0:0:
233,163,149289,1,0,0:0:0:0:
233,160,149368,1,8,0:0:0:0:
233,163,149526,1,0,0:0:0:0:
233,163,149684,1,8,0:0:0:0:
233,163,149763,1,8,0:0:0:0:
233,163,149842,1,0,0:0:0:0:
233,163,149921,1,0,0:0:0:0:
233,163,150000,1,8,0:0:0:0:
216,163,150158,1,8,0:0:0:0:
199,148,150316,1,0,0:0:0:0:
190,149,150631,1,8,0:0:0:0:
190,149,150789,1,0,0:0:0:0:
190,149,150868,1,8,0:0:0:0:
190,149,150947,1,0,0:0:0:0:
190,149,151105,1,0,0:0:0:0:
252,154,151184,1,0,0:0:0:0:
183,139,151263,1,8,0:0:0:0:
183,139,151421,1,0,0:0:0:0:
183,139,151737,1,0,0:0:0:0:
183,139,151895,1,8,0:0:0:0:
183,139,152052,1,8,0:0:0:0:
183,139,152210,1,0,0:0:0:0:
183,139,152368,1,0,0:0:0:0:
183,139,152447,1,0,0:0:0:0:
183,139,152526,1,8,0:0:0:0:
183,139,152684,1,8,0:0:0:0:
183,139,152842,1,4,0:0:0:0:
160,144,153158,1,8,0:0:0:0:
157,159,153316,1,0,0:0:0:0:
157,159,153395,1,0,0:0:0:0:
157,159,153474,1,0,0:0:0:0:
157,159,153631,1,8,0:0:0:0:
157,159,153710,1,8,0:0:0:0:
155,153,153789,1,8,0:0:0:0:
155,152,153947,1,0,0:0:0:0:
155,152,154263,1,0,0:0:0:0:
155,152,154421,1,8,0:0:0:0:
155,152,154579,1,8,0:0:0:0:
155,152,154737,1,0,0:0:0:0:
155,152,154895,1,0,0:0:0:0:
155,152,154974,1,0,0:0:0:0:
155,152,155052,1,8,0:0:0:0:
155,152,155210,1,0,0:0:0:0:
155,152,155368,1,8,0:0:0:0:
155,152,155684,1,8,0:0:0:0:
155,152,155842,1,8,0:0:0:0:
155,152,155921,1,8,0:0:0:0:
155,152,156000,1,0,0:0:0:0:
155,152,156158,1,0,0:0:0:0:
174,86,156237,1,0,0:0:0:0:
168,112,156316,1,8,0:0:0:0:
168,112,156474,1,4,0:0:0:0:
182,122,156789,1,8,0:0:0:0:
182,122,156947,1,0,0:0:0:0:
182,122,157026,1,0,0:0:0:0:
182,122,157105,1,0,0:0:0:0:
180,108,157263,1,8,0:0:0:0:
180,108,157342,1,8,0:0:0:0:
180,108,157421,1,8,0:0:0:0:
180,108,157500,1,8,0:0:0:0:
180,108,157579,1,8,0:0:0:0:
180,108,157658,1,8,0:0:0:0:
180,108,157737,1,8,0:0:0:0:
180,108,157816,1,8,0:0:0:0:
182,133,157895,1,4,0:0:0:0:
248,163,158052,1,0,0:0:0:0:
178,134,158210,1,8,0:0:0:0:
175,126,158368,1,0,0:0:0:0:
174,129,158684,1,0,0:0:0:0:
174,129,158842,1,8,0:0:0:0:
174,129,159000,1,0,0:0:0:0:
240,205,159316,1,0,0:0:0:0:
235,201,159474,1,8,0:0:0:0:
204,134,159631,1,8,0:0:0:0:
235,201,159789,1,0,0:0:0:0:
235,201,159947,1,0,0:0:0:0:
200,170,160026,1,0,0:0:0:0:
203,166,160105,1,8,0:0:0:0:
110,169,160342,1,8,0:0:0:0:
200,170,160421,1,0,0:0:0:0:
204,136,160579,1,0,0:0:0:0:
204,136,160737,1,8,0:0:0:0:
197,140,160895,1,0,0:0:0:0:
207,135,161210,1,0,0:0:0:0:
207,135,161368,1,8,0:0:0:0:
201,143,161526,1,0,0:0:0:0:
197,149,161842,1,0,0:0:0:0:
197,149,161921,1,0,0:0:0:0:
197,149,162000,1,8,0:0:0:0:
197,149,162158,1,0,0:0:0:0:
197,149,162316,1,8,0:0:0:0:
197,149,162474,1,8,0:0:0:0:
197,149,162552,1,8,0:0:0:0:
197,149,162631,1,8,0:0:0:0:
197,149,162789,1,8,0:0:0:0:
197,149,162947,1,0,0:0:0:0:
185,169,163263,1,8,0:0:0:0:
179,179,163421,1,0,0:0:0:0:
179,179,163579,1,0,0:0:0:0:
179,179,163737,1,0,0:0:0:0:
163,176,163816,1,0,0:0:0:0:
169,177,163895,1,8,0:0:0:0:
169,177,164052,1,0,0:0:0:0:
163,176,164368,1,0,0:0:0:0:
160,180,164526,1,8,0:0:0:0:
145,184,164684,1,8,0:0:0:0:
146,174,164763,1,8,0:0:0:0:
145,184,164842,1,0,0:0:0:0:
145,184,165000,1,0,0:0:0:0:
139,184,165158,1,8,0:0:0:0:
139,184,165395,1,8,0:0:0:0:
139,184,165474,1,0,0:0:0:0:
176,181,165631,1,0,0:0:0:0:
168,180,165789,1,8,0:0:0:0:
168,180,166105,1,0,0:0:0:0:
168,180,166263,1,0,0:0:0:0:
168,180,166421,1,8,0:0:0:0:
161,170,166579,1,4,0:0:0:0:
160,177,166895,1,8,0:0:0:0:
160,177,166974,1,0,0:0:0:0:
160,177,167052,1,8,0:0:0:0:
160,177,167210,1,0,0:0:0:0:
160,177,167368,1,8,0:0:0:0:
160,177,167447,1,0,0:0:0:0:
160,177,167526,1,0,0:0:0:0:
166,129,167605,1,0,0:0:0:0:
160,177,167684,1,8,0:0:0:0:
160,177,167763,1,0,0:0:0:0:
160,177,167842,1,0,0:0:0:0:
160,177,167921,1,0,0:0:0:0:
149,181,168000,1,12,0:0:0:0:
233,159,168210,1,0,0:0:0:0:
236,155,168316,1,8,0:0:0:0:
212,164,168526,1,0,0:0:0:0:
212,164,168631,1,8,0:0:0:0:
208,158,168737,1,8,0:0:0:0:
207,157,168842,1,0,0:0:0:0:
208,158,168947,1,8,0:0:0:0:
207,157,169052,1,0,0:0:0:0:
201,163,169158,1,0,0:0:0:0:
201,163,169263,1,8,0:0:0:0:
198,167,169474,1,0,0:0:0:0:
198,167,169579,1,8,0:0:0:0:
198,167,169789,1,0,0:0:0:0:
198,167,169895,1,8,0:0:0:0:
198,167,170000,1,0,0:0:0:0:
198,167,170105,1,0,0:0:0:0:
198,167,170210,1,8,0:0:0:0:
198,167,170316,1,8,0:0:0:0:
198,167,170421,1,8,0:0:0:0:
198,167,170526,1,4,0:0:0:0:
131,166,170842,1,8,0:0:0:0:
131,166,170947,1,0,0:0:0:0:
131,166,171052,1,0,0:0:0:0:
131,166,171158,1,8,0:0:0:0:
131,166,171263,1,0,0:0:0:0:
131,166,171368,1,0,0:0:0:0:
226,123,171474,1,8,0:0:0:0:
224,127,171579,1,8,0:0:0:0:
221,129,171684,1,8,0:0:0:0:
154,142,171789,1,0,0:0:0:0:
155,131,171895,1,8,0:0:0:0:
152,133,172000,1,8,0:0:0:0:
194,121,172105,1,0,0:0:0:0:
194,121,172210,1,8,0:0:0:0:
194,121,172316,1,8,0:0:0:0:
177,140,172421,1,0,0:0:0:0:
177,140,172579,1,0,0:0:0:0:
282,171,172737,1,8,0:0:0:0:
282,171,172895,1,8,0:0:0:0:
274,174,173052,1,4,0:0:0:0:
241,184,173368,1,8,0:0:0:0:
295,159,173474,1,8,0:0:0:0:
295,159,173579,1,8,0:0:0:0:
305,140,173684,1,0,0:0:0:0:
289,159,173789,1,0,0:0:0:0:
290,159,173895,1,0,0:0:0:0:
289,159,174000,1,8,0:0:0:0:
298,144,174158,1,0,0:0:0:0:
322,112,174316,1,0,0:0:0:0:
260,180,174474,1,0,0:0:0:0:
260,180,174552,1,0,0:0:0:0:
292,157,174631,1,8,0:0:0:0:
273,186,174947,1,0,0:0:0:0:
248,182,175105,1,0,0:0:0:0:
248,182,175263,1,8,0:0:0:0:
248,182,175421,1,0,0:0:0:0:
248,182,175500,1,8,0:0:0:0:
248,182,175579,1,0,0:0:0:0:
248,182,175737,1,0,0:0:0:0:
248,182,175895,1,8,0:0:0:0:
230,188,176052,1,0,0:0:0:0:
230,188,176131,1,0,0:0:0:0:
230,188,176210,1,0,0:0:0:0:
230,188,176368,1,0,0:0:0:0:
230,188,176447,1,0,0:0:0:0:
230,188,176526,1,8,0:0:0:0:
230,188,176684,1,4,0:0:0:0:
221,192,177000,1,8,0:0:0:0:
221,192,177079,1,0,0:0:0:0:
221,192,177158,1,8,0:0:0:0:
221,192,177316,1,4,0:0:0:0:
221,192,177631,1,0,0:0:0:0:
221,192,177789,1,0,0:0:0:0:
221,192,177947,1,0,0:0:0:0:
221,192,178105,1,12,0:0:0:0:
235,204,180631,1,0,0:0:0:0:
237,182,182526,1,8,0:0:0:0:
215,208,182684,1,0,0:0:0:0:
209,223,183000,1,0,0:0:0:0:
209,223,183158,1,12,0:0:0:0:
208,222,185368,1,0,0:0:0:0:
208,222,185684,1,8,0:0:0:0:
208,222,188210,1,0,0:0:0:0:
208,222,188684,1,0,0:0:0:0:
208,222,189158,1,0,0:0:0:0:
208,222,189631,1,0,0:0:0:0:
208,222,190105,1,0,0:0:0:0:
208,222,190421,1,0,0:0:0:0:
208,222,190737,1,0,0:0:0:0:
208,222,191211,1,0,0:0:0:0:
208,222,191685,1,0,0:0:0:0:
208,222,192158,1,0,0:0:0:0:
208,222,192632,1,0,0:0:0:0:
208,222,192948,1,0,0:0:0:0:
176,149,193105,1,8,0:0:0:0:
208,222,193264,1,0,0:0:0:0:
208,222,193737,1,0,0:0:0:0:
208,222,194211,1,0,0:0:0:0:
208,222,194684,1,0,0:0:0:0:
208,222,195158,1,0,0:0:0:0:
171,184,195316,1,8,0:0:0:0:
208,222,195474,1,0,0:0:0:0:
171,184,195631,1,8,0:0:0:0:
208,222,195790,1,0,0:0:0:0:
208,222,196263,1,0,0:0:0:0:
208,222,196737,1,0,0:0:0:0:
192,100,197052,1,8,0:0:0:0:
208,222,197210,1,0,0:0:0:0:
183,150,197526,1,8,0:0:0:0:
208,222,197684,1,0,0:0:0:0:
208,222,198000,1,0,0:0:0:0:
183,147,198158,1,8,0:0:0:0:
208,222,198316,1,0,0:0:0:0:
208,222,198790,1,0,0:0:0:0:
208,222,199264,1,0,0:0:0:0:
182,174,199579,1,8,0:0:0:0:
208,222,199737,1,0,0:0:0:0:
182,174,200052,1,8,0:0:0:0:
208,222,200211,1,0,0:0:0:0:
188,144,200368,1,8,0:0:0:0:
208,222,200527,1,0,0:0:0:0:
153,144,200684,1,8,0:0:0:0:
208,222,200842,1,0,0:0:0:0:
208,222,201316,1,0,0:0:0:0:
208,222,201790,1,0,0:0:0:0:
240,184,202105,1,8,0:0:0:0:
208,222,202263,1,0,0:0:0:0:
211,168,202421,1,8,0:0:0:0:
208,222,202737,1,0,0:0:0:0:
208,222,203053,1,0,0:0:0:0:
211,168,203210,1,8,0:0:0:0:
208,222,203368,1,0,0:0:0:0:
208,222,203842,1,0,0:0:0:0:
208,222,204316,1,0,0:0:0:0:
195,149,204631,1,8,0:0:0:0:
208,222,204789,1,0,0:0:0:0:
190,155,205105,1,8,0:0:0:0:
208,222,205263,1,0,0:0:0:0:
214,154,205579,1,0,0:0:0:0:
205,149,205895,1,8,0:0:0:0:
205,149,207000,1,8,0:0:0:0:
205,149,207316,1,8,0:0:0:0:
205,149,207395,1,0,0:0:0:0:
205,149,207474,1,8,0:0:0:0:
204,143,207631,1,8,0:0:0:0:
204,143,207789,1,8,0:0:0:0:
204,143,207868,1,8,0:0:0:0:
204,143,207947,1,0,0:0:0:0:
204,143,208026,1,0,0:0:0:0:
204,143,208105,1,8,0:0:0:0:
204,143,208184,1,8,0:0:0:0:
204,143,208263,1,8,0:0:0:0:
204,143,208342,1,8,0:0:0:0:
204,143,208421,1,4,0:0:0:0:
163,85,208579,1,0,0:0:0:0:
161,89,208737,1,8,0:0:0:0:
161,89,208895,1,8,0:0:0:0:
161,89,208974,1,8,0:0:0:0:
161,89,209052,1,0,0:0:0:0:
161,89,209210,1,0,0:0:0:0:
161,89,209289,1,0,0:0:0:0:
161,89,209368,1,8,0:0:0:0:
161,89,209526,1,0,0:0:0:0:
177,134,209842,1,0,0:0:0:0:
177,134,210000,1,8,0:0:0:0:
170,90,210158,1,0,0:0:0:0:
170,90,210237,1,0,0:0:0:0:
170,90,210316,1,0,0:0:0:0:
170,90,210474,1,8,0:0:0:0:
170,90,210552,1,8,0:0:0:0:
170,90,210631,1,8,0:0:0:0:
172,100,210789,1,0,0:0:0:0:
172,100,210947,1,8,0:0:0:0:
144,110,211263,1,8,0:0:0:0:
202,150,211421,1,0,0:0:0:0:
194,144,211500,1,8,0:0:0:0:
192,144,211579,1,0,0:0:0:0:
194,144,211737,1,0,0:0:0:0:
186,146,211895,1,8,0:0:0:0:
186,146,212052,1,0,0:0:0:0:
189,146,212368,1,0,0:0:0:0:
189,146,212447,1,0,0:0:0:0:
189,146,212526,1,8,0:0:0:0:
189,146,212684,1,0,0:0:0:0:
189,146,212842,1,8,0:0:0:0:
189,146,212921,1,0,0:0:0:0:
189,146,213000,1,8,0:0:0:0:
189,146,213158,1,8,0:0:0:0:
189,146,213316,1,4,0:0:0:0:
196,120,213631,1,0,0:0:0:0:
177,128,213789,1,8,0:0:0:0:
167,131,213947,1,8,0:0:0:0:
167,131,214026,1,8,0:0:0:0:
166,138,214105,1,0,0:0:0:0:
166,138,214263,1,0,0:0:0:0:
166,138,214421,1,8,0:0:0:0:
166,138,214579,1,0,0:0:0:0:
166,138,214658,1,0,0:0:0:0:
166,138,214737,1,8,0:0:0:0:
166,138,214895,1,0,0:0:0:0:
166,138,215052,1,8,0:0:0:0:
166,138,215210,1,8,0:0:0:0:
166,138,215289,1,8,0:0:0:0:
166,138,215368,1,0,0:0:0:0:
166,138,215526,1,0,0:0:0:0:
166,138,215684,1,8,0:0:0:0:
166,138,215921,1,8,0:0:0:0:
166,138,216000,1,0,0:0:0:0:
170,132,216158,1,0,0:0:0:0:
163,138,216316,1,8,0:0:0:0:
163,138,216552,1,8,0:0:0:0:
163,138,216631,1,0,0:0:0:0:
163,138,216789,1,0,0:0:0:0:
163,138,216868,1,0,0:0:0:0:
163,138,216947,1,8,0:0:0:0:
163,138,217105,1,12,0:0:0:0:
206,138,217421,1,8,0:0:0:0:
195,138,217500,1,0,0:0:0:0:
195,138,217579,1,8,0:0:0:0:
195,138,217737,1,0,0:0:0:0:
195,138,217895,1,8,0:0:0:0:
195,138,217974,1,8,0:0:0:0:
195,138,218052,1,0,0:0:0:0:
195,138,218131,1,0,0:0:0:0:
178,74,218210,1,8,0:0:0:0:
178,74,218289,1,0,0:0:0:0:
178,74,218368,1,0,0:0:0:0:
178,74,218447,1,0,0:0:0:0:
178,74,218526,1,12,0:0:0:0:
173,190,218684,1,0,0:0:0:0:
173,190,218842,1,8,0:0:0:0:
166,173,219000,1,0,0:0:0:0:
164,173,219079,1,0,0:0:0:0:
166,173,219158,1,0,0:0:0:0:
164,173,219316,1,8,0:0:0:0:
166,173,219395,1,8,0:0:0:0:
164,173,219474,1,8,0:0:0:0:
166,173,219631,1,0,0:0:0:0:
164,173,219947,1,0,0:0:0:0:
164,173,220105,1,8,0:0:0:0:
164,173,220263,1,0,0:0:0:0:
164,173,220342,1,8,0:0:0:0:
162,165,220421,1,0,0:0:0:0:
164,173,220500,1,0,0:0:0:0:
164,173,220579,1,8,0:0:0:0:
164,173,220737,1,8,0:0:0:0:
164,173,220895,1,0,0:0:0:0:
206,106,220974,1,8,0:0:0:0:
164,173,221052,1,0,0:0:0:0:
161,182,221368,1,8,0:0:0:0:
202,168,221526,1,8,0:0:0:0:
202,168,221684,1,0,0:0:0:0:
202,168,221842,1,0,0:0:0:0:
199,184,221921,1,0,0:0:0:0:
202,168,222000,1,8,0:0:0:0:
182,166,222158,1,0,0:0:0:0:
178,181,222474,1,0,0:0:0:0:
168,157,222631,1,8,0:0:0:0:
168,157,222789,1,0,0:0:0:0:
168,157,222868,1,0,0:0:0:0:
169,163,222947,1,8,0:0:0:0:
161,144,223026,1,0,0:0:0:0:
169,167,223105,1,8,0:0:0:0:
169,167,223263,1,8,0:0:0:0:
156,142,223421,1,4,0:0:0:0:
162,105,223737,1,0,0:0:0:0:
162,105,223895,1,8,0:0:0:0:
162,105,224131,1,8,0:0:0:0:
162,105,224210,1,0,0:0:0:0:
162,105,224368,1,0,0:0:0:0:
162,105,224526,1,8,0:0:0:0:
153,120,224605,1,8,0:0:0:0:
153,120,224684,1,0,0:0:0:0:
153,120,224763,1,0,0:0:0:0:
153,120,224842,1,8,0:0:0:0:
153,120,225000,1,0,0:0:0:0:
149,115,225158,1,8,0:0:0:0:
149,115,225316,1,0,0:0:0:0:
149,115,225395,1,0,0:0:0:0:
149,115,225474,1,8,0:0:0:0:
149,115,225631,1,0,0:0:0:0:
149,115,225710,1,0,0:0:0:0:
149,115,225789,1,8,0:0:0:0:
184,67,225868,1,0,0:0:0:0:
149,115,225947,1,8,0:0:0:0:
157,132,226026,1,8,0:0:0:0:
152,139,226105,1,0,0:0:0:0:
151,161,226421,1,8,0:0:0:0:
241,126,226579,1,8,0:0:0:0:
192,160,226658,1,8,0:0:0:0:
181,127,226737,1,0,0:0:0:0:
181,127,226895,1,0,0:0:0:0:
152,196,226974,1,0,0:0:0:0:
189,160,227052,1,8,0:0:0:0:
189,160,227210,1,12,0:0:0:0:
127,206,227526,1,8,0:0:0:0:
127,206,227605,1,0,0:0:0:0:
120,212,227684,1,8,0:0:0:0:
120,212,227842,1,0,0:0:0:0:
118,194,228000,1,8,0:0:0:0:
118,195,228079,1,8,0:0:0:0:
118,194,228158,1,8,0:0:0:0:
118,195,228316,1,8,0:0:0:0:
149,103,228395,1,8,0:0:0:0:
118,195,228474,1,8,0:0:0:0:
118,195,228552,1,8,0:0:0:0:
185,150,228631,1,4,0:0:0:0:
340,239,228789,1,0,0:0:0:0:
340,239,228947,1,8,0:0:0:0:
338,256,229105,1,0,0:0:0:0:
338,256,229184,1,0,0:0:0:0:
338,256,229263,1,0,0:0:0:0:
338,256,229421,1,8,0:0:0:0:
338,256,229500,1,8,0:0:0:0:
338,256,229579,1,8,0:0:0:0:
254,254,229737,1,0,0:0:0:0:
297,224,230052,1,0,0:0:0:0:
297,224,230210,1,8,0:0:0:0:
297,224,230368,1,0,0:0:0:0:
297,224,230526,1,0,0:0:0:0:
297,224,230605,1,0,0:0:0:0:
248,146,230684,1,8,0:0:0:0:
248,146,230763,1,0,0:0:0:0:
248,146,230842,1,8,0:0:0:0:
248,146,231000,1,0,0:0:0:0:
210,98,231079,1,0,0:0:0:0:
220,188,231158,1,8,0:0:0:0:
234,107,231474,1,8,0:0:0:0:
179,96,231631,1,0,0:0:0:0:
205,123,231947,1,0,0:0:0:0:
223,113,232105,1,8,0:0:0:0:
223,113,232263,1,0,0:0:0:0:
223,113,232421,1,8,0:0:0:0:
223,113,232579,1,0,0:0:0:0:
223,113,232658,1,0,0:0:0:0:
223,113,232737,1,8,0:0:0:0:
223,113,232895,1,8,0:0:0:0:
217,111,233052,1,0,0:0:0:0:
217,111,233210,1,8,0:0:0:0:
249,169,233289,1,0,0:0:0:0:
217,111,233368,1,8,0:0:0:0:
217,111,233526,1,4,0:0:0:0:
237,108,233842,1,0,0:0:0:0:
237,99,234000,1,8,0:0:0:0:
237,99,234158,1,8,0:0:0:0:
237,99,234316,1,0,0:0:0:0:
237,99,234474,1,0,0:0:0:0:
237,99,234552,1,0,0:0:0:0:
228,113,234631,1,8,0:0:0:0:
228,113,234789,1,0,0:0:0:0:
220,116,234947,1,8,0:0:0:0:
221,112,235026,1,0,0:0:0:0:
228,113,235105,1,8,0:0:0:0:
220,116,235184,1,8,0:0:0:0:
221,112,235263,1,0,0:0:0:0:
191,134,235421,1,8,0:0:0:0:
189,152,235500,1,0,0:0:0:0:
191,134,235579,1,0,0:0:0:0:
224,152,235737,1,0,0:0:0:0:
221,163,235895,1,8,0:0:0:0:
217,155,236052,1,0,0:0:0:0:
217,155,236131,1,0,0:0:0:0:
217,155,236210,1,8,0:0:0:0:
226,168,236526,1,8,0:0:0:0:
208,166,236684,1,0,0:0:0:0:
226,168,236763,1,8,0:0:0:0:
227,163,236842,1,0,0:0:0:0:
227,163,237000,1,0,0:0:0:0:
227,163,237079,1,0,0:0:0:0:
227,163,237158,1,8,0:0:0:0:
227,163,237316,1,4,0:0:0:0:
184,176,237631,1,8,0:0:0:0:
184,176,237710,1,0,0:0:0:0:
182,161,237789,1,8,0:0:0:0:
182,163,237947,1,0,0:0:0:0:
182,163,238105,1,8,0:0:0:0:
182,163,238184,1,8,0:0:0:0:
182,163,238263,1,8,0:0:0:0:
182,163,238342,1,8,0:0:0:0:
182,163,238421,1,0,0:0:0:0:
182,163,238500,1,0,0:0:0:0:
182,163,238579,1,0,0:0:0:0:
182,163,238658,1,0,0:0:0:0:
182,163,238737,1,12,0:0:0:0:
241,107,238974,1,0,0:0:0:0:
179,181,239052,1,8,0:0:0:0:
179,181,239210,1,0,0:0:0:0:
230,175,239289,1,0,0:0:0:0:
230,175,239368,1,8,0:0:0:0:
230,175,239526,1,0,0:0:0:0:
219,138,239605,1,0,0:0:0:0:
230,175,239684,1,8,0:0:0:0:
230,175,239842,1,0,0:0:0:0:
230,175,239921,1,0,0:0:0:0:
230,175,240000,1,8,0:0:0:0:
212,151,240079,1,8,0:0:0:0:
230,175,240158,1,0,0:0:0:0:
230,175,240316,1,8,0:0:0:0:
212,151,240474,1,0,0:0:0:0:
212,151,240552,1,0,0:0:0:0:
212,151,240631,1,8,0:0:0:0:
212,151,240789,1,0,0:0:0:0:
227,113,240947,1,8,0:0:0:0:
211,145,241105,1,0,0:0:0:0:
231,198,241184,1,0,0:0:0:0:
227,188,241263,1,8,0:0:0:0:
227,188,241421,1,0,0:0:0:0:
227,188,241579,1,8,0:0:0:0:
211,145,241737,1,0,0:0:0:0:
231,198,241816,1,0,0:0:0:0:
227,188,241895,1,8,0:0:0:0:
217,153,242052,1,8,0:0:0:0:
217,153,242131,1,0,0:0:0:0:
217,153,242210,1,8,0:0:0:0:
217,153,242289,1,8,0:0:0:0:
217,153,242368,1,0,0:0:0:0:
217,153,242526,1,8,0:0:0:0:
194,153,242684,1,0,0:0:0:0:
168,106,242763,1,0,0:0:0:0:
194,153,242842,1,8,0:0:0:0:
194,153,243000,1,0,0:0:0:0:
194,153,243158,1,8,0:0:0:0:
178,119,243237,1,8,0:0:0:0:
194,153,243316,1,0,0:0:0:0:
194,153,243395,1,0,0:0:0:0:
194,153,243474,1,8,0:0:0:0:
194,153,243631,1,4,0:0:0:0:
182,182,243947,1,0,0:0:0:0:
182,182,244105,1,8,0:0:0:0:
182,182,244263,1,0,0:0:0:0:
182,182,244342,1,0,0:0:0:0:
188,168,244421,1,8,0:0:0:0:
187,171,244579,1,0,0:0:0:0:
187,171,244658,1,0,0:0:0:0:
187,171,244737,1,8,0:0:0:0:
187,171,244816,1,8,0:0:0:0:
187,171,244895,1,0,0:0:0:0:
187,171,245052,1,8,0:0:0:0:
187,171,245210,1,0,0:0:0:0:
187,171,245368,1,8,0:0:0:0:
285,100,245447,1,0,0:0:0:0:
187,171,245605,1,0,0:0:0:0:
187,171,245684,1,8,0:0:0:0:
187,171,245842,1,0,0:0:0:0:
215,84,245921,1,0,0:0:0:0:
215,84,246000,1,8,0:0:0:0:
178,61,246079,1,8,0:0:0:0:
215,84,246158,1,0,0:0:0:0:
222,78,246316,1,8,0:0:0:0:
217,105,246631,1,8,0:0:0:0:
217,105,246710,1,8,0:0:0:0:
217,105,246789,1,0,0:0:0:0:
217,105,246868,1,0,0:0:0:0:
217,105,246947,1,8,0:0:0:0:
217,105,247105,1,0,0:0:0:0:
211,136,247184,1,0,0:0:0:0:
217,105,247263,1,8,0:0:0:0:
217,105,247421,1,4,0:0:0:0:
212,160,247737,1,8,0:0:0:0:
212,160,247816,1,0,0:0:0:0:
212,160,247895,1,8,0:0:0:0:
212,160,248052,1,0,0:0:0:0:
212,160,248210,1,0,0:0:0:0:
212,160,248289,1,0,0:0:0:0:
212,160,248368,1,0,0:0:0:0:
212,160,248447,1,0,0:0:0:0:
212,160,248526,1,8,0:0:0:0:
212,160,248605,1,8,0:0:0:0:
212,160,248684,1,8,0:0:0:0:
212,160,248763,1,8,0:0:0:0:
212,160,248842,1,4,0:0:0:0:
359,204,249158,1,8,0:0:0:0:
356,204,249474,1,0,0:0:0:0:
356,204,249631,1,0,0:0:0:0:
356,204,249710,1,0,0:0:0:0:
356,204,249789,1,8,0:0:0:0:
356,204,249947,1,0,0:0:0:0:
340,216,250263,1,0,0:0:0:0:
297,196,250421,1,8,0:0:0:0:
293,202,250737,1,0,0:0:0:0:
293,202,250895,1,8,0:0:0:0:
293,202,251052,1,8,0:0:0:0:
274,179,251210,1,8,0:0:0:0:
270,189,251368,1,0,0:0:0:0:
270,189,251684,1,8,0:0:0:0:
270,189,251842,1,0,0:0:0:0:
270,189,251921,1,0,0:0:0:0:
270,189,252000,1,0,0:0:0:0:
270,189,252158,1,0,0:0:0:0:
270,189,252316,1,8,0:0:0:0:
270,189,252474,1,0,0:0:0:0:
269,191,252789,1,0,0:0:0:0:
257,177,252868,1,0,0:0:0:0:
257,179,252947,1,8,0:0:0:0:
256,190,253105,1,0,0:0:0:0:
252,204,253263,1,0,0:0:0:0:
252,204,253421,1,8,0:0:0:0:
192,164,253500,1,8,0:0:0:0:
252,209,253579,1,0,0:0:0:0:
252,209,253737,1,12,0:0:0:0:
273,160,254052,1,0,0:0:0:0:
273,160,254210,1,8,0:0:0:0:
272,168,254368,1,0,0:0:0:0:
272,170,254447,1,8,0:0:0:0:
272,168,254526,1,0,0:0:0:0:
272,170,254684,1,0,0:0:0:0:
272,170,254842,1,8,0:0:0:0:
269,175,255000,1,0,0:0:0:0:
227,121,255316,1,0,0:0:0:0:
237,86,255395,1,0,0:0:0:0:
209,145,255474,1,8,0:0:0:0:
235,74,255631,1,8,0:0:0:0:
209,145,255789,1,0,0:0:0:0:
209,145,255947,1,0,0:0:0:0:
209,145,256105,1,8,0:0:0:0:
220,156,256421,1,0,0:0:0:0:
220,160,256737,1,8,0:0:0:0:
220,160,256895,1,0,0:0:0:0:
221,165,257210,1,0,0:0:0:0:
221,165,257368,1,8,0:0:0:0:
221,165,257526,1,12,0:0:0:0:
222,176,257842,1,8,0:0:0:0:
222,176,257921,1,0,0:0:0:0:
222,176,258000,1,8,0:0:0:0:
222,176,258158,1,0,0:0:0:0:
222,176,258316,1,8,0:0:0:0:
222,176,258395,1,0,0:0:0:0:
222,176,258474,1,0,0:0:0:0:
222,176,258552,1,0,0:0:0:0:
187,31,258631,1,8,0:0:0:0:
187,41,258710,1,0,0:0:0:0:
185,51,258789,1,0,0:0:0:0:
183,61,258868,1,0,0:0:0:0:
200,140,258947,1,12,0:0:0:0:
230,175,259263,1,8,0:0:0:0:
230,175,259421,1,0,0:0:0:0:
230,175,259579,1,0,0:0:0:0:
230,175,259737,1,8,0:0:0:0:
230,175,259816,1,0,0:0:0:0:
230,175,259895,1,8,0:0:0:0:
230,175,260052,1,0,0:0:0:0:
229,174,260368,1,0,0:0:0:0:
229,174,260526,1,8,0:0:0:0:
224,176,260684,1,0,0:0:0:0:
224,176,261000,1,0,0:0:0:0:
219,182,261158,1,8,0:0:0:0:
219,182,261316,1,8,0:0:0:0:
216,175,261474,1,0,0:0:0:0:
259,239,261789,1,8,0:0:0:0:
259,239,261947,1,0,0:0:0:0:
259,239,262026,1,0,0:0:0:0:
259,239,262105,1,8,0:0:0:0:
259,239,262263,1,8,0:0:0:0:
259,239,262421,1,8,0:0:0:0:
259,239,262579,1,0,0:0:0:0:
240,176,262895,1,0,0:0:0:0:
240,176,263052,1,8,0:0:0:0:
240,176,263210,1,0,0:0:0:0:
227,168,263368,1,0,0:0:0:0:
239,172,263526,1,8,0:0:0:0:
227,168,263605,1,8,0:0:0:0:
239,165,263684,1,0,0:0:0:0:
238,172,263842,1,12,0:0:0:0:
227,191,264158,1,0,0:0:0:0:
227,191,264316,1,8,0:0:0:0:
224,193,264631,1,0,0:0:0:0:
224,193,264789,1,0,0:0:0:0:
327,135,264868,1,0,0:0:0:0:
224,193,264947,1,8,0:0:0:0:
224,193,265105,1,0,0:0:0:0:
224,190,265421,1,0,0:0:0:0:
224,190,265579,1,8,0:0:0:0:
224,190,265895,1,0,0:0:0:0:
224,190,266052,1,0,0:0:0:0:
224,190,266210,1,8,0:0:0:0:
230,179,266368,1,0,0:0:0:0:
224,185,266526,1,8,0:0:0:0:
231,199,266842,1,8,0:0:0:0:
225,198,267000,1,0,0:0:0:0:
225,198,267079,1,0,0:0:0:0:
225,198,267158,1,8,0:0:0:0:
225,206,267316,1,8,0:0:0:0:
225,206,267474,1,8,0:0:0:0:
225,206,267631,1,4,0:0:0:0:
203,159,267947,1,8,0:0:0:0:
203,159,268026,1,0,0:0:0:0:
203,159,268105,1,8,0:0:0:0:
194,156,268263,1,4,0:0:0:0:
195,160,268421,1,8,0:0:0:0:
195,160,268500,1,8,0:0:0:0:
195,160,268579,1,8,0:0:0:0:
219,118,268737,1,8,0:0:0:0:
248,89,268816,1,0,0:0:0:0:
219,118,268895,1,8,0:0:0:0:
