osu file format v14

[General]
AudioFilename: audio.mp3
AudioLeadIn: 0
PreviewTime: 68922
Countdown: 0
SampleSet: Normal
StackLeniency: 0.7
Mode: 1
LetterboxInBreaks: 0
WidescreenStoryboard: 1

[Editor]
Bookmarks: 10738,30948
DistanceSpacing: 0.2
BeatDivisor: 4
GridSize: 8
TimelineZoom: 2.4

[Metadata]
Title:Ame to Asphalt
TitleUnicode:雨とアスファルト
Artist:40mP feat. yuikonnu
ArtistUnicode:40mP feat. ゆいこんぬ
Creator:Nao Tomori
Version:Futsuu
Source:
Tags:and vocaloid hatsune miku 初音ミク yonjuu nana meter yonjuunana yonjuunanamp 40mp 40㍍P △○□× nico douga シンタイソクテイ asufaruto utaite cover exit tunes presents cindarella yuiko taiko oni
BeatmapID:2204020
BeatmapSetID:1054811

[Difficulty]
HPDrainRate:7
CircleSize:5
OverallDifficulty:4
ApproachRate:5
SliderMultiplier:1.4
SliderTickRate:1

[Events]
//Background and Video events
0,0,"BG2.jpg",0,-100
//Break Periods
2,89884,98589
2,178305,181326
//Storyboard Layer 0 (Background)
//Storyboard Layer 1 (Fail)
//Storyboard Layer 2 (Pass)
//Storyboard Layer 3 (Foreground)
//Storyboard Layer 4 (Overlay)
//Storyboard Sound Samples

[TimingPoints]
633,315.789473684211,4,1,1,60,1,0
30948,-100,4,1,1,70,0,0
50054,-100,4,1,1,75,0,0
51159,-100,4,1,1,80,0,0
51633,-100,4,1,1,70,0,0
58738,-100,4,1,1,80,0,0
58896,-100,4,1,1,70,0,0
63790,-100,4,1,1,80,0,0
66317,315.789473684211,6,1,1,80,1,0
68211,315.789473684211,4,1,1,80,1,0
69474,315.789473684211,4,1,1,90,1,1
69474,-100,4,1,1,90,0,1
89684,-100,4,1,1,90,0,0
89842,-100,4,1,1,80,0,0
99947,-100,4,1,1,70,0,0
109895,-100,4,1,1,75,0,0
120000,-100,4,1,1,80,0,0
120158,-100,4,1,1,70,0,0
127579,-100,4,1,1,80,0,0
127737,-100,4,1,1,70,0,0
132631,-100,4,1,1,80,0,0
137684,-100,4,1,1,90,0,1
157895,-100,4,1,1,90,0,0
158052,-100,4,1,1,80,0,0
178263,-100,4,1,1,60,0,0
188210,-100,4,1,1,65,0,0
207316,-100,4,1,1,80,0,0
208421,-100,4,1,1,90,0,1
238737,-100,4,1,1,100,0,1
248842,-100,4,1,1,100,0,0
249000,-100,4,1,1,80,0,0

[HitObjects]
241,259,633,5,0,0:0:0:0:
238,262,1106,1,8,0:0:0:0:
227,266,1738,1,0,0:0:0:0:
165,203,3159,1,0,0:0:0:0:
165,203,3633,1,8,0:0:0:0:
164,208,4264,1,0,0:0:0:0:
164,209,5685,1,0,0:0:0:0:
164,210,6159,1,8,0:0:0:0:
164,210,6790,1,0,0:0:0:0:
164,210,8211,1,0,0:0:0:0:
164,210,8685,1,8,0:0:0:0:
164,210,9317,1,0,0:0:0:0:
164,210,10738,1,0,0:0:0:0:
164,210,11211,1,8,0:0:0:0:
164,210,11685,1,8,0:0:0:0:
164,210,12317,1,0,0:0:0:0:
164,210,12633,1,8,0:0:0:0:
211,119,12948,1,8,0:0:0:0:
210,138,13264,1,0,0:0:0:0:
209,167,13738,1,0,0:0:0:0:
209,167,14211,1,0,0:0:0:0:
209,171,15159,1,0,0:0:0:0:
209,171,15475,1,8,0:0:0:0:
209,171,15790,1,0,0:0:0:0:
209,171,16264,1,0,0:0:0:0:
209,171,16738,1,8,0:0:0:0:
206,181,17369,1,0,0:0:0:0:
206,181,17685,1,8,0:0:0:0:
206,181,18001,1,8,0:0:0:0:
206,181,18317,1,0,0:0:0:0:
206,181,18790,1,8,0:0:0:0:
206,181,19264,1,0,0:0:0:0:
206,181,20843,1,0,0:0:0:0:
206,181,21317,1,8,0:0:0:0:
205,186,21790,1,0,0:0:0:0:
199,164,22422,1,0,0:0:0:0:
201,165,22738,1,8,0:0:0:0:
201,165,23054,1,8,0:0:0:0:
200,164,23369,1,0,0:0:0:0:
200,164,23843,1,0,0:0:0:0:
200,164,24317,1,0,0:0:0:0:
202,161,25264,1,0,0:0:0:0:
202,161,25580,1,8,0:0:0:0:
202,161,25896,1,0,0:0:0:0:
202,161,26369,1,0,0:0:0:0:
202,161,26843,1,8,0:0:0:0:
202,161,27475,1,0,0:0:0:0:
202,161,27790,1,8,0:0:0:0:
202,161,28106,1,8,0:0:0:0:
202,161,28422,1,0,0:0:0:0:
202,161,28896,1,8,0:0:0:0:
202,161,29369,1,0,0:0:0:0:
202,161,30948,1,4,0:0:0:0:
202,161,31422,1,8,0:0:0:0:
202,161,31896,1,0,0:0:0:0:
202,161,32527,1,0,0:0:0:0:
202,161,32843,1,8,0:0:0:0:
202,161,33159,1,8,0:0:0:0:
202,161,33475,1,0,0:0:0:0:
202,161,33948,1,0,0:0:0:0:
202,161,34422,1,8,0:0:0:0:
202,161,35211,1,0,0:0:0:0:
202,161,35527,1,0,0:0:0:0:
202,161,35685,1,8,0:0:0:0:
202,161,35843,1,8,0:0:0:0:
202,161,36001,1,0,0:0:0:0:
198,163,36475,1,0,0:0:0:0:
198,163,36948,1,8,0:0:0:0:
198,163,37580,1,0,0:0:0:0:
190,164,37896,1,8,0:0:0:0:
190,165,38211,1,8,0:0:0:0:
190,165,38527,1,0,0:0:0:0:
190,165,39001,1,8,0:0:0:0:
190,165,39475,1,0,0:0:0:0:
190,170,41054,1,0,0:0:0:0:
255,102,41527,1,8,0:0:0:0:
255,102,42001,1,0,0:0:0:0:
255,102,42633,1,0,0:0:0:0:
255,102,42948,1,8,0:0:0:0:
255,102,43264,1,8,0:0:0:0:
255,102,43580,1,0,0:0:0:0:
255,102,44054,1,0,0:0:0:0:
255,102,44527,1,0,0:0:0:0:
255,102,45317,1,0,0:0:0:0:
255,102,45475,1,8,0:0:0:0:
255,102,45633,1,8,0:0:0:0:
255,102,45790,1,0,0:0:0:0:
255,102,46106,1,8,0:0:0:0:
255,102,46580,1,0,0:0:0:0:
255,102,47054,1,8,0:0:0:0:
267,123,47685,1,0,0:0:0:0:
268,123,48001,1,8,0:0:0:0:
268,123,48317,1,8,0:0:0:0:
268,123,48633,1,0,0:0:0:0:
268,123,49106,1,8,0:0:0:0:
268,123,49580,1,0,0:0:0:0:
268,123,50843,1,0,0:0:0:0:
268,123,51159,1,12,0:0:0:0:
267,120,51633,1,8,0:0:0:0:
267,120,52106,1,8,0:0:0:0:
267,120,52738,1,0,0:0:0:0:
267,120,53054,1,8,0:0:0:0:
260,108,53369,1,0,0:0:0:0:
260,108,53685,1,8,0:0:0:0:
260,108,54159,1,8,0:0:0:0:
260,108,54633,1,0,0:0:0:0:
260,108,55738,1,8,0:0:0:0:
260,108,56054,1,0,0:0:0:0:
260,108,56211,1,12,0:0:0:0:
172,116,58422,1,0,0:0:0:0:
169,114,58738,1,12,0:0:0:0:
169,114,59211,1,8,0:0:0:0:
169,114,59685,1,8,0:0:0:0:
169,114,60317,1,0,0:0:0:0:
169,109,60633,1,8,0:0:0:0:
169,109,60948,1,0,0:0:0:0:
169,107,61264,1,8,0:0:0:0:
169,107,61738,1,8,0:0:0:0:
169,107,62211,1,0,0:0:0:0:
169,107,63475,1,8,0:0:0:0:
169,107,63790,1,4,0:0:0:0:
169,107,64264,1,0,0:0:0:0:
169,107,64738,1,12,0:0:0:0:
228,96,66001,1,8,0:0:0:0:
215,92,66317,1,4,0:0:0:0:
215,95,66790,1,0,0:0:0:0:
215,95,67264,1,12,0:0:0:0:
215,95,67895,1,12,0:0:0:0:
215,98,69000,1,0,0:0:0:0:
215,98,69158,1,8,0:0:0:0:
215,98,69316,1,8,0:0:0:0:
215,98,69474,1,4,0:0:0:0:
214,100,69947,1,8,0:0:0:0:
214,100,70263,1,0,0:0:0:0:
214,100,70579,1,8,0:0:0:0:
214,100,70895,1,8,0:0:0:0:
214,100,71210,1,0,0:0:0:0:
214,100,71526,1,8,0:0:0:0:
214,100,71842,1,0,0:0:0:0:
214,100,72947,1,0,0:0:0:0:
214,100,73263,1,8,0:0:0:0:
214,100,73895,1,8,0:0:0:0:
214,100,74368,1,4,0:0:0:0:
200,150,75474,1,0,0:0:0:0:
200,150,75789,1,8,0:0:0:0:
200,150,75947,1,0,0:0:0:0:
200,150,76263,1,8,0:0:0:0:
212,133,76579,1,0,0:0:0:0:
211,134,76895,1,0,0:0:0:0:
187,128,77842,1,0,0:0:0:0:
187,128,78000,1,8,0:0:0:0:
187,128,78158,1,12,0:0:0:0:
192,75,79105,1,0,0:0:0:0:
192,75,79263,1,0,0:0:0:0:
192,75,79421,1,0,0:0:0:0:
192,75,79579,1,12,0:0:0:0:
211,61,80052,1,8,0:0:0:0:
211,61,80368,1,0,0:0:0:0:
210,60,80684,1,8,0:0:0:0:
210,60,81000,1,8,0:0:0:0:
210,60,81316,1,0,0:0:0:0:
210,60,81474,1,0,0:0:0:0:
210,60,81631,1,8,0:0:0:0:
202,73,81947,1,0,0:0:0:0:
202,73,83052,1,0,0:0:0:0:
202,73,83368,1,8,0:0:0:0:
202,73,84000,1,8,0:0:0:0:
202,73,84474,1,4,0:0:0:0:
202,73,85579,1,0,0:0:0:0:
202,73,85895,1,8,0:0:0:0:
202,73,86052,1,0,0:0:0:0:
202,73,86368,1,8,0:0:0:0:
162,97,86684,1,0,0:0:0:0:
162,97,87000,1,0,0:0:0:0:
162,97,87789,1,8,0:0:0:0:
162,97,87947,1,0,0:0:0:0:
162,97,88105,1,0,0:0:0:0:
162,97,88263,1,12,0:0:0:0:
195,119,89684,1,4,0:0:0:0:
183,113,99789,5,4,0:0:0:0:
232,128,100263,1,8,0:0:0:0:
232,128,100737,1,0,0:0:0:0:
252,143,101368,1,0,0:0:0:0:
252,143,101684,1,8,0:0:0:0:
252,143,102000,1,8,0:0:0:0:
252,143,102316,1,0,0:0:0:0:
252,143,102789,1,0,0:0:0:0:
252,143,103263,1,0,0:0:0:0:
252,127,104052,1,0,0:0:0:0:
301,161,104368,1,0,0:0:0:0:
294,157,104526,1,8,0:0:0:0:
294,157,104684,1,8,0:0:0:0:
294,157,104842,1,0,0:0:0:0:
294,157,105316,1,8,0:0:0:0:
294,157,105789,1,8,0:0:0:0:
294,157,106421,1,0,0:0:0:0:
294,157,106737,1,8,0:0:0:0:
294,157,107052,1,0,0:0:0:0:
294,157,107368,1,0,0:0:0:0:
294,157,107842,1,8,0:0:0:0:
294,157,108316,1,8,0:0:0:0:
294,157,109895,1,4,0:0:0:0:
294,157,110368,1,8,0:0:0:0:
294,157,110842,1,0,0:0:0:0:
291,158,111474,1,0,0:0:0:0:
291,158,111789,1,8,0:0:0:0:
291,158,112105,1,8,0:0:0:0:
291,158,112421,1,0,0:0:0:0:
291,158,112895,1,0,0:0:0:0:
291,158,113368,1,0,0:0:0:0:
291,158,114158,1,0,0:0:0:0:
291,158,114316,1,8,0:0:0:0:
291,158,114474,1,8,0:0:0:0:
291,158,114631,1,0,0:0:0:0:
283,159,114947,1,8,0:0:0:0:
283,159,115421,1,8,0:0:0:0:
283,159,115895,1,8,0:0:0:0:
283,159,116526,1,0,0:0:0:0:
283,159,116842,1,8,0:0:0:0:
283,159,117158,1,0,0:0:0:0:
283,159,117474,1,0,0:0:0:0:
283,159,117947,1,8,0:0:0:0:
283,159,118421,1,0,0:0:0:0:
283,159,119684,1,0,0:0:0:0:
283,159,120000,1,12,0:0:0:0:
283,159,120474,1,8,0:0:0:0:
283,159,120947,1,8,0:0:0:0:
283,159,121579,1,0,0:0:0:0:
283,159,121895,1,0,0:0:0:0:
283,150,122210,1,8,0:0:0:0:
283,150,122526,1,8,0:0:0:0:
283,150,123000,1,0,0:0:0:0:
283,150,123474,1,0,0:0:0:0:
283,150,124579,1,8,0:0:0:0:
283,150,124895,1,0,0:0:0:0:
283,150,125052,1,12,0:0:0:0:
260,153,127263,1,0,0:0:0:0:
260,153,127579,1,12,0:0:0:0:
152,83,128052,1,8,0:0:0:0:
152,83,128526,1,8,0:0:0:0:
152,85,129158,1,0,0:0:0:0:
152,85,129474,1,8,0:0:0:0:
152,85,129789,1,8,0:0:0:0:
152,85,130105,1,0,0:0:0:0:
152,85,130579,1,8,0:0:0:0:
152,85,131052,1,8,0:0:0:0:
152,85,131368,1,0,0:0:0:0:
152,85,132000,1,0,0:0:0:0:
152,85,132631,1,12,0:0:0:0:
198,142,133263,1,0,0:0:0:0:
196,137,133579,1,8,0:0:0:0:
195,137,133895,1,0,0:0:0:0:
195,137,134526,1,0,0:0:0:0:
195,137,134842,1,8,0:0:0:0:
195,137,135158,1,8,0:0:0:0:
195,137,135789,1,0,0:0:0:0:
198,117,136105,1,8,0:0:0:0:
194,113,136421,1,4,0:0:0:0:
193,117,137052,1,0,0:0:0:0:
193,117,137368,1,8,0:0:0:0:
193,117,137684,1,4,0:0:0:0:
200,124,138000,1,8,0:0:0:0:
200,124,138158,1,0,0:0:0:0:
200,124,138474,1,8,0:0:0:0:
199,125,138789,1,0,0:0:0:0:
200,138,139579,1,0,0:0:0:0:
188,137,139895,1,0,0:0:0:0:
186,133,140210,1,8,0:0:0:0:
185,135,140526,1,8,0:0:0:0:
185,135,140684,1,0,0:0:0:0:
185,135,141000,1,0,0:0:0:0:
185,135,141316,1,8,0:0:0:0:
158,68,142105,1,0,0:0:0:0:
157,68,142421,1,8,0:0:0:0:
157,68,142737,1,4,0:0:0:0:
263,161,143052,1,0,0:0:0:0:
263,161,143210,1,0,0:0:0:0:
263,161,143526,1,8,0:0:0:0:
263,161,143842,1,0,0:0:0:0:
259,160,144631,1,0,0:0:0:0:
259,160,144947,1,8,0:0:0:0:
259,160,145263,1,8,0:0:0:0:
259,160,145579,1,0,0:0:0:0:
259,160,145737,1,8,0:0:0:0:
259,160,146052,1,8,0:0:0:0:
259,160,146368,1,4,0:0:0:0:
257,160,147158,1,0,0:0:0:0:
257,160,147474,1,8,0:0:0:0:
257,160,147789,1,4,0:0:0:0:
257,160,148105,1,8,0:0:0:0:
257,160,148263,1,0,0:0:0:0:
257,160,148579,1,8,0:0:0:0:
257,160,148895,1,0,0:0:0:0:
206,159,149684,1,0,0:0:0:0:
206,159,150000,1,0,0:0:0:0:
206,159,150316,1,8,0:0:0:0:
206,159,150631,1,0,0:0:0:0:
206,159,150789,1,8,0:0:0:0:
206,159,151105,1,8,0:0:0:0:
206,159,151421,1,0,0:0:0:0:
206,159,152210,1,0,0:0:0:0:
206,159,152526,1,8,0:0:0:0:
206,159,152842,1,4,0:0:0:0:
206,159,153158,1,8,0:0:0:0:
206,159,153316,1,0,0:0:0:0:
206,159,153631,1,8,0:0:0:0:
206,159,153947,1,0,0:0:0:0:
206,159,154737,1,0,0:0:0:0:
206,159,155052,1,0,0:0:0:0:
206,159,155368,1,8,0:0:0:0:
206,159,155684,1,0,0:0:0:0:
206,159,155842,1,8,0:0:0:0:
206,159,156158,1,8,0:0:0:0:
206,159,156474,1,12,0:0:0:0:
206,159,156947,1,8,0:0:0:0:
206,159,157105,1,4,0:0:0:0:
222,152,157421,1,8,0:0:0:0:
193,129,157737,1,8,0:0:0:0:
222,152,157895,1,4,0:0:0:0:
256,192,158052,12,0,160421,0:0:0:0:
242,203,162316,5,8,0:0:0:0:
238,210,162631,1,8,0:0:0:0:
231,218,162947,1,0,0:0:0:0:
233,221,165474,1,0,0:0:0:0:
233,221,166579,1,8,0:0:0:0:
233,221,167368,1,0,0:0:0:0:
233,221,167684,1,0,0:0:0:0:
232,221,168000,1,12,0:0:0:0:
170,195,168631,1,8,0:0:0:0:
232,221,169263,1,8,0:0:0:0:
232,221,169895,1,0,0:0:0:0:
232,220,170210,1,8,0:0:0:0:
232,220,170526,1,0,0:0:0:0:
236,227,171158,1,0,0:0:0:0:
236,227,171474,1,0,0:0:0:0:
236,227,171789,1,8,0:0:0:0:
236,227,172105,1,8,0:0:0:0:
236,227,172421,1,0,0:0:0:0:
236,227,172737,1,8,0:0:0:0:
236,227,173052,1,0,0:0:0:0:
236,227,173684,1,8,0:0:0:0:
236,227,174316,1,0,0:0:0:0:
236,227,174631,1,0,0:0:0:0:
236,227,174947,1,8,0:0:0:0:
236,227,175263,1,8,0:0:0:0:
236,227,175579,1,0,0:0:0:0:
236,227,176210,1,8,0:0:0:0:
226,177,176684,1,4,0:0:0:0:
226,182,177316,1,8,0:0:0:0:
186,126,177631,1,8,0:0:0:0:
187,143,177947,1,0,0:0:0:0:
187,143,178105,1,12,0:0:0:0:
260,246,182526,5,8,0:0:0:0:
260,246,182684,1,0,0:0:0:0:
260,246,183158,1,12,0:0:0:0:
259,271,185368,1,0,0:0:0:0:
259,271,185684,1,8,0:0:0:0:
220,183,187737,1,0,0:0:0:0:
220,183,187895,1,8,0:0:0:0:
220,183,188210,1,8,0:0:0:0:
220,183,188368,1,0,0:0:0:0:
197,164,188684,1,8,0:0:0:0:
197,164,189000,1,0,0:0:0:0:
197,161,189316,1,8,0:0:0:0:
197,161,189631,1,8,0:0:0:0:
199,155,189947,1,0,0:0:0:0:
200,159,190263,1,8,0:0:0:0:
200,159,190737,1,0,0:0:0:0:
240,193,192789,1,0,0:0:0:0:
240,193,192947,1,8,0:0:0:0:
236,187,193263,1,8,0:0:0:0:
236,187,193421,1,0,0:0:0:0:
263,159,193737,1,8,0:0:0:0:
263,159,194052,1,0,0:0:0:0:
263,159,194368,1,8,0:0:0:0:
263,159,194684,1,8,0:0:0:0:
263,159,195000,1,0,0:0:0:0:
263,159,195316,1,8,0:0:0:0:
251,160,195789,1,0,0:0:0:0:
215,185,197842,1,0,0:0:0:0:
215,185,198000,1,8,0:0:0:0:
215,185,198316,1,8,0:0:0:0:
215,185,198474,1,0,0:0:0:0:
210,172,198789,1,8,0:0:0:0:
210,172,199105,1,8,0:0:0:0:
210,172,199421,1,0,0:0:0:0:
210,172,199737,1,0,0:0:0:0:
210,172,200052,1,8,0:0:0:0:
210,172,200210,1,8,0:0:0:0:
210,172,200368,1,8,0:0:0:0:
205,170,200842,1,0,0:0:0:0:
247,157,201789,1,0,0:0:0:0:
242,157,202105,1,8,0:0:0:0:
242,158,202737,1,8,0:0:0:0:
242,158,203368,1,0,0:0:0:0:
242,158,204316,1,0,0:0:0:0:
241,158,204631,1,8,0:0:0:0:
241,158,204789,1,0,0:0:0:0:
241,158,205105,1,8,0:0:0:0:
241,158,205421,1,8,0:0:0:0:
228,158,205895,1,0,0:0:0:0:
228,158,207000,1,8,0:0:0:0:
228,158,207947,1,0,0:0:0:0:
228,158,208105,1,8,0:0:0:0:
200,74,208263,1,8,0:0:0:0:
228,158,208421,1,4,0:0:0:0:
220,145,208895,1,8,0:0:0:0:
215,147,209210,1,0,0:0:0:0:
195,239,209526,1,8,0:0:0:0:
195,239,209842,1,8,0:0:0:0:
195,239,210158,1,0,0:0:0:0:
195,239,210474,1,8,0:0:0:0:
195,239,210789,1,0,0:0:0:0:
190,234,211895,1,0,0:0:0:0:
190,234,212210,1,8,0:0:0:0:
190,234,212842,1,8,0:0:0:0:
185,213,213316,1,4,0:0:0:0:
188,240,214421,1,0,0:0:0:0:
187,238,214737,1,8,0:0:0:0:
187,238,214895,1,0,0:0:0:0:
187,238,215210,1,8,0:0:0:0:
187,238,215526,1,0,0:0:0:0:
184,238,215842,1,0,0:0:0:0:
184,238,216631,1,8,0:0:0:0:
186,226,216789,1,0,0:0:0:0:
186,226,216947,1,0,0:0:0:0:
186,226,217105,1,12,0:0:0:0:
201,208,218052,1,0,0:0:0:0:
201,208,218210,1,8,0:0:0:0:
201,208,218368,1,8,0:0:0:0:
201,208,218526,1,4,0:0:0:0:
272,151,219000,1,8,0:0:0:0:
259,171,219316,1,0,0:0:0:0:
274,150,219631,1,8,0:0:0:0:
255,168,219947,1,8,0:0:0:0:
254,168,220263,1,0,0:0:0:0:
232,177,220421,1,0,0:0:0:0:
251,166,220579,1,8,0:0:0:0:
235,169,220895,1,0,0:0:0:0:
243,180,222000,1,0,0:0:0:0:
247,190,222316,1,8,0:0:0:0:
242,199,222947,1,8,0:0:0:0:
242,199,223421,1,4,0:0:0:0:
199,170,224526,1,0,0:0:0:0:
199,172,224842,1,8,0:0:0:0:
199,172,225000,1,0,0:0:0:0:
199,172,225316,1,8,0:0:0:0:
199,172,225631,1,0,0:0:0:0:
211,136,225947,1,0,0:0:0:0:
245,169,226737,1,8,0:0:0:0:
245,169,226895,1,0,0:0:0:0:
245,169,227052,1,0,0:0:0:0:
237,170,227210,1,12,0:0:0:0:
200,261,228158,1,0,0:0:0:0:
204,253,228316,1,0,0:0:0:0:
204,253,228474,1,0,0:0:0:0:
204,253,228631,1,12,0:0:0:0:
239,133,229105,1,8,0:0:0:0:
239,133,229421,1,0,0:0:0:0:
239,133,229737,1,8,0:0:0:0:
232,135,230052,1,0,0:0:0:0:
232,135,230368,1,0,0:0:0:0:
226,139,230684,1,8,0:0:0:0:
220,141,231000,1,0,0:0:0:0:
198,150,232105,1,0,0:0:0:0:
198,150,232421,1,8,0:0:0:0:
198,149,233052,1,8,0:0:0:0:
217,125,233526,1,4,0:0:0:0:
206,130,234631,1,0,0:0:0:0:
206,131,234947,1,8,0:0:0:0:
206,131,235105,1,0,0:0:0:0:
206,131,235421,1,8,0:0:0:0:
203,132,235737,1,8,0:0:0:0:
194,143,236052,1,0,0:0:0:0:
194,143,237000,1,0,0:0:0:0:
194,143,237158,1,0,0:0:0:0:
191,147,237316,1,12,0:0:0:0:
183,97,238263,1,0,0:0:0:0:
183,97,238421,1,8,0:0:0:0:
183,97,238579,1,8,0:0:0:0:
215,127,238737,1,4,0:0:0:0:
251,129,239210,1,8,0:0:0:0:
251,129,239526,1,0,0:0:0:0:
251,93,239842,1,8,0:0:0:0:
251,91,240158,1,8,0:0:0:0:
249,91,240474,1,0,0:0:0:0:
210,69,240789,1,8,0:0:0:0:
212,92,241105,1,8,0:0:0:0:
212,96,242052,1,8,0:0:0:0:
202,81,242210,1,8,0:0:0:0:
196,136,242368,1,0,0:0:0:0:
189,164,243316,1,0,0:0:0:0:
189,164,243474,1,8,0:0:0:0:
188,155,243631,1,4,0:0:0:0:
198,170,244579,1,0,0:0:0:0:
208,158,244737,1,8,0:0:0:0:
208,158,244895,1,0,0:0:0:0:
198,164,245842,1,0,0:0:0:0:
198,164,246000,1,0,0:0:0:0:
198,164,246158,1,8,0:0:0:0:
200,163,247105,1,8,0:0:0:0:
200,163,247263,1,8,0:0:0:0:
192,159,247421,1,4,0:0:0:0:
181,184,248210,1,4,0:0:0:0:
200,103,248684,1,0,0:0:0:0:
181,184,248842,1,12,0:0:0:0:
256,192,249000,12,12,251368,0:0:0:0:
212,129,252000,5,8,0:0:0:0:
214,162,252631,1,0,0:0:0:0:
215,162,252947,1,0,0:0:0:0:
215,162,253263,1,8,0:0:0:0:
215,160,253737,1,4,0:0:0:0:
214,191,254842,1,0,0:0:0:0:
214,191,255158,1,8,0:0:0:0:
214,191,255789,1,8,0:0:0:0:
212,192,256421,1,0,0:0:0:0:
211,193,257052,1,0,0:0:0:0:
211,193,257368,1,0,0:0:0:0:
211,193,257526,1,12,0:0:0:0:
300,172,258316,1,8,0:0:0:0:
297,169,258631,1,0,0:0:0:0:
278,171,258947,1,12,0:0:0:0:
219,156,259579,1,8,0:0:0:0:
220,150,260210,1,0,0:0:0:0:
215,156,260842,1,0,0:0:0:0:
177,41,261158,1,8,0:0:0:0:
224,178,261474,1,0,0:0:0:0:
224,178,262105,1,0,0:0:0:0:
224,178,262421,1,0,0:0:0:0:
211,188,262737,1,8,0:0:0:0:
211,188,263368,1,8,0:0:0:0:
210,186,263842,1,4,0:0:0:0:
180,179,264947,1,0,0:0:0:0:
182,179,265263,1,8,0:0:0:0:
181,182,265895,1,8,0:0:0:0:
182,172,266526,1,8,0:0:0:0:
182,172,267158,1,0,0:0:0:0:
182,172,267316,1,8,0:0:0:0:
182,172,267474,1,8,0:0:0:0:
182,172,267631,1,4,0:0:0:0:
164,65,268105,1,8,0:0:0:0:
148,153,268421,1,8,0:0:0:0:
148,153,268579,1,0,0:0:0:0:
148,153,268737,1,0,0:0:0:0:
148,153,268895,1,8,0:0:0:0:
